(Classical) Александр Арутюнян, Jukka Linkola - Trumpet Concertos - Jouko Harjanne, The Guards\' Band, Sami Hannula, Elias Seppälä (Seppala) - 2009, FLAC (image+.cue) lossless


Статистика раздачи [Обновить пиров]
Размер:  260 MB   |    Зарегистрирован:  1 год 1 месяц   |    Скачан:  2 раза

Полного источника не было: 3 месяца 8 дней

Личеров:  4  [  0 KB/s  ]   Подробная статистика пиров
 
   
 
 
 

[Цитировать]

Александр Арутюнян, Jukka Linkola - Trumpet Concertos - Jouko Harjanne, The Guards' Band, Sami Hannula, Elias Seppälä
Жанр: Classical
Страна-производитель диска: Finland
Год издания диска: 2009
Издатель (лейбл): Alba Records
Номер по каталогу: ABCD 278
Дата записи: 2008, 2009
Аудиокодек: FLAC
Тип рипа: image+.cue
Битрейт аудио: lossless
Продолжительность: 69:32
Источник: собственный рип
Наличие сканов в содержимом раздачи: да
Треклист:
Alexander Arutiunian (1920-2012)
[1] Trumpet Concerto in A flat major, Op.94
Jukka Linkola (b.1955)
[2]-[4] Trumpet Concerto No.2
Alexander Arutiunian
[5] Rhapsody for Trumpet and Winds
Jukka Linkola
[6]-[8] Trumpet Concerto No.1
Исполнители:
Jouko Harjanne trumpet
The Guards' Band
Sami Hannula
conductor ([1], [5])
Elias Seppälä conductor ([2]-[4], [6]-[8])

Лог создания рипа

Exact Audio Copy V1.0 beta 3 from 29. August 2011
EAC extraction logfile from 6. January 2015, 20:14
Jouko Harjanne, The Guards' Band / Trumpet Rhapsody
Used drive : HL-DT-STDVDRAM GU70N Adapter: 0 ID: 0
Read mode : SecureUtilize accurate stream : YesDefeat audio cache : YesMake use of C2 pointers : No
Read offset correction : 48Overread into Lead-In and Lead-Out : NoFill up missing offset samples with silence : YesDelete leading and trailing silent blocks : NoNull samples used in CRC calculations : YesUsed interface : Native Win32 interface for Win NT & 2000
Used output format : User Defined EncoderSelected bitrate : 128 kBit/sQuality : HighAdd ID3 tag : NoCommand line compressor : C:\Program Files (x86)\Exact Audio Copy\Flac\flac.exeAdditional command line options : -V -8 -T "Date=%year%" -T "Genre=%genre%" %source%
TOC of the extracted CD
Track | Start | Length | Start sector | End sector --------------------------------------------------------- 1 | 0:00.00 | 18:27.44 | 0 | 83068 2 | 18:27.44 | 6:11.51 | 83069 | 110944 3 | 24:39.20 | 6:48.49 | 110945 | 141593 4 | 31:27.69 | 5:43.31 | 141594 | 167349 5 | 37:11.25 | 8:53.67 | 167350 | 207391 6 | 46:05.17 | 11:17.72 | 207392 | 258238 7 | 57:23.14 | 6:05.60 | 258239 | 285673 8 | 63:28.74 | 6:01.68 | 285674 | 312816
Range status and errors
Selected range
Filename C:\temp\Arutiunian, Linkola - Trumpet Rhapsody\Trumpet Rhapsody.wav
Peak level 100.0 % Extraction speed 2.3 X Range quality 99.9 % Test CRC B9DE9F3E Copy CRC B9DE9F3E Copy OK
No errors occurred
AccurateRip summary
Track 1 not present in databaseTrack 2 not present in databaseTrack 3 not present in databaseTrack 4 not present in databaseTrack 5 not present in databaseTrack 6 not present in databaseTrack 7 not present in databaseTrack 8 not present in database
None of the tracks are present in the AccurateRip database
End of status report
==== Log checksum C9344AD5DAAE0CA56AEF426D12F736311C28C55739C905BE52296AEDAF32BCA7 ====
[teatrix.ru].t9672.torrent 
Торрент: Зарегистрирован [ 2015-10-23 17:11 ] · A48D38A46F4C78C2B4BBA82E30D46C69830F79A8

Скачать .torrent

Скачать

22 KB

Статус: проверено
Скачан: 2 раз
Размер: 260 MB
terms.php



Быстрый ответ

Имя:

      
Для отправки сообщений необходимо включить JavaScript
Показать сообщения:    

Текущее время: 06-Дек 15:13

Часовой пояс: UTC + 3


Вы можете начинать темы
Вы можете отвечать на сообщения
Вы не можете редактировать свои сообщения
Вы не можете удалять свои сообщения
Вы не можете голосовать в опросах
Вы не можете прикреплять файлы к сообщениям
Вы можете скачивать файлы