(Classical) Joseph Haydn - Violin Concertos - Elina Vähälä (Vahala), Virtuosi di Kuhmo - 2009, FLAC (image+.cue) lossless


Статистика раздачи [Обновить пиров]
Размер:  324 MB   |    Зарегистрирован:  1 год 1 месяц   |    Скачан:  0 раз

Полного источника не было: Никогда

Личеров:  4  [  0 KB/s  ]   Подробная статистика пиров
 
   
 
 
 

[Цитировать]

Joseph Haydn - Violin Concertos - Elina Vähälä (Vahala), Virtuosi di Kuhmo
Жанр: Classical
Страна-производитель диска: Finland
Год издания диска: 2009
Издатель (лейбл): Alba Records
Номер по каталогу: ABCD 272
Дата записи: 2008
Аудиокодек: FLAC
Тип рипа: image+.cue
Битрейт аудио: lossless
Продолжительность: 63:44
Источник: собственный рип
Наличие сканов в содержимом раздачи: да
Треклист:
Joseph Haydn (1732-1809)
[1]-[3] Violin Concerto in G major, Hob VIIA:4
[4]-[6] Violin Concerto in A major, Hob VIIA:3
[7]-[9] Violin Concerto in C major, Hob VIIA:1
Исполнители:
Elina Vähälä violin
Virtuosi di Kuhmo

Лог создания рипа

Exact Audio Copy V1.0 beta 3 from 29. August 2011
EAC extraction logfile from 6. January 2015, 17:11
Elina Vahala, Virtuosi di Kuhmo / Haydn - Violin Concertos
Used drive : HL-DT-STDVDRAM GU70N Adapter: 0 ID: 0
Read mode : SecureUtilize accurate stream : YesDefeat audio cache : YesMake use of C2 pointers : No
Read offset correction : 48Overread into Lead-In and Lead-Out : NoFill up missing offset samples with silence : YesDelete leading and trailing silent blocks : NoNull samples used in CRC calculations : YesUsed interface : Native Win32 interface for Win NT & 2000
Used output format : User Defined EncoderSelected bitrate : 128 kBit/sQuality : HighAdd ID3 tag : NoCommand line compressor : C:\Program Files (x86)\Exact Audio Copy\Flac\flac.exeAdditional command line options : -V -8 -T "Date=%year%" -T "Genre=%genre%" %source%
TOC of the extracted CD
Track | Start | Length | Start sector | End sector --------------------------------------------------------- 1 | 0:00.00 | 8:05.18 | 0 | 36392 2 | 8:05.18 | 6:12.09 | 36393 | 64301 3 | 14:17.27 | 3:57.12 | 64302 | 82088 4 | 18:14.39 | 12:14.24 | 82089 | 137162 5 | 30:28.63 | 7:29.44 | 137163 | 170881 6 | 37:58.32 | 5:19.39 | 170882 | 194845 7 | 43:17.71 | 10:06.47 | 194846 | 240342 8 | 53:24.43 | 5:58.72 | 240343 | 267264 9 | 59:23.40 | 4:19.03 | 267265 | 286692
Range status and errors
Selected range
Filename C:\temp\Haydn - Violin Concertos - Vahala\Haydn - Violin Concertos.wav
Peak level 94.4 % Extraction speed 2.2 X Range quality 100.0 % Test CRC AA3233EA Copy CRC AA3233EA Copy OK
No errors occurred
AccurateRip summary
Track 1 accurately ripped (confidence 1) [B35396BE] (AR v2)Track 2 accurately ripped (confidence 1) [FFE7EC27] (AR v2)Track 3 accurately ripped (confidence 1) [4CD2E622] (AR v2)Track 4 accurately ripped (confidence 1) [56B9CD02] (AR v2)Track 5 accurately ripped (confidence 1) [3E881EE9] (AR v2)Track 6 accurately ripped (confidence 1) [20D2BB99] (AR v2)Track 7 accurately ripped (confidence 1) [C822C109] (AR v2)Track 8 accurately ripped (confidence 1) [5BBFAD5A] (AR v2)Track 9 accurately ripped (confidence 1) [02F2A0E9] (AR v2)
All tracks accurately ripped
End of status report
==== Log checksum 8CFA62152001F4BC424276078B7DDC4598C8BC999C29EAA3FC3927C6D60C4822 ====
[teatrix.ru].t9673.torrent 
Торрент: Зарегистрирован [ 2015-10-23 17:11 ] · 511B65CC45215B6B121ED3BD23CB20A7854599BA

Скачать .torrent

Скачать

27 KB

Статус: проверено
Скачан: 0 раз
Размер: 324 MB
terms.php



Быстрый ответ

Имя:

      
Для отправки сообщений необходимо включить JavaScript
Показать сообщения:    

Текущее время: 05-Дек 17:30

Часовой пояс: UTC + 3


Вы можете начинать темы
Вы можете отвечать на сообщения
Вы не можете редактировать свои сообщения
Вы не можете удалять свои сообщения
Вы не можете голосовать в опросах
Вы не можете прикреплять файлы к сообщениям
Вы можете скачивать файлы