(Classical) Mahan Esfahani - Time Present and Time Past: Alessandro Scarlatti & C.P.E. Bach - Variations, Geminiani - Concerto Grosso, Henryk Gorecki & Carl Philipp Emanuel Bach - Harpsichord Concertos, Reich - Piano Phase - 2015, FLAC (image


Статистика раздачи [Обновить пиров]
Размер:  482 MB   |    Зарегистрирован:  1 год 1 месяц   |    Скачан:  0 раз

Полного источника не было: Никогда

Личеров:  4  [  0 KB/s  ]   Подробная статистика пиров
 
   
 
 
 

[Цитировать]

Mahan Esfahani - Time Present and Time Past
Жанр: Classical
Страна-производитель диска: EU
Год издания диска: 2015
Издатель (лейбл): Deutsche Grammophon
Номер по каталогу: 479 4481 |A|H|
Дата записи: IX.2014
Аудиокодек: FLAC
Тип рипа: image+.cue
Битрейт аудио: lossless
Продолжительность: 1:13'44'
Источник: собственный рип
Наличие сканов в содержимом раздачи: да
Треклист:
Alessandro Scarlatti
1. Variations on 'La Folia'
Henryk Gorecki - Harpsichord Concerto, Op.40
2. I. Allegro molto
3. II. Vivace
Carl Philipp Emanuel Bach
4. 12 Variations on 'Les Folies d'Espagne'
Francesco Geminiani
5. Concerto Grosso in D minor (after Arcangelo Corelli's Op.5 No.12)
Steve Reich
6. Piano Phase (version for harpsichord by Mahan Esfahani)
Johann Sebastian Bach - Harpsichord Concerto BWV 1052
7. I. Allegro
8. II. Adagio
9. III. Allegro
Исполнители:
Mahan Esfahani, harpsichord
Concerto Koln
-

Лог создания рипа

Exact Audio Copy V1.0 beta 4 from 7. December 2014
EAC extraction logfile from 20. May 2015, 21:12
Mahan Esfahani / Time Present and Time Past
Used drive : TSSTcorpDVDWBD TS-LB23A Adapter: 1 ID: 0
Read mode : SecureUtilize accurate stream : YesDefeat audio cache : YesMake use of C2 pointers : No
Read offset correction : 6Overread into Lead-In and Lead-Out : NoFill up missing offset samples with silence : YesDelete leading and trailing silent blocks : NoNull samples used in CRC calculations : YesUsed interface : Native Win32 interface for Win NT & 2000
Used output format : User Defined EncoderSelected bitrate : 128 kBit/sQuality : HighAdd ID3 tag : YesCommand line compressor : C:\Program Files (x86)\Exact Audio Copy\Flac\flac.exeAdditional command line options : -T "COMMENT=Ripped by GFox" -V -8 %source%
TOC of the extracted CD
Track | Start | Length | Start sector | End sector --------------------------------------------------------- 1 | 0:00.00 | 6:27.51 | 0 | 29075 2 | 6:27.51 | 4:24.44 | 29076 | 48919 3 | 10:52.20 | 4:11.34 | 48920 | 67778 4 | 15:03.54 | 7:18.61 | 67779 | 100689 5 | 22:22.40 | 11:48.49 | 100690 | 153838 6 | 34:11.14 | 16:42.31 | 153839 | 229019 7 | 50:53.45 | 7:48.50 | 229020 | 264169 8 | 58:42.20 | 6:37.58 | 264170 | 294002 9 | 65:20.03 | 8:24.62 | 294003 | 331864
Range status and errors
Selected range
Filename D:\Downloads\Mahan Esfahani - Time Present and Time Past.wav
Peak level 95.5 % Extraction speed 1.9 X Range quality 99.9 % Test CRC D7CFE433 Copy CRC D7CFE433 Copy OK
No errors occurred
AccurateRip summary
Track 1 not present in databaseTrack 2 not present in databaseTrack 3 not present in databaseTrack 4 not present in databaseTrack 5 not present in databaseTrack 6 not present in databaseTrack 7 not present in databaseTrack 8 not present in databaseTrack 9 not present in database
None of the tracks are present in the AccurateRip database
End of status report
==== Log checksum 31546400797B9590C2703D0336957AD76261E63A60EBDD0B03ABAB7D8338E458 ====
-Доп. информация: Иранский музыкант Mahan Esfahani предлагает вниманию слушателей сопоставительную подборку клавессиновой музыки барокко и минимализма.-
[teatrix.ru].t9674.torrent 
Торрент: Зарегистрирован [ 2015-10-23 17:11 ] · FBC90DA4D37A4651680D2ECBEB7D0A6BDBB00FBA

Скачать .torrent

Скачать

20 KB

Статус: проверено
Скачан: 0 раз
Размер: 482 MB
terms.php



Быстрый ответ

Имя:

      
Для отправки сообщений необходимо включить JavaScript
Показать сообщения:    

Текущее время: 04-Дек 11:15

Часовой пояс: UTC + 3


Вы можете начинать темы
Вы можете отвечать на сообщения
Вы не можете редактировать свои сообщения
Вы не можете удалять свои сообщения
Вы не можете голосовать в опросах
Вы не можете прикреплять файлы к сообщениям
Вы можете скачивать файлы