(Classical) Johann Sebastian Bach - Brandenburgische Konzerte • Orchestersuiten • Tripelkonzert fur Flote, Violine, Cembalo und Streicher, BWV 1044 (Aurele Nicolet, Gerhart Hetzel, Karl Richter, 1960-1980) - 2002 [3 CD], FLAC (image+.cue) lossless


Статистика раздачи [Обновить пиров]
Размер:  1.13 GB   |    Зарегистрирован:  1 год 1 месяц   |    Скачан:  0 раз

Полного источника не было: Никогда

Личеров:  4  [  0 KB/s  ]   Подробная статистика пиров
 
   
 
 
 

[Цитировать]

Johann Sebastian Bach | Йоханн Себастьян Бах
(1685–1750)



Brandenburgische Konzerte | Orchestersuiten
Tripelkonzert für Flöte, Violine, Cembalo und Streicher

Бранденбургские концерты | Оркестровые сюиты | Тройной концерт для флейты, скрипки, клавесина и струнных


Aurèle Nicolet fluteGerhart Hetzel violinKarl Richter harpsichord
Münchener Bach-Orchester
Karl Richter conductor


Жанр: Classical / Flute / Violin / Cembalo / Harpsichord / Orchestral
Даты записи: 1960-1980
Формат записи: ADD, Stereo
Год издания диска: 2002
Издатель (лейбл): Deutsche Grammophon
Номер по каталогу: 463 657-2
Аудиокодек: FLAC
Тип рипа: image+.cue
Битрейт аудио: lossless
Продолжительность: 3:33:19
Наличие сканов в содержимом раздачи: да
Источник: блог OdeonMusic


-
Tracklist / ТреклистCD 1: Brandenburgische Konzerte Nrn. 1-5
Brandenburgisches Konzert Nr. 1 F-dur, BWV 1046 - 19:29
I. [ohne Satzbezeichnung] - 3:40
  • II. Adagio - 3:46
  • III. Allegro - 4:23
  • IV. Menuetto. — Polacca - 7:40
    Herman Baumann & Werner Meyendorf (natural horn I, II), Manfred Clement (oboe), Karl Kolbinger (bassoon), Hansheinz Schneeberger (violin), Hedwig Bilgram (harpsichord)
    Recorded: München, Hochschule für Musik, 1/1967
    Brandenburgisches Konzert Nr. 2 F-dur, BWV 1047 - 11:19
    I. [ohne Satzbezeichnung] - 4:47
  • II. Andante - 3:45
  • III. Allegro assai - 2:47
    Pierre Thibaud (trumpet), Hans-Martin Linde (recorder), Manfred Clement (oboe), Hansheinz Schneeberger (violin), Hedwig Bilgram (harpsichord)
    Recorded: München, Hochschule für Musik, 1/1967
    Brandenburgisches Konzert Nr. 3 G-dur, BWV 1048 - 11:27
    I. [ohne Satzbezeichnung] - 5:25
  • II. Adagio - 0:52
  • III. Allegro - 5:10
    Hedwig Bilgram (harpsichord)
    Recorded: München, Hochschule für Musik, 1/1967
    Brandenburgisches Konzert Nr. 4 G-dur, BWV 1049 - 16:20
    I. Allegro - 7:22
  • II. Andante - 3:53
  • III. Presto - 5:05
    Hansheinz Schneeberger (violin), Hans-Martin Linde & Günther Höller (recorder I, II), Hedwig Bilgram (harpsichord)
    Recorded: München, Hochschule für Musik, 1/1967
    Brandenburgisches Konzert Nr. 5 D-dur, BWV 1050 - 20:34
    I. Allegro - 10:00
  • II. Affettuoso - 5:06
  • III. Allegro - 5:28
    Aurèle Nicolet (flute), Hansheinz Schneeberger (violin), Karl Richter (harpsichord)
    Recorded: München, Hochschule für Musik, 1/1967
    CD 2: Brandenburgisches Konzert Nr. 6 • Orchestersuiten Nrn. 1, 2
    Brandenburgisches Konzert Nr. 6 B-dur, BWV 1051 - 17:18
    I. [ohne Satzbezeichnung] - 6:19
  • II. Adagio ma non tanto - 5:00
  • III. Allegro - 5:59
    Kurt-Christian Stier & Info Sinnhoffer (viola I, II), Oswald Uhl & Johannes Fink (viola da gamba I, II), Fritz Kiskalt (cello), Herbert Duft (double bass), Karl Richter (harpsichord)
    Recorded: München, Hochschule für Musik, 1/1967
    Orchestersuite Nr. 1 C-dur, BWV 1066 - 25:23
    I. Ouvertüre - 8:17
  • II. Courante - 2:27
  • III. Gavotte I, II - 3:23
  • IV. Forlane - 1:58
  • V. Menuet I, II - 3:06
  • VI. Bourrée I, II - 2:38
  • VII. Passepied I, II - 3:33
    Recorded: München, Herkules-Saal, 6/1961Orchestersuite Nr. 2 h-moll, BWV 1067 - 23:47
    I. Ouvertüre - 9:19
  • II. Rondeau - 1:54
  • III. Sarabande - 4:00
  • IV. Bourrée I, II - 2:05
  • V. Polonaise - 3:30
  • VI. Menuet - 1:28
  • VII. Badinerie - 1:31
    Aurèle Nicolet (flute)
    Recorded: München, Herkules-Saal, 6/1960
    CD 3: Orchestersuiten Nrn. 3, 4 • Konzert für Flöte, Violine und Cembalo
    Orchestersuite Nr. 3 D-dur, BWV 1068 - 23:24
    I. Ouvertüre - 9:08
  • II. Air - 5:44
  • III. Gavotte I, II - 4:04
  • IV. Bourrée - 1:15
  • V. Gigue - 3:13
    Recorded: München, Herkules-Saal, 6/1960Orchestersuite Nr. 4 D-dur, BWV 1069 - 21:20
    I. Ouvertüre - 9:51
  • II. Bourree I, II - 3:02
  • III. Gavotte - 2:00
  • IV. Menuett I, II - 3:37
  • V. Réjouissance - 2:50
    Recorded: München, Herkules-Saal, 6/1961Tripelkonzert für Flöte, Violine, Cembalo und Streicher a-moll, BWV 1044 - 22:58
    I. Allegro - 9:14
  • II. Adagio, ma non tanto, e dolce - 6:14
  • III. Alla breve - 7:31
    Aurèle Nicolet (flute), Gerhart Hetzel (violin), Karl Richter (harpsichord)
    Recorded: München, Herkules-Saal, 6/1980

    -

    EAC logs / Отчёты EACCD 1: Brandenburgische Konzerte Nrn. 1-5

    Exact Audio Copy V1.0 beta 3 from 29. August 2011
    EAC extraction logfile from 19. April 2014, 12:28
    Karl Richter / J.S. Bach - Brandenburg Concertos, Orchestral Suites - Karl Richter (Disc 1)
    Used drive : TSSTcorpCDDVDW SH-222BB Adapter: 2 ID: 1
    Read mode : SecureUtilize accurate stream : YesDefeat audio cache : YesMake use of C2 pointers : No
    Read offset correction : 6Overread into Lead-In and Lead-Out : NoFill up missing offset samples with silence : YesDelete leading and trailing silent blocks : NoNull samples used in CRC calculations : YesUsed interface : Native Win32 interface for Win NT & 2000
    Used output format : User Defined EncoderSelected bitrate : 896 kBit/sQuality : HighAdd ID3 tag : NoCommand line compressor : C:\Program Files\Exact Audio Copy\FLAC\FLAC.EXEAdditional command line options : -8 -V -T "TITLE=%title%" -T "ARTIST=%artist%" -T "ALBUMARTIST=%albumartist%" -T "ALBUM=%albumtitle%" -T "DATE=%year%" -T "TRACKNUMBER=%tracknr%" -T "TRACKTOTAL=%numtracks%" -T "GENRE=%genre%" -T "COMMENT=%comment%" -T "PERFORMER=%albuminterpret%" -T "COMPOSER=%composer%" %source% -o %dest%
    TOC of the extracted CD
    Track | Start | Length | Start sector | End sector --------------------------------------------------------- 1 | 0:00.00 | 3:40.01 | 0 | 16500 2 | 3:40.01 | 3:46.00 | 16501 | 33450 3 | 7:26.01 | 4:22.74 | 33451 | 53174 4 | 11:49.00 | 7:40.01 | 53175 | 87675 5 | 19:29.01 | 4:46.74 | 87676 | 109199 6 | 24:16.00 | 3:45.00 | 109200 | 126074 7 | 28:01.00 | 2:47.00 | 126075 | 138599 8 | 30:48.00 | 5:25.00 | 138600 | 162974 9 | 36:13.00 | 0:52.00 | 162975 | 166874 10 | 37:05.00 | 5:10.00 | 166875 | 190124 11 | 42:15.00 | 7:22.00 | 190125 | 223274 12 | 49:37.00 | 3:53.00 | 223275 | 240749 13 | 53:30.00 | 5:05.01 | 240750 | 263625 14 | 58:35.01 | 9:59.74 | 263626 | 308624 15 | 68:35.00 | 5:06.00 | 308625 | 331574 16 | 73:41.00 | 5:28.01 | 331575 | 356175
    Range status and errors
    Selected range
    Filename E:\3000\[3895] J.S. Bach – Brandenburg Concertos, Orchestral Suites – Karl Richter\cd1\J.S. Bach - Brandenburg Concertos, Orchestral Suites - Karl Richter (Disc 1).wav
    Peak level 96.0 % Extraction speed 7.5 X Range quality 100.0 % Test CRC 26E3F734 Copy CRC 26E3F734 Copy OK
    No errors occurred
    AccurateRip summary
    Track 1 accurately ripped (confidence 17) [B46DED71] (AR v2)Track 2 accurately ripped (confidence 17) [727ADD18] (AR v2)Track 3 accurately ripped (confidence 16) [9D3ED945] (AR v2)Track 4 accurately ripped (confidence 17) [0E394F78] (AR v2)Track 5 accurately ripped (confidence 17) [13D05E91] (AR v2)Track 6 accurately ripped (confidence 17) [27E78706] (AR v2)Track 7 accurately ripped (confidence 17) [4CCAF2C7] (AR v2)Track 8 accurately ripped (confidence 17) [AA2C93F7] (AR v2)Track 9 accurately ripped (confidence 17) [9B102B38] (AR v2)Track 10 accurately ripped (confidence 17) [8698D79D] (AR v2)Track 11 accurately ripped (confidence 17) [D2287479] (AR v2)Track 12 accurately ripped (confidence 17) [77EF629D] (AR v2)Track 13 accurately ripped (confidence 16) [0CEF5A8A] (AR v2)Track 14 accurately ripped (confidence 16) [250B93B3] (AR v2)Track 15 accurately ripped (confidence 17) [F74C1519] (AR v2)Track 16 accurately ripped (confidence 17) [6EADCA8F] (AR v2)
    All tracks accurately ripped
    End of status report
    ==== Log checksum 978703B33CE78D3C105174D80425BCCEAD5872D4B9AB82D2FC2206F50D6A75C7 ====

    CD 2: Brandenburgisches Konzert Nr. 6 • Orchestersuiten Nrn. 1, 2

    Exact Audio Copy V1.0 beta 3 from 29. August 2011
    EAC extraction logfile from 19. April 2014, 12:52
    Karl Richter / J.S. Bach - Brandenburg Concertos, Orchestral Suites - Karl Richter (Disc 2)
    Used drive : TSSTcorpCDDVDW SH-222BB Adapter: 2 ID: 1
    Read mode : SecureUtilize accurate stream : YesDefeat audio cache : YesMake use of C2 pointers : No
    Read offset correction : 6Overread into Lead-In and Lead-Out : NoFill up missing offset samples with silence : YesDelete leading and trailing silent blocks : NoNull samples used in CRC calculations : YesUsed interface : Native Win32 interface for Win NT & 2000
    Used output format : User Defined EncoderSelected bitrate : 896 kBit/sQuality : HighAdd ID3 tag : NoCommand line compressor : C:\Program Files\Exact Audio Copy\FLAC\FLAC.EXEAdditional command line options : -8 -V -T "TITLE=%title%" -T "ARTIST=%artist%" -T "ALBUMARTIST=%albumartist%" -T "ALBUM=%albumtitle%" -T "DATE=%year%" -T "TRACKNUMBER=%tracknr%" -T "TRACKTOTAL=%numtracks%" -T "GENRE=%genre%" -T "COMMENT=%comment%" -T "PERFORMER=%albuminterpret%" -T "COMPOSER=%composer%" %source% -o %dest%
    TOC of the extracted CD
    Track | Start | Length | Start sector | End sector --------------------------------------------------------- 1 | 0:00.00 | 6:19.00 | 0 | 28424 2 | 6:19.00 | 4:59.74 | 28425 | 50923 3 | 11:18.74 | 5:59.34 | 50924 | 77882 4 | 17:18.33 | 8:17.02 | 77883 | 115159 5 | 25:35.35 | 2:27.08 | 115160 | 126192 6 | 28:02.43 | 3:23.09 | 126193 | 141426 7 | 31:25.52 | 1:58.21 | 141427 | 150297 8 | 33:23.73 | 3:05.62 | 150298 | 164234 9 | 36:29.60 | 2:37.58 | 164235 | 176067 10 | 39:07.43 | 3:33.37 | 176068 | 192079 11 | 42:41.05 | 9:18.54 | 192080 | 233983 12 | 51:59.59 | 1:54.07 | 233984 | 242540 13 | 53:53.66 | 3:59.56 | 242541 | 260521 14 | 57:53.47 | 2:05.23 | 260522 | 269919 15 | 59:58.70 | 3:30.04 | 269920 | 285673 16 | 63:28.74 | 1:27.56 | 285674 | 292254 17 | 64:56.55 | 1:31.21 | 292255 | 299100
    Range status and errors
    Selected range
    Filename E:\3000\[3895] J.S. Bach – Brandenburg Concertos, Orchestral Suites – Karl Richter\cd2\J.S. Bach - Brandenburg Concertos, Orchestral Suites - Karl Richter (Disc 2).wav
    Peak level 88.4 % Extraction speed 7.1 X Range quality 99.9 % Test CRC 62BABEC6 Copy CRC 62BABEC6 Copy OK
    No errors occurred
    AccurateRip summary
    Track 1 accurately ripped (confidence 16) [2E9FD389] (AR v2)Track 2 accurately ripped (confidence 16) [F5CAEF9C] (AR v2)Track 3 accurately ripped (confidence 16) [375CE1AB] (AR v2)Track 4 accurately ripped (confidence 15) [E3379246] (AR v2)Track 5 accurately ripped (confidence 15) [13F0881B] (AR v2)Track 6 accurately ripped (confidence 15) [F6B68A5B] (AR v2)Track 7 accurately ripped (confidence 15) [9A4DA447] (AR v2)Track 8 accurately ripped (confidence 15) [221310A9] (AR v2)Track 9 accurately ripped (confidence 15) [92333488] (AR v2)Track 10 accurately ripped (confidence 15) [1E650CDF] (AR v2)Track 11 accurately ripped (confidence 15) [433C847B] (AR v2)Track 12 accurately ripped (confidence 15) [3446C507] (AR v2)Track 13 accurately ripped (confidence 15) [C89D73DB] (AR v2)Track 14 accurately ripped (confidence 15) [69DDFC9B] (AR v2)Track 15 accurately ripped (confidence 15) [ACA68FA8] (AR v2)Track 16 accurately ripped (confidence 15) [CB54F43C] (AR v2)Track 17 accurately ripped (confidence 15) [91CFDF19] (AR v2)
    All tracks accurately ripped
    End of status report
    ==== Log checksum 20485A89825F36CAC6203F0BFD8BC8A04805E684443C088811A9EC5800D7623D ====

    CD 3: Orchestersuiten Nrn. 3, 4 • Konzert für Flöte, Violine und Cembalo

    Exact Audio Copy V1.0 beta 3 from 29. August 2011
    EAC extraction logfile from 19. April 2014, 13:55
    Karl Richter / J.S. Bach - Brandenburg Concertos, Orchestral Suites - Karl Richter (Disc 3)
    Used drive : TSSTcorpCDDVDW SH-222BB Adapter: 2 ID: 1
    Read mode : SecureUtilize accurate stream : YesDefeat audio cache : YesMake use of C2 pointers : No
    Read offset correction : 6Overread into Lead-In and Lead-Out : NoFill up missing offset samples with silence : YesDelete leading and trailing silent blocks : NoNull samples used in CRC calculations : YesUsed interface : Native Win32 interface for Win NT & 2000
    Used output format : User Defined EncoderSelected bitrate : 896 kBit/sQuality : HighAdd ID3 tag : NoCommand line compressor : C:\Program Files\Exact Audio Copy\FLAC\FLAC.EXEAdditional command line options : -8 -V -T "TITLE=%title%" -T "ARTIST=%artist%" -T "ALBUMARTIST=%albumartist%" -T "ALBUM=%albumtitle%" -T "DATE=%year%" -T "TRACKNUMBER=%tracknr%" -T "TRACKTOTAL=%numtracks%" -T "GENRE=%genre%" -T "COMMENT=%comment%" -T "PERFORMER=%albuminterpret%" -T "COMPOSER=%composer%" %source% -o %dest%
    TOC of the extracted CD
    Track | Start | Length | Start sector | End sector --------------------------------------------------------- 1 | 0:00.00 | 9:08.01 | 0 | 41100 2 | 9:08.01 | 5:44.02 | 41101 | 66902 3 | 14:52.03 | 4:04.02 | 66903 | 85204 4 | 18:56.05 | 1:14.73 | 85205 | 90827 5 | 20:11.03 | 3:12.51 | 90828 | 105278 6 | 23:23.54 | 9:51.22 | 105279 | 149625 7 | 33:15.01 | 3:02.11 | 149626 | 163286 8 | 36:17.12 | 1:59.66 | 163287 | 172277 9 | 38:17.03 | 3:36.74 | 172278 | 188551 10 | 41:54.02 | 2:49.51 | 188552 | 201277 11 | 44:43.53 | 9:13.41 | 201278 | 242793 12 | 53:57.19 | 6:14.20 | 242794 | 270863 13 | 60:11.39 | 7:30.42 | 270864 | 304655
    Range status and errors
    Selected range
    Filename E:\3000\[3895] J.S. Bach – Brandenburg Concertos, Orchestral Suites – Karl Richter\cd3\J.S. Bach - Brandenburg Concertos, Orchestral Suites - Karl Richter (Disc 3).wav
    Peak level 98.1 % Extraction speed 7.3 X Range quality 100.0 % Test CRC 12C64EA9 Copy CRC 12C64EA9 Copy OK
    No errors occurred
    AccurateRip summary
    Track 1 accurately ripped (confidence 3) [96C867ED] (AR v2)Track 2 accurately ripped (confidence 3) [E9F910E1] (AR v2)Track 3 accurately ripped (confidence 3) [0445CD7F] (AR v2)Track 4 accurately ripped (confidence 3) [6CE13B30] (AR v2)Track 5 accurately ripped (confidence 3) [CFB3A373] (AR v2)Track 6 accurately ripped (confidence 3) [D962410B] (AR v2)Track 7 accurately ripped (confidence 3) [1DDA1B87] (AR v2)Track 8 accurately ripped (confidence 3) [7ECCEAB2] (AR v2)Track 9 accurately ripped (confidence 3) [96977EF7] (AR v2)Track 10 accurately ripped (confidence 3) [4BA9262F] (AR v2)Track 11 accurately ripped (confidence 3) [758ABD9E] (AR v2)Track 12 accurately ripped (confidence 3) [B8D8B2D9] (AR v2)Track 13 accurately ripped (confidence 3) [6FC0132A] (AR v2)
    All tracks accurately ripped
    End of status report
    ==== Log checksum 7B40F4FB3BFC1615E61F5AB3BCD6F23C36A7D89BAD0359BA2E594E933E183B84 ====

    auCDtect Task Manager logs / Отчёты auCDtect Task ManagerCD 1: Brandenburgische Konzerte Nrn. 1-5

    -----------------------
    DON'T MODIFY THIS FILE
    -----------------------
    PERFORMER: auCDtect Task Manager, ver. 1.5.1RC3 build 1.5.1.4Copyright (c) 2008-2010 y-soft. All rights reserved
    ANALYZER: auCDtect: CD records authenticity detector, version 0.8.2Copyright (c) 2004 Oleg Berngardt. All rights reserved.Copyright (c) 2004 Alexander Djourik. All rights reserved.
    FILE: CD 1 - Brandenburgische Konzerte Nrn. 1-5.flac Size: 442948817 Hash: BBC90681314130F7CA19D7C09ED08FF1 Accuracy: -m0 Conclusion: CDDA 100% Signature: BEF509FB9B22EB94CFDB91FD85207899812D09BD

    CD 2: Brandenburgisches Konzert Nr. 6 • Orchestersuiten Nrn. 1, 2

    -----------------------
    DON'T MODIFY THIS FILE
    -----------------------
    PERFORMER: auCDtect Task Manager, ver. 1.5.1RC3 build 1.5.1.4Copyright (c) 2008-2010 y-soft. All rights reserved
    ANALYZER: auCDtect: CD records authenticity detector, version 0.8.2Copyright (c) 2004 Oleg Berngardt. All rights reserved.Copyright (c) 2004 Alexander Djourik. All rights reserved.
    FILE: CD 2 - Brandenburgisches Konzert Nr. 6; Suiten Nrn. 1, 2.flac Size: 371555438 Hash: 5658925A33AF836E79C3C69A8B29C136 Accuracy: -m0 Conclusion: CDDA 99% Signature: 64872D0F4CF433DB8A0DABCEBBC0B51E006EC848

    CD 3: Orchestersuiten Nrn. 3, 4 • Konzert für Flöte, Violine und Cembalo

    -----------------------
    DON'T MODIFY THIS FILE
    -----------------------
    PERFORMER: auCDtect Task Manager, ver. 1.5.1RC3 build 1.5.1.4Copyright (c) 2008-2010 y-soft. All rights reserved
    ANALYZER: auCDtect: CD records authenticity detector, version 0.8.2Copyright (c) 2004 Oleg Berngardt. All rights reserved.Copyright (c) 2004 Alexander Djourik. All rights reserved.
    FILE: CD 3 - Suiten Nrn. 3, 4; Konzert fuer Floete, Violine und Cembalo.flac Size: 388690596 Hash: 098B09EBF700B30745F998F9457027C1 Accuracy: -m0 Conclusion: CDDA 100% Signature: 7154C79DCF1BE4DA4B1EDA7F387D79E91EBBF35D

    CUETools logs / Отчёты CUEToolsCD 1: Brandenburgische Konzerte Nrn. 1-5

    [CUETools log; Date: 10.05.2015 21:17:01; Version: 2.1.4][AccurateRip ID: 002adb68-02090baa-d7128d10] found.Track [ CRC | V2 ] Status 01 [760b97ca|b46ded71] (10+21/37) Accurately ripped 02 [01bfdc95|727add18] (10+21/37) Accurately ripped 03 [d0bcc9f7|9d3ed945] (10+20/36) Accurately ripped 04 [640022c4|0e394f78] (10+21/37) Accurately ripped 05 [0ac4b752|13d05e91] (10+21/37) Accurately ripped 06 [7bafa4e3|27e78706] (10+21/37) Accurately ripped 07 [366efe0e|4ccaf2c7] (10+21/37) Accurately ripped 08 [8c4b6f95|aa2c93f7] (10+21/37) Accurately ripped 09 [6dee22af|9b102b38] (10+21/37) Accurately ripped 10 [069cbd09|8698d79d] (10+21/37) Accurately ripped 11 [32a54e27|d2287479] (10+21/37) Accurately ripped 12 [d9f4fde1|77ef629d] (10+21/37) Accurately ripped 13 [24d34c02|0cef5a8a] (10+20/36) Accurately ripped 14 [a2427fc1|250b93b3] (10+20/35) Accurately ripped 15 [14bf334a|f74c1519] (10+21/37) Accurately ripped 16 [18501827|6eadca8f] (09+21/36) Accurately rippedOffsetted by -664: 01 [9892a0fd] (06/37) Accurately ripped 02 [306b0a36] (06/37) Accurately ripped 03 [6fc258be] (06/36) Accurately ripped 04 [7435dec2] (06/37) Accurately ripped 05 [eb71a228] (06/37) Accurately ripped 06 [dc016645] (06/37) Accurately ripped 07 [30367c46] (06/37) Accurately ripped 08 [0e45110d] (06/37) Accurately ripped 09 [f47b9192] (06/37) Accurately ripped 10 [3c7fe6ab] (06/37) Accurately ripped 11 [26b2a9c6] (06/37) Accurately ripped 12 [bf9528d8] (06/37) Accurately ripped 13 [05030261] (06/36) Accurately ripped 14 [1aa74f7b] (05/35) Accurately ripped 15 [06f1ceb4] (06/37) Accurately ripped 16 [604f2796] (06/36) Accurately ripped
    Track Peak [ CRC32 ] [W/O NULL] [ LOG ] -- 96,0 [26E3F734] [9406CDA2] CRC32 01 87,1 [39816E5B] [6EE485EF] 02 59,6 [B094FDC9] [E0F15C3E] 03 76,6 [C5A2DD9B] [EC83E55D] 04 91,8 [98B6EC44] [FFEB07FC] 05 81,4 [B8B7A26B] [ACCD6952] 06 24,2 [3F7C2CBB] [E1174C56] 07 84,7 [956F7758] [E12B7602] 08 96,0 [81F58A73] [6A878CD3] 09 15,8 [DC3821F1] [57A99F4B] 10 83,8 [73C8622E] [A5E2250F] 11 64,4 [E970D092] [FBAA4A05] 12 72,2 [484C52F3] [39A73816] 13 76,7 [6CB0A485] [F3F08A09] 14 83,2 [FAB49290] [71B5844C] 15 47,7 [A9738F4A] [DB052A19] 16 72,6 [5BD486D6] [9F8FC2C9]

    CD 2: Brandenburgisches Konzert Nr. 6 • Orchestersuiten Nrn. 1, 2

    [CUETools log; Date: 10.05.2015 21:17:13; Version: 2.1.4][AccurateRip ID: 002f6782-02437fbf-ea0f9411] found.Track [ CRC | V2 ] Status 01 [f7468796|2e9fd389] (16+19/35) Accurately ripped 02 [66e17cc5|f5caef9c] (16+19/35) Accurately ripped 03 [1f246e30|375ce1ab] (16+19/35) Accurately ripped 04 [9af23f18|e3379246] (15+18/33) Accurately ripped 05 [f4796498|13f0881b] (16+18/34) Accurately ripped 06 [2cf9fe66|f6b68a5b] (16+18/34) Accurately ripped 07 [b60e1206|9a4da447] (16+18/34) Accurately ripped 08 [81a403e6|221310a9] (16+18/34) Accurately ripped 09 [bd828dde|92333488] (15+18/33) Accurately ripped 10 [d4e462a4|1e650cdf] (16+18/34) Accurately ripped 11 [57a28230|433c847b] (16+18/34) Accurately ripped 12 [d14cbc34|3446c507] (15+18/33) Accurately ripped 13 [e1fbd2c6|c89d73db] (15+18/33) Accurately ripped 14 [4e11c1bd|69ddfc9b] (15+18/33) Accurately ripped 15 [56647d23|aca68fa8] (15+18/33) Accurately ripped 16 [da8a6827|cb54f43c] (16+18/34) Accurately ripped 17 [26e27789|91cfdf19] (15+18/33) Accurately ripped
    Track Peak [ CRC32 ] [W/O NULL] [ LOG ] -- 88,4 [62BABEC6] [B1FD4822] CRC32 01 62,1 [6E213935] [1A3BFE15] 02 46,9 [F592FAFD] [5572ADD2] 03 59,3 [6443ED2B] [73AF2C6B] 04 88,4 [CF144383] [B203F39E] 05 76,6 [9E6CAE0F] [1EA5BC51] 06 50,5 [50EB8CE0] [BA1EDAF2] 07 66,1 [10A181B1] [77A99DEA] 08 71,3 [858D403E] [BADF1585] 09 68,6 [FB39B533] [3513F592] 10 48,7 [0C837936] [2D3BF661] 11 64,9 [C3AB6749] [38B85847] 12 62,1 [5FCDA45F] [37023344] 13 63,4 [9B1D5672] [8276A709] 14 70,0 [550992B3] [C4B6992C] 15 62,1 [724DC0F2] [5F2359F8] 16 52,3 [2156D650] [B0103103] 17 55,7 [1EC50070] [DBED4DB4]

    CD 3: Orchestersuiten Nrn. 3, 4 • Konzert für Flöte, Violine und Cembalo

    [CUETools log; Date: 10.05.2015 21:17:26; Version: 2.1.4][AccurateRip ID: 001fc75b-01377b40-c30fde0d] found.Track [ CRC | V2 ] Status 01 [af3aaddc|96c867ed] (12+05/35) Accurately ripped 02 [0d92e8bb|e9f910e1] (12+05/35) Accurately ripped 03 [777cd81f|0445cd7f] (12+05/35) Accurately ripped 04 [4bc49128|6ce13b30] (12+05/35) Accurately ripped 05 [ac1eef35|cfb3a373] (12+05/35) Accurately ripped 06 [c98bff83|d962410b] (12+05/35) Accurately ripped 07 [67b4d6ba|1dda1b87] (12+05/35) Accurately ripped 08 [02292517|7ecceab2] (12+05/35) Accurately ripped 09 [a770cb56|96977ef7] (12+05/35) Accurately ripped 10 [30d45f66|4ba9262f] (12+05/35) Accurately ripped 11 [fc7f128e|758abd9e] (11+05/34) Accurately ripped 12 [4ffb035a|b8d8b2d9] (10+05/33) Accurately ripped 13 [fe558758|6fc0132a] (10+05/33) Accurately rippedOffsetted by -664: 01 [504b9c04] (04/35) Accurately ripped 02 [28140c51] (04/35) Accurately ripped 03 [cd2bc246] (04/35) Accurately ripped 04 [524695d5] (04/35) Accurately ripped 05 [93b1f4c5] (04/35) Accurately ripped 06 [60aed994] (04/35) Accurately ripped 07 [b93868b7] (04/35) Accurately ripped 08 [14c543e1] (04/35) Accurately ripped 09 [fb26aa1e] (04/35) Accurately ripped 10 [e581e70e] (04/35) Accurately ripped 11 [de20fd12] (04/34) Accurately ripped 12 [6820cb09] (04/33) Accurately ripped 13 [9f507513] (04/33) Accurately ripped
    Track Peak [ CRC32 ] [W/O NULL] [ LOG ] -- 98,1 [12C64EA9] [C439D48A] CRC32 01 76,6 [3B74F5E7] [3F69B4BB] 02 37,1 [C05B5211] [707021A4] 03 65,8 [00479FF2] [C799D465] 04 70,0 [AA4FC148] [FEEF9604] 05 66,3 [12A500D9] [D61F6122] 06 98,1 [548826BA] [30B84E37] 07 87,6 [DEEDC5D2] [06DB87A9] 08 72,3 [639566FD] [81C35EEF] 09 52,0 [3C968113] [380D5FC0] 10 95,9 [22ABF441] [BB6187E2] 11 80,2 [0453BA79] [9A6226BE] 12 28,5 [A7F90C09] [AC0A7293] 13 83,0 [2AEC2FCB] [5F54948A]

    CUE sheetsCD 1: Brandenburgische Konzerte Nrn. 1-5

    TITLE "Johann Sebastian Bach: Brandenburgische Konzerte • Orchestersuiten • Tripelkonzert für Flöte, Violine und Cembalo"PERFORMER "Karl Richter"REM GENRE ClassicalREM DISCID D7128D10REM COMMENT "ExactAudioCopy v1.0b3"CATALOG 0028946365823FILE "CD 1 - Brandenburgische Konzerte Nrn. 1-5.flac" WAVE TRACK 01 AUDIO TITLE "Brandenburgisches Konzert Nr. 1 F-dur, BWV 1046: I. [ohne Satzbezeichnung]" PERFORMER "Münchener Bach-Orchester. Karl Richter, dirigent" REM DATE 1967 INDEX 01 00:00:00 TRACK 02 AUDIO TITLE "Brandenburgisches Konzert Nr. 1 F-dur, BWV 1046: II. Adagio" PERFORMER "Münchener Bach-Orchester. Karl Richter, dirigent" REM DATE 1967 INDEX 01 03:40:01 TRACK 03 AUDIO TITLE "Brandenburgisches Konzert Nr. 1 F-dur, BWV 1046: III. Allegro" PERFORMER "Münchener Bach-Orchester. Karl Richter, dirigent" REM DATE 1967 INDEX 01 07:26:01 TRACK 04 AUDIO TITLE "Brandenburgisches Konzert Nr. 1 F-dur, BWV 1046: IV. Menuetto. — Polacca" PERFORMER "Münchener Bach-Orchester. Karl Richter, dirigent" REM DATE 1967 INDEX 01 11:49:00 TRACK 05 AUDIO TITLE "Brandenburgisches Konzert Nr. 2 F-dur, BWV 1047: I. [ohne Satzbezeichnung]" PERFORMER "Münchener Bach-Orchester. Karl Richter, dirigent" REM DATE 1967 INDEX 00 19:23:00 INDEX 01 19:29:01 TRACK 06 AUDIO TITLE "Brandenburgisches Konzert Nr. 2 F-dur, BWV 1047: II. Andante" PERFORMER "Münchener Bach-Orchester. Karl Richter, dirigent" REM DATE 1967 INDEX 01 24:16:00 TRACK 07 AUDIO TITLE "Brandenburgisches Konzert Nr. 2 F-dur, BWV 1047: III. Allegro assai" PERFORMER "Münchener Bach-Orchester. Karl Richter, dirigent" REM DATE 1967 INDEX 01 28:01:00 TRACK 08 AUDIO TITLE "Brandenburgisches Konzert Nr. 3 G-dur, BWV 1048: I. [ohne Satzbezeichnung]" PERFORMER "Münchener Bach-Orchester. Karl Richter, dirigent" REM DATE 1967 INDEX 00 30:42:00 INDEX 01 30:48:00 TRACK 09 AUDIO TITLE "Brandenburgisches Konzert Nr. 3 G-dur, BWV 1048: II. Adagio" PERFORMER "Münchener Bach-Orchester. Karl Richter, dirigent" REM DATE 1967 INDEX 01 36:13:00 TRACK 10 AUDIO TITLE "Brandenburgisches Konzert Nr. 3 G-dur, BWV 1048: III. Allegro" PERFORMER "Münchener Bach-Orchester. Karl Richter, dirigent" REM DATE 1967 INDEX 01 37:05:00 TRACK 11 AUDIO TITLE "Brandenburgisches Konzert Nr. 4 G-dur, BWV 1049: I. Allegro" PERFORMER "Münchener Bach-Orchester. Karl Richter, dirigent" REM DATE 1967 INDEX 00 42:09:00 INDEX 01 42:15:00 TRACK 12 AUDIO TITLE "Brandenburgisches Konzert Nr. 4 G-dur, BWV 1049: II. Andante" PERFORMER "Münchener Bach-Orchester. Karl Richter, dirigent" REM DATE 1967 INDEX 01 49:37:00 TRACK 13 AUDIO TITLE "Brandenburgisches Konzert Nr. 4 G-dur, BWV 1049: III. Presto" PERFORMER "Münchener Bach-Orchester. Karl Richter, dirigent" REM DATE 1967 INDEX 01 53:30:00 TRACK 14 AUDIO TITLE "Brandenburgisches Konzert Nr. 5 D-dur, BWV 1050: I. Allegro" PERFORMER "Münchener Bach-Orchester. Karl Richter, dirigent" REM DATE 1967 INDEX 00 58:29:00 INDEX 01 58:35:01 TRACK 15 AUDIO TITLE "Brandenburgisches Konzert Nr. 5 D-dur, BWV 1050: II. Affettuoso" PERFORMER "Münchener Bach-Orchester. Karl Richter, dirigent" REM DATE 1967 INDEX 01 68:35:00 TRACK 16 AUDIO TITLE "Brandenburgisches Konzert Nr. 5 D-dur, BWV 1050: III. Allegro" PERFORMER "Münchener Bach-Orchester. Karl Richter, dirigent" REM DATE 1967 INDEX 01 73:41:00

    CD 2: Brandenburgisches Konzert Nr. 6 • Orchestersuiten Nrn. 1, 2

    TITLE "Johann Sebastian Bach: Brandenburgische Konzerte • Orchestersuiten • Tripelkonzert für Flöte, Violine und Cembalo"PERFORMER "Karl Richter"REM GENRE ClassicalREM DISCID EA0F9411REM COMMENT "ExactAudioCopy v1.0b3"CATALOG 0028946365922FILE "CD 2 - Brandenburgisches Konzert Nr. 6; Suiten Nrn. 1, 2.flac" WAVE TRACK 01 AUDIO TITLE "Brandenburgisches Konzert Nr. 6 B-dur, BWV 1051: I. [ohne Satzbezeichnung]" PERFORMER "Münchener Bach-Orchester. Karl Richter, dirigent" REM DATE 1967 INDEX 01 00:00:00 TRACK 02 AUDIO TITLE "Brandenburgisches Konzert Nr. 6 B-dur, BWV 1051: II. Adagio ma non tanto" PERFORMER "Münchener Bach-Orchester. Karl Richter, dirigent" REM DATE 1967 INDEX 01 06:19:00 TRACK 03 AUDIO TITLE "Brandenburgisches Konzert Nr. 6 B-dur, BWV 1051: III. Allegro" PERFORMER "Münchener Bach-Orchester. Karl Richter, dirigent" REM DATE 1967 INDEX 01 11:18:74 TRACK 04 AUDIO TITLE "Orchestersuite Nr. 1 C-dur, BWV 1066: I. Ouvertüre" PERFORMER "Münchener Bach-Orchester. Karl Richter, dirigent" REM DATE 1961 INDEX 00 17:12:01 INDEX 01 17:18:33 TRACK 05 AUDIO TITLE "Orchestersuite Nr. 1 C-dur, BWV 1066: II. Courante" PERFORMER "Münchener Bach-Orchester. Karl Richter, dirigent" REM DATE 1961 INDEX 01 25:35:35 TRACK 06 AUDIO TITLE "Orchestersuite Nr. 1 C-dur, BWV 1066: III. Gavotte I, II" PERFORMER "Münchener Bach-Orchester. Karl Richter, dirigent" REM DATE 1961 INDEX 01 28:02:43 TRACK 07 AUDIO TITLE "Orchestersuite Nr. 1 C-dur, BWV 1066: IV. Forlane" PERFORMER "Münchener Bach-Orchester. Karl Richter, dirigent" REM DATE 1961 INDEX 01 31:25:52 TRACK 08 AUDIO TITLE "Orchestersuite Nr. 1 C-dur, BWV 1066: V. Menuet I, II" PERFORMER "Münchener Bach-Orchester. Karl Richter, dirigent" REM DATE 1961 INDEX 01 33:23:73 TRACK 09 AUDIO TITLE "Orchestersuite Nr. 1 C-dur, BWV 1066: VI. Bourrée I, II" PERFORMER "Münchener Bach-Orchester. Karl Richter, dirigent" REM DATE 1961 INDEX 01 36:29:60 TRACK 10 AUDIO TITLE "Orchestersuite Nr. 1 C-dur, BWV 1066: VII. Passepied I, II" PERFORMER "Münchener Bach-Orchester. Karl Richter, dirigent" REM DATE 1961 INDEX 01 39:07:43 TRACK 11 AUDIO TITLE "Orchestersuite Nr. 2 h-moll, BWV 1067: I. Ouvertüre" PERFORMER "Münchener Bach-Orchester. Karl Richter, dirigent" REM DATE 1960 INDEX 00 42:35:03 INDEX 01 42:41:05 TRACK 12 AUDIO TITLE "Orchestersuite Nr. 2 h-moll, BWV 1067: II. Rondeau" PERFORMER "Münchener Bach-Orchester. Karl Richter, dirigent" REM DATE 1960 INDEX 01 51:59:59 TRACK 13 AUDIO TITLE "Orchestersuite Nr. 2 h-moll, BWV 1067: III. Sarabande" PERFORMER "Münchener Bach-Orchester. Karl Richter, dirigent" REM DATE 1960 INDEX 01 53:53:66 TRACK 14 AUDIO TITLE "Orchestersuite Nr. 2 h-moll, BWV 1067: IV. Bourrée I, II" PERFORMER "Münchener Bach-Orchester. Karl Richter, dirigent" REM DATE 1960 INDEX 01 57:53:47 TRACK 15 AUDIO TITLE "Orchestersuite Nr. 2 h-moll, BWV 1067: V. Polonaise" PERFORMER "Münchener Bach-Orchester. Karl Richter, dirigent" REM DATE 1960 INDEX 01 59:58:70 TRACK 16 AUDIO TITLE "Orchestersuite Nr. 2 h-moll, BWV 1067: VI. Menuet" PERFORMER "Münchener Bach-Orchester. Karl Richter, dirigent" REM DATE 1960 INDEX 01 63:28:74 TRACK 17 AUDIO TITLE "Orchestersuite Nr. 2 h-moll, BWV 1067: VII. Badinerie" PERFORMER "Münchener Bach-Orchester. Karl Richter, dirigent" REM DATE 1960 INDEX 01 64:56:55

    CD 3: Orchestersuiten Nrn. 3, 4 • Konzert für Flöte, Violine und Cembalo

    TITLE "Johann Sebastian Bach: Brandenburgische Konzerte • Orchestersuiten • Tripelkonzert für Flöte, Violine und Cembalo"PERFORMER "Karl Richter"REM GENRE ClassicalREM DISCID C30FDE0DREM COMMENT "ExactAudioCopy v1.0b3"CATALOG 0028946366028FILE "CD 3 - Suiten Nrn. 3, 4; Konzert fuer Floete, Violine und Cembalo.flac" WAVE TRACK 01 AUDIO TITLE "Orchestersuite Nr. 3 D-dur, BWV 1068: I. Ouvertüre" PERFORMER "Münchener Bach-Orchester. Karl Richter, dirigent" REM DATE 1960 INDEX 01 00:00:00 TRACK 02 AUDIO TITLE "Orchestersuite Nr. 3 D-dur, BWV 1068: II. Air" PERFORMER "Münchener Bach-Orchester. Karl Richter, dirigent" REM DATE 1960 INDEX 01 09:08:01 TRACK 03 AUDIO TITLE "Orchestersuite Nr. 3 D-dur, BWV 1068: III. Gavotte I, II" PERFORMER "Münchener Bach-Orchester. Karl Richter, dirigent" REM DATE 1960 INDEX 01 14:52:03 TRACK 04 AUDIO TITLE "Orchestersuite Nr. 3 D-dur, BWV 1068: IV. Bourrée" PERFORMER "Münchener Bach-Orchester. Karl Richter, dirigent" REM DATE 1960 INDEX 01 18:56:05 TRACK 05 AUDIO TITLE "Orchestersuite Nr. 3 D-dur, BWV 1068: V. Gigue" PERFORMER "Münchener Bach-Orchester. Karl Richter, dirigent" REM DATE 1960 INDEX 01 20:11:03 TRACK 06 AUDIO TITLE "Orchestersuite Nr. 4 D-dur, BWV 1069: I. Ouvertüre" PERFORMER "Münchener Bach-Orchester. Karl Richter, dirigent" REM DATE 1961 INDEX 00 23:17:50 INDEX 01 23:23:54 TRACK 07 AUDIO TITLE "Orchestersuite Nr. 4 D-dur, BWV 1069: II. Bourree I, II" PERFORMER "Münchener Bach-Orchester. Karl Richter, dirigent" REM DATE 1961 INDEX 01 33:15:01 TRACK 08 AUDIO TITLE "Orchestersuite Nr. 4 D-dur, BWV 1069: III. Gavotte" PERFORMER "Münchener Bach-Orchester. Karl Richter, dirigent" REM DATE 1961 INDEX 01 36:17:12 TRACK 09 AUDIO TITLE "Orchestersuite Nr. 4 D-dur, BWV 1069: IV. Menuett I, II" PERFORMER "Münchener Bach-Orchester. Karl Richter, dirigent" REM DATE 1961 INDEX 01 38:17:03 TRACK 10 AUDIO TITLE "Orchestersuite Nr. 4 D-dur, BWV 1069: V. Réjouissance" PERFORMER "Münchener Bach-Orchester. Karl Richter, dirigent" REM DATE 1961 INDEX 01 41:54:02 TRACK 11 AUDIO TITLE "Tripelkonzert für Flöte, Violine, Cembalo und Streicher a-moll, BWV 1044: I. Allegro" PERFORMER "Aurèle Nicolet, Gerhart Hetzel, Karl Richter, Münchener Bach-Orchester. Karl Richter, dirigent" REM DATE 1980 INDEX 00 44:38:46 INDEX 01 44:43:53 TRACK 12 AUDIO TITLE "Tripelkonzert für Flöte, Violine, Cembalo und Streicher a-moll, BWV 1044: II. Adagio, ma non tanto, e dolce" PERFORMER "Aurèle Nicolet, Gerhart Hetzel, Karl Richter, Münchener Bach-Orchester. Karl Richter, dirigent" REM DATE 1980 INDEX 00 53:54:12 INDEX 01 53:57:19 TRACK 13 AUDIO TITLE "Tripelkonzert für Flöte, Violine, Cembalo und Streicher a-moll, BWV 1044: III. Alla breve" PERFORMER "Aurèle Nicolet, Gerhart Hetzel, Karl Richter, Münchener Bach-Orchester. Karl Richter, dirigent" REM DATE 1980 INDEX 01 60:11:39
    [teatrix.ru].t9675.torrent 
    Торрент: Зарегистрирован [ 2015-10-23 17:11 ] · E51B603AFFFE19662EB2DCB0DB28B91FC3D5C970

    Скачать .torrent

    Скачать

    15 KB

    Статус: проверено
    Скачан: 0 раз
    Размер: 1.13 GB
    terms.php



  • Быстрый ответ

    Имя:

          
    Для отправки сообщений необходимо включить JavaScript
    Показать сообщения:    

    Текущее время: 05-Дек 21:40

    Часовой пояс: UTC + 3


    Вы можете начинать темы
    Вы можете отвечать на сообщения
    Вы не можете редактировать свои сообщения
    Вы не можете удалять свои сообщения
    Вы не можете голосовать в опросах
    Вы не можете прикреплять файлы к сообщениям
    Вы можете скачивать файлы