(Classical) The Hyperion Romantic Piano Concerto – Vol. 65: Albeniz & Granados (Mestre, Brabbins) - 2015, FLAC (image+.cue) lossless


Статистика раздачи [Обновить пиров]
Размер:  277 MB   |    Зарегистрирован:  1 год 1 месяц   |    Скачан:  1 раз

Полного источника не было: 3 месяца 9 дней

Личеров:  4  [  0 KB/s  ]   Подробная статистика пиров
 
   
 
 
 

[Цитировать]

The Hyperion Romantic Piano Concerto – Vol. 65: Albéniz & Granados (Mestre, Brabbins)
Жанр: Classical
Страна-производитель диска: Франция
Год издания диска: 2015
Издатель (лейбл): Hyperion
Номер по каталогу: CDA67918
Дата записи: 6 и 7 января 2012 г., Глазго.
Аудиокодек: FLAC
Тип рипа: image+.cue
Битрейт аудио: lossless
Продолжительность: 01:16:58
Источник: odeonmusic
Наличие сканов в содержимом раздачи: да
Треклист:
Исаак Альбенис-и-Паскуаль (1860 — 1909).
Фортепианный концерт № 1 a-moll «Фантастический» (Concierto fantástico), op. 78 (1885 — 1887), оркестровка Томаса Бретона.
I. Allegro ma non troppo. — [Кода.] Presto [13:07].
II. Греза и скерцо (Rêverie et Scherzo). Andante. — Presto [07:11].
III. [Вступление.] Allegro. — [Финал.] Allegro. — [Кода.] Presto. — Vivace [07:32].
Испанская рапсодия d-moll для фортепиано с оркестром, op. 70 (1886 — 1887), оркестровка Сан-Себастьянской версии (исполнена в 1889).
04. Allegretto. — Петенера Мариани. Allegretto, ma non troppo. — Allegretto. — Оригинальная хота. Allegro. — Малагенья Хуана Бревы. Andantino, ma non troppo. — Allegretto, ma non troppo. — Эстудиантина. Allegro. — Presto [13:14].
Панталеон Энрике Костанцо Гранадос-и-Кампинья (1867 — 1916).
Фортепианный концерт c-moll «Патетический» (1910?; реконструкция и составление Мелани Местре).
05. I. Lento grave e quasi recitativo. — Allegro grave non molto lento [18:35].
06. II. Allegretto. [«Испанский танец» № 2 и «Испанское каприччио», op. 39] [08:33].
07. III. Molto allegro. [Концертное аллегро, op. 46] [08:45].
Исполнители:
Melani Mestre (фортепиано).
BBC Scottish Symphony Orchestra.
Дирижер Martyn Brabbins.

Лог создания рипа

Exact Audio Copy V1.0 beta 4 from 7. December 2014
EAC extraction logfile from 4. May 2015, 15:41
Melani Mestre / Albeniz, Granados - Piano Concertos - Melani Mestre (Romantic Piano Concerto - 65)
Used drive : PLDS DVD-RW DA8A5SH Adapter: 1 ID: 0
Read mode : SecureUtilize accurate stream : YesDefeat audio cache : YesMake use of C2 pointers : No
Read offset correction : 6Overread into Lead-In and Lead-Out : NoFill up missing offset samples with silence : YesDelete leading and trailing silent blocks : NoNull samples used in CRC calculations : YesUsed interface : Native Win32 interface for Win NT & 2000
Used output format : User Defined EncoderSelected bitrate : 1024 kBit/sQuality : HighAdd ID3 tag : NoCommand line compressor : J:\EAC\Exact Audio Copy\Flac\flac.exeAdditional command line options : -8 -V -T "ARTIST=%artist%" -T "TITLE=%title%" -T "ALBUM=%albumtitle%" -T "DATE=%year%" -T "TRACKNUMBER=%tracknr%" -T "GENRE=%genre%" -T "PERFORMER=%albuminterpret%" -T "COMPOSER=%composer%" %haslyrics%--tag-from-file=LYRICS="%lyricsfile%"%haslyrics% -T "ALBUMARTIST=%albumartist%" -T "DISCNUMBER=%cdnumber%" -T "TOTALDISCS=%totalcds%" -T "TOTALTRACKS=%numtracks%" -T "COMMENT=%comment%" %source% -o %dest%
TOC of the extracted CD
Track | Start | Length | Start sector | End sector --------------------------------------------------------- 1 | 0:00.00 | 13:06.62 | 0 | 59011 2 | 13:06.62 | 7:10.38 | 59012 | 91299 3 | 20:17.25 | 7:31.53 | 91300 | 125177 4 | 27:49.03 | 13:14.06 | 125178 | 184733 5 | 41:03.09 | 18:36.15 | 184734 | 268448 6 | 59:39.24 | 8:32.62 | 268449 | 306910 7 | 68:12.11 | 8:44.61 | 306911 | 346271
Range status and errors
Selected range
Filename K:\Ripped\[7496] Albeniz, Granados – Piano Concertos – Melani Mestre (Romantic Piano Concerto – 65)\Albeniz, Granados - Piano Concertos - Melani Mestre (Romantic Piano Concerto - 65).wav
Peak level 100.0 % Extraction speed 2.1 X Range quality 100.0 % Test CRC 6F61B52D Copy CRC 6F61B52D Copy OK
No errors occurred
AccurateRip summary
Track 1 not present in databaseTrack 2 not present in databaseTrack 3 not present in databaseTrack 4 not present in databaseTrack 5 not present in databaseTrack 6 not present in databaseTrack 7 not present in database
None of the tracks are present in the AccurateRip database
End of status report
==== Log checksum 884D6DD4F4D57D2FB06F412634022ED6E9D692B6DB2CE214DC07071E8358406E ====

Содержание индексной карты (.CUE)

REM GENRE ClassicalREM DATE 2012REM DISCID 68120807REM COMMENT "ExactAudioCopy v1.0b4"CATALOG 0034571179186PERFORMER "Melani Mestre & Martyn Brabbins"TITLE "Albeniz & Granados – Piano Concertos – Melani Mestre"FILE "Albeniz & Granados – Piano Concertos – Melani Mestre.flac" WAVE TRACK 01 AUDIO TITLE "Albeniz - Piano Concerto No. 1 in A Minor 'Concierto Fantastico', Op. 78 (1887), orch. Breton - I. Allegro ma non troppo" PERFORMER "Melani Mestre & Martyn Brabbins" ISRC GBAJY1391801 INDEX 01 00:00:00 TRACK 02 AUDIO TITLE "Albeniz - Piano Concerto No. 1 in A Minor 'Concierto Fantastico', Op. 78 (1887), orch. Breton - II. Reverie et Scherzo" PERFORMER "Melani Mestre & Martyn Brabbins" ISRC GBAJY1391802 INDEX 01 13:06:62 TRACK 03 AUDIO TITLE "Albeniz - Piano Concerto No. 1 in A Minor 'Concierto Fantastico', Op. 78 (1887), orch. Breton - III. Allegro" PERFORMER "Melani Mestre & Martyn Brabbins" ISRC GBAJY1391803 INDEX 01 20:17:25 TRACK 04 AUDIO TITLE "Albeniz - Rapsodia Espanola, Op. 70 (1887), San Sebastian version" PERFORMER "Melani Mestre & Martyn Brabbins" ISRC GBAJY1391804 INDEX 01 27:49:03 TRACK 05 AUDIO TITLE "Granados (recomposed by Mestre) - Piano Concerto in C Minor 'Patetico' - I. Lento grave - Allegro grave non molto lento" PERFORMER "Melani Mestre & Martyn Brabbins" ISRC GBAJY1391805 INDEX 01 41:03:09 TRACK 06 AUDIO TITLE "Granados (recomposed by Mestre) - Piano Concerto in C Minor 'Patetico' - II. Allegretto [Danza Esp. No. 2 & Capricho Esp.]" PERFORMER "Melani Mestre & Martyn Brabbins" ISRC GBAJY1391806 INDEX 01 59:39:24 TRACK 07 AUDIO TITLE "Granados (recomposed by Mestre) - Piano Concerto in C Minor 'Patetico' - III. Molto allegro [Allegro de concierto]" PERFORMER "Melani Mestre & Martyn Brabbins" ISRC GBAJY1391807 INDEX 01 68:12:11

Вариант индексной карты (.CUE) с выставленными зазорами

REM GENRE ClassicalREM DATE 2012REM DISCID 68120807REM COMMENT "ExactAudioCopy v1.0b4"CATALOG 0034571179186PERFORMER "Melani Mestre & Martyn Brabbins"TITLE "Albeniz & Granados – Piano Concertos – Melani Mestre"FILE "Albeniz & Granados – Piano Concertos – Melani Mestre.flac" WAVE TRACK 01 AUDIO TITLE "Albeniz - Piano Concerto No. 1 in A Minor 'Concierto Fantastico', Op. 78 (1887), orch. Breton - I. Allegro ma non troppo" PERFORMER "Melani Mestre & Martyn Brabbins" ISRC GBAJY1391801 INDEX 00 00:00:00 INDEX 01 00:03:44 TRACK 02 AUDIO TITLE "Albeniz - Piano Concerto No. 1 in A Minor 'Concierto Fantastico', Op. 78 (1887), orch. Breton - II. Reverie et Scherzo" PERFORMER "Melani Mestre & Martyn Brabbins" ISRC GBAJY1391802 INDEX 01 13:07:59 TRACK 03 AUDIO TITLE "Albeniz - Piano Concerto No. 1 in A Minor 'Concierto Fantastico', Op. 78 (1887), orch. Breton - III. Allegro" PERFORMER "Melani Mestre & Martyn Brabbins" ISRC GBAJY1391803 INDEX 01 20:17:35 TRACK 04 AUDIO TITLE "Albeniz - Rapsodia Espanola, Op. 70 (1887), San Sebastian version" PERFORMER "Melani Mestre & Martyn Brabbins" ISRC GBAJY1391804 INDEX 00 27:47:00 INDEX 01 27:49:03 TRACK 05 AUDIO TITLE "Granados (recomposed by Mestre) - Piano Concerto in C Minor 'Patetico' - I. Lento grave - Allegro grave non molto lento" PERFORMER "Melani Mestre & Martyn Brabbins" ISRC GBAJY1391805 INDEX 00 41:01:27 INDEX 01 41:04:34 TRACK 06 AUDIO TITLE "Granados (recomposed by Mestre) - Piano Concerto in C Minor 'Patetico' - II. Allegretto [Danza Esp. No. 2 & Capricho Esp.]" PERFORMER "Melani Mestre & Martyn Brabbins" ISRC GBAJY1391806 INDEX 01 59:39:24 TRACK 07 AUDIO TITLE "Granados (recomposed by Mestre) - Piano Concerto in C Minor 'Patetico' - III. Molto allegro [Allegro de concierto]" PERFORMER "Melani Mestre & Martyn Brabbins" ISRC GBAJY1391807 INDEX 01 68:12:11 INDEX 02 76:54:45
[teatrix.ru].t9676.torrent 
Торрент: Зарегистрирован [ 2015-10-23 17:11 ] · B3F42A94B81711996EF02AB08C787D4701F136C9

Скачать .torrent

Скачать

12 KB

Статус: проверено
Скачан: 1 раз
Размер: 277 MB
terms.php



Быстрый ответ

Имя:

      
Для отправки сообщений необходимо включить JavaScript
Показать сообщения:    

Текущее время: 06-Дек 15:15

Часовой пояс: UTC + 3


Вы можете начинать темы
Вы можете отвечать на сообщения
Вы не можете редактировать свои сообщения
Вы не можете удалять свои сообщения
Вы не можете голосовать в опросах
Вы не можете прикреплять файлы к сообщениям
Вы можете скачивать файлы