(Classical) Krzysztof Penderecki - Horn Concerto; Violin Concerto No.1 - Robert Kabara, Radovan Vlatkovic, Sinfonietta Cracovia, Krzysztof Penderecki - 2010, FLAC (image+.cue) lossless


Статистика раздачи [Обновить пиров]
Размер:  253 MB   |    Зарегистрирован:  1 год 1 месяц   |    Скачан:  0 раз

Полного источника не было: Никогда

Личеров:  4  [  0 KB/s  ]   Подробная статистика пиров
 
   
 
 
 

[Цитировать]

Krzysztof Penderecki - Horn Concerto; Violin Concerto No.1 - Robert Kabara, Radovan Vlatkovic, Sinfonietta Cracovia, Krzysztof Penderecki
Жанр: Classical
Страна-производитель диска: The Netherlands
Год издания диска: 2010
Издатель (лейбл): Channel Classics
Номер по каталогу: CCS SA 30310
Дата записи: 2009
Аудиокодек: FLAC
Тип рипа: image+.cue
Битрейт аудио: lossless
Продолжительность: 59:23
Источник: собственный рип
Наличие сканов в содержимом раздачи: да
Треклист:
Krzysztof Penderecki
[1]-[4] Concerto for Violin and Orchestra No.1 (1977)
[5] Concerto for Horn and Orchestra 'Winterreise' (2008)
Исполнители:
Robert Kabara violin
Radovan Vlatkovic horn
Sinfonietta Cracovia
Krzysztof Penderecki

Лог создания рипа

Exact Audio Copy V1.0 beta 3 from 29. August 2011
EAC extraction logfile from 19. December 2014, 21:24
Sinfonietta Cracovia, Krysztof Penderecki / Penderecki - Horn Concerto; Violin Concerto No.1
Used drive : HL-DT-STDVDRAM GU70N Adapter: 0 ID: 0
Read mode : SecureUtilize accurate stream : YesDefeat audio cache : YesMake use of C2 pointers : No
Read offset correction : 48Overread into Lead-In and Lead-Out : NoFill up missing offset samples with silence : YesDelete leading and trailing silent blocks : NoNull samples used in CRC calculations : YesUsed interface : Native Win32 interface for Win NT & 2000
Used output format : User Defined EncoderSelected bitrate : 128 kBit/sQuality : HighAdd ID3 tag : NoCommand line compressor : C:\Program Files (x86)\Exact Audio Copy\Flac\flac.exeAdditional command line options : -V -8 -T "Date=%year%" -T "Genre=%genre%" %source%
TOC of the extracted CD
Track | Start | Length | Start sector | End sector --------------------------------------------------------- 1 | 0:00.00 | 12:34.16 | 0 | 56565 2 | 12:34.16 | 7:59.36 | 56566 | 92526 3 | 20:33.52 | 11:16.74 | 92527 | 143300 4 | 31:50.51 | 9:55.50 | 143301 | 187975 5 | 41:46.26 | 17:35.50 | 187976 | 267150
Range status and errors
Selected range
Filename C:\temp\CCS SA 30310 Penderecki - Horn Concerto; Violin Concerto No.1\Penderecki - Horn Concerto; Violin Concerto No.1.wav
Peak level 100.0 % Extraction speed 2.2 X Range quality 99.9 % Test CRC 3B417FB7 Copy CRC 3B417FB7 Copy OK
No errors occurred
AccurateRip summary
Track 1 accurately ripped (confidence 9) [B76ED807] (AR v2)Track 2 accurately ripped (confidence 9) [2791328A] (AR v2)Track 3 accurately ripped (confidence 9) [69EC7494] (AR v2)Track 4 accurately ripped (confidence 9) [B9AF0E61] (AR v2)Track 5 accurately ripped (confidence 9) [43564857] (AR v2)
All tracks accurately ripped
End of status report
==== Log checksum 7DD113D2FE3308360BD703819387101A700FAB6627A3F504BE0636B9C5BAE505 ====
[teatrix.ru].t9677.torrent 
Торрент: Зарегистрирован [ 2015-10-23 17:11 ] · 615DBCA8D9CCDC880B0F72A85C96CF3C0AAB3847

Скачать .torrent

Скачать

42 KB

Статус: проверено
Скачан: 0 раз
Размер: 253 MB
terms.php



Быстрый ответ

Имя:

      
Для отправки сообщений необходимо включить JavaScript
Показать сообщения:    

Текущее время: 09-Дек 10:47

Часовой пояс: UTC + 3


Вы можете начинать темы
Вы можете отвечать на сообщения
Вы не можете редактировать свои сообщения
Вы не можете удалять свои сообщения
Вы не можете голосовать в опросах
Вы не можете прикреплять файлы к сообщениям
Вы можете скачивать файлы