(Chamber Music) Wolfgang Amadeus Mozart - Clarinet Concerto / Clarinet Quintet (Leopold Wlach) - 1987, FLAC (tracks+.cue) lossless


Статистика раздачи [Обновить пиров]
Размер:  228 MB   |    Зарегистрирован:  1 год 1 месяц   |    Скачан:  1 раз

Полного источника не было: 6 месяцев 2 дня

Личеров:  4  [  0 KB/s  ]   Подробная статистика пиров
 
   
 
 
 

[Цитировать]

Leopold Wlach: Wolfgang Amadeus Mozart: Clarinet Concerto / Clarinet Quintet
Жанр: Chamber Music
Страна-производитель диска: Japan
Год издания диска: 1987
Издатель (лейбл): Westminster / MCA Records, Inc.
Номер по каталогу: MONO / 32XK-3 (2292-52769-2)
Дата записи: 1950
Аудиокодек: FLAC
Тип рипа: tracks+.cue
Битрейт аудио: lossless
Продолжительность: 01:07:20
Источник: собственный рип
Наличие сканов в содержимом раздачи: да
Треклист:
Concerto for Clarinet in A major, K. 622
01. I. Allegro 12:59
02. II. Adagio 08:09
03. III. Rondo. Allegro 09:23
Clarinet Quintet for 2 Violins, Viola & Cello in A major, K. 581 'Stadler Quintet'
04. I. Allegro 09:47
05. II. Larghetto 08:37
06. III. Minuetto 08:06
07. IV. Allegretto 10:16
Исполнители:
Leopold Wlach, clarinet
Orchestra Of The Vienna State Opera
Conducted by Artur Rodzinski (1-3)
Vienna Konzerthaus Quartet (4-7)

Лог создания рипа

Exact Audio Copy V1.0 beta 6 from 9. April 2015
Отчёт EAC об извлечении, выполненном 30. апреля 2015, 12:51
Wolfgang Amadeus Mozart / Konzerthaus Quartet / Clarinet Cto in A major, K.622 / Clarinet Quintet in A major, KV.581 (Orchestra of the Vienna State Opera feat. Artur Rodzinski & feat. Leopold Wlach on Clarinet)
Дисковод: TSSTcorpCDDVDW SH-224DB Adapter: 1 ID: 0
Режим чтения : ДостоверностьИспользование точного потока : ДаОтключение кэша аудио : ДаИспользование указателей C2 : Нет
Коррекция смещения при чтении : 6Способность читать области Lead-in и Lead-out : НетЗаполнение пропущенных сэмплов тишиной : ДаУдаление блоков с тишиной в начале и конце : НетПри вычислениях CRC использовались нулевые сэмплы : ДаИнтерфейс : Встроенный Win32-интерфейс для Win NT/2000Обработка зазоров : Добавлено к предыдущему треку
Выходной формат : Пользовательский кодировщикВыбранный битрейт : 896 kBit/sКачество : ВысокийДобавление ID3-тега : ДаУтилита сжатия : C:\Program Files (x86)\Exact Audio Copy\FLAC\FLAC.EXEДополнительные параметры : -6 -V -T "ARTIST=%artist%" -T "TITLE=%title%" -T "ALBUM=%albumtitle%" -T "DATE=%year%" -T "TRACKNUMBER=%tracknr%" -T "GENRE=%genre%" -T "COMMENT=%comment%" -T "BAND=%albuminterpret%" -T "ALBUMARTIST=%albuminterpret%" -T "COMPOSER=%composer%" %haslyrics%--tag-from-file=LYRICS="%lyricsfile%"%haslyrics% -T "DISCNUMBER=%cdnumber%" -T "TOTALDISCS=%totalcds%" -T "TOTALTRACKS=%numtracks%" %hascover%--picture="%coverfile%"%hascover% %source% -o %dest%
TOC извлечённого CD
Трек | Старт | Длительность | Начальный сектор | Конечный сектор --------------------------------------------------------------------- 1 | 0:00.00 | 12:59.02 | 0 | 58426 2 | 12:59.02 | 8:09.65 | 58427 | 95166 3 | 21:08.67 | 9:23.48 | 95167 | 137439 4 | 30:32.40 | 9:47.65 | 137440 | 181529 5 | 40:20.30 | 8:37.40 | 181530 | 220344 6 | 48:57.70 | 8:06.05 | 220345 | 256799 7 | 57:04.00 | 10:16.57 | 256800 | 303056
Трек 1
Имя файла C:\Download\Music\02\Konzerthaus Quartet , Clarinet Cto in A major, K.622 , Clarinet Quintet in A major, KV.581 (Orchestra of the Vienna State Opera feat. Artur Rodzinski & feat. Leopold Wlach on Clarinet)\01 Concerto for Clarinet in A major,
Длина предзазора 0:00:02.00
Пиковый уровень 95.4 % Скорость извлечения 3.3 X Качество трека 100.0 % CRC копии 8C6EDC4D Точное извлечение (достоверность 6) [3802C633] (AR v2) Копирование... OK
Трек 2
Имя файла C:\Download\Music\02\Konzerthaus Quartet , Clarinet Cto in A major, K.622 , Clarinet Quintet in A major, KV.581 (Orchestra of the Vienna State Opera feat. Artur Rodzinski & feat. Leopold Wlach on Clarinet)\02 Concerto for Clarinet in A major,
Длина предзазора 0:00:03.07
Пиковый уровень 61.9 % Скорость извлечения 2.8 X Качество трека 100.0 % CRC копии C488464F Точное извлечение (достоверность 6) [2DE4B246] (AR v2) Копирование... OK
Трек 3
Имя файла C:\Download\Music\02\Konzerthaus Quartet , Clarinet Cto in A major, K.622 , Clarinet Quintet in A major, KV.581 (Orchestra of the Vienna State Opera feat. Artur Rodzinski & feat. Leopold Wlach on Clarinet)\03 Concerto for Clarinet in A major,
Длина предзазора 0:00:02.30
Пиковый уровень 96.5 % Скорость извлечения 3.1 X Качество трека 100.0 % CRC копии 329EA8D8 Точное извлечение (достоверность 6) [64512DE6] (AR v2) Копирование... OK
Трек 4
Имя файла C:\Download\Music\02\Konzerthaus Quartet , Clarinet Cto in A major, K.622 , Clarinet Quintet in A major, KV.581 (Orchestra of the Vienna State Opera feat. Artur Rodzinski & feat. Leopold Wlach on Clarinet)\04 Clarinet Quintet for 2 Violins, V
Длина предзазора 0:00:04.73
Пиковый уровень 79.0 % Скорость извлечения 3.5 X Качество трека 100.0 % CRC копии 97EF2631 Точное извлечение (достоверность 5) [B15B4E24] (AR v2) Копирование... OK
Трек 5
Имя файла C:\Download\Music\02\Konzerthaus Quartet , Clarinet Cto in A major, K.622 , Clarinet Quintet in A major, KV.581 (Orchestra of the Vienna State Opera feat. Artur Rodzinski & feat. Leopold Wlach on Clarinet)\05 Clarinet Quintet for 2 Violins, V
Длина предзазора 0:00:02.53
Пиковый уровень 55.6 % Скорость извлечения 3.7 X Качество трека 100.0 % CRC копии E78DCBCF Точное извлечение (достоверность 5) [A4DBC0EA] (AR v2) Копирование... OK
Трек 6
Имя файла C:\Download\Music\02\Konzerthaus Quartet , Clarinet Cto in A major, K.622 , Clarinet Quintet in A major, KV.581 (Orchestra of the Vienna State Opera feat. Artur Rodzinski & feat. Leopold Wlach on Clarinet)\06 Clarinet Quintet for 2 Violins, V
Длина предзазора 0:00:01.28
Пиковый уровень 51.9 % Скорость извлечения 3.9 X Качество трека 100.0 % CRC копии 2D1FDFFF Точное извлечение (достоверность 5) [9CAB52E9] (AR v2) Копирование... OK
Трек 7
Имя файла C:\Download\Music\02\Konzerthaus Quartet , Clarinet Cto in A major, K.622 , Clarinet Quintet in A major, KV.581 (Orchestra of the Vienna State Opera feat. Artur Rodzinski & feat. Leopold Wlach on Clarinet)\07 Clarinet Quintet for 2 Violins, V
Длина предзазора 0:00:02.55
Пиковый уровень 55.1 % Скорость извлечения 4.2 X Качество трека 100.0 % CRC копии 9C6F481F Точное извлечение (достоверность 5) [AA1C0947] (AR v2) Копирование... OK
Все треки извлечены точно
Ошибок не произошло
Конец отчёта
---- CUETools DB Plugin V2.1.6
[CTDB TOCID: roMxBpVQdMYP71qcQYlhGATYWwM-] foundSubmit result: already submittedTrack | CTDB Status 1 | (2/3) Accurately ripped 2 | (3/3) Accurately ripped 3 | (3/3) Accurately ripped 4 | (3/3) Accurately ripped 5 | (3/3) Accurately ripped 6 | (3/3) Accurately ripped 7 | (3/3) Accurately ripped

Содержание индексной карты (.CUE)

REM GENRE ClassicalREM DATE 1987REM DISCID 5C0FC807REM COMMENT "ExactAudioCopy v1.0b6"PERFORMER "Wolfgang Amadeus Mozart"TITLE "Konzerthaus Quartet / Clarinet Cto in A major, K.622 / Clarinet Quintet in A ..."FILE "01 Concerto for Clarinet in A major, K. 622- I. Allegro.wav" WAVE TRACK 01 AUDIO TITLE "Concerto for Clarinet in A major, K. 622: I. Allegro" PERFORMER "Wolfgang Amadeus Mozart" INDEX 01 00:00:00 TRACK 02 AUDIO TITLE "Concerto for Clarinet in A major, K. 622: II. Adagio" PERFORMER "Wolfgang Amadeus Mozart" INDEX 00 12:55:70FILE "02 Concerto for Clarinet in A major, K. 622- II. Adagio.wav" WAVE INDEX 01 00:00:00 TRACK 03 AUDIO TITLE "Concerto for Clarinet in A major, K. 622: III. Rondo. Allegro" PERFORMER "Wolfgang Amadeus Mozart" INDEX 00 08:07:35FILE "03 Concerto for Clarinet in A major, K. 622- III. Rondo. Allegro.wav" WAVE INDEX 01 00:00:00 TRACK 04 AUDIO TITLE "Clarinet Quintet for 2 Violins, Viola & Cello in A major, K. 581 'Stadler Qui..." PERFORMER "Wolfgang Amadeus Mozart" INDEX 00 09:18:50FILE "04 Clarinet Quintet for 2 Violins, Viola & Cello in A major, K. 581 ''Stadler Quintet''- I. Allegro.wav" WAVE INDEX 01 00:00:00 INDEX 02 02:49:60 INDEX 03 05:38:72 INDEX 04 06:54:57 TRACK 05 AUDIO TITLE "Clarinet Quintet for 2 Violins, Viola & Cello in A major, K. 581 'Stadler Qui..." PERFORMER "Wolfgang Amadeus Mozart" INDEX 00 09:45:12FILE "05 Clarinet Quintet for 2 Violins, Viola & Cello in A major, K. 581 ''Stadler Quintet''- II. Larghetto.wav" WAVE INDEX 01 00:00:00 TRACK 06 AUDIO TITLE "Clarinet Quintet for 2 Violins, Viola & Cello in A major, K. 581 'Stadler Qui..." PERFORMER "Wolfgang Amadeus Mozart" INDEX 00 08:36:12FILE "06 Clarinet Quintet for 2 Violins, Viola & Cello in A major, K. 581 ''Stadler Quintet''- III. Minuetto.wav" WAVE INDEX 01 00:00:00 INDEX 02 01:34:62 INDEX 03 03:36:17 INDEX 04 04:24:35 INDEX 05 07:12:50 TRACK 07 AUDIO TITLE "Clarinet Quintet for 2 Violins, Viola & Cello in A major, K. 581 'Stadler Qui..." PERFORMER "Wolfgang Amadeus Mozart" INDEX 00 08:03:25FILE "07 Clarinet Quintet for 2 Violins, Viola & Cello in A major, K. 581 ''Stadler Quintet''- IV. Allegretto.wav" WAVE INDEX 01 00:00:00 INDEX 02 01:00:45 INDEX 03 02:02:55 INDEX 04 03:06:00 INDEX 05 04:37:07 INDEX 06 05:53:60 INDEX 07 09:25:02
Доп. информация: Recorded in Vienna ca. 1950
Date of first release in U.S.A. by Westminster Recording Co. Inc.
Concerto: 1954, Quintet: 1952
The only mastertape in existence of the "Clarinet Quintet" is interior in quality,
and is troubled by problems such as dropouts, tape-hiss, etc.
[teatrix.ru].t9678.torrent 
Торрент: Зарегистрирован [ 2015-10-23 17:11 ] · B34D08E485F84EB89DA68A2D725191AAAAF96701

Скачать .torrent

Скачать

20 KB

Статус: проверено
Скачан: 1 раз
Размер: 228 MB
terms.php



Быстрый ответ

Имя:

      
Для отправки сообщений необходимо включить JavaScript
Показать сообщения:    

Текущее время: 08-Дек 07:08

Часовой пояс: UTC + 3


Вы можете начинать темы
Вы можете отвечать на сообщения
Вы не можете редактировать свои сообщения
Вы не можете удалять свои сообщения
Вы не можете голосовать в опросах
Вы не можете прикреплять файлы к сообщениям
Вы можете скачивать файлы