(Violin) Max Rostal - In Memoriam: Bartok - Violin concerto No.2 | Berg - Violin concerto | Stevens - Violin concerto | Шостакович - Скрипичный концерт №1 (N. del Mar • H.Scherchen • Ch.Groves • M.Sargent) - 1993, FLAC (image+.cue) lossless


Статистика раздачи [Обновить пиров]
Размер:  502 MB   |    Зарегистрирован:  1 год 1 месяц   |    Скачан:  0 раз

Полного источника не было: Никогда

Личеров:  3  [  0 KB/s  ]   Подробная статистика пиров
 
   
 
 
 

[Цитировать]

Max Rostal
IN MEMORIAM

Bartok • Berg • Stevens • Shostakovich
-
-
- Жанр: Violin
Страна-производитель диска: England
Год издания диска: 1993
Издатель (лейбл): Symposium
Дата записи: 1948-62
Аудиокодек: FLAC
Тип рипа: image+.cue
Битрейт аудио: lossless
Продолжительность: 71'50'' | 69'42''
Источник: собственный рип
Наличие сканов в содержимом раздачи: да
Треклист:

CD1

Bela Bartok - Violin Concerto No.2:
[01] I. Allegro non troppo
[02] II. Andante tranquillo
[03] III. Allegro molto
The BBC Scottish Orchestra - Norman del Mar
Alban Berg - Violin Concerto:
[04] I. Andante - Allegretto
[05] II. Allegro - Adagio
The BBC Symphony Orchestra - Hermann Scherchen

Лог создания рипа

Exact Audio Copy V1.0 beta 3 from 29. August 2011
EAC extraction logfile from 13. February 2014, 23:02
Max Rostal / In Memoriam (CD1)
Used drive : COMPAQ CD-ROM LTN403 Adapter: 0 ID: 0
Read mode : SecureUtilize accurate stream : YesDefeat audio cache : YesMake use of C2 pointers : No
Read offset correction : -1164Overread into Lead-In and Lead-Out : NoFill up missing offset samples with silence : YesDelete leading and trailing silent blocks : NoNull samples used in CRC calculations : YesUsed interface : Native Win32 interface for Win NT & 2000
Used output format : User Defined EncoderSelected bitrate : 1024 kBit/sQuality : HighAdd ID3 tag : NoCommand line compressor : C:\Program Files\FLAC\flac.exeAdditional command line options : -T"COMMENT=rip by el coronel" -8 -V %source%
TOC of the extracted CD
Track | Start | Length | Start sector | End sector --------------------------------------------------------- 1 | 0:00.00 | 19:08.00 | 0 | 86099 2 | 19:08.00 | 11:30.00 | 86100 | 137849 3 | 30:38.00 | 12:46.00 | 137850 | 195299 4 | 43:24.00 | 12:02.00 | 195300 | 249449 5 | 55:26.00 | 16:24.00 | 249450 | 323249
Range status and errors
Selected range
Filename D:\Max Rostal - In Memoriam (CD1).wav
Peak level 98.4 % Extraction speed 3.0 X Range quality 99.9 % Test CRC 85EBB0BF Copy CRC 85EBB0BF Copy OK
No errors occurred
End of status report
==== Log checksum D56626CF01C49E6429EAE9195670482EB49ECD787A7EEE377924F1F49EC719D0 ====

Содержание индексной карты (.CUE)

REM GENRE ViolinREM DATE 1993REM DISCID 3410D605REM COMMENT "ExactAudioCopy v1.0b3"PERFORMER "Max Rostal"TITLE "Max Rostal - In Memoriam (CD1)"FILE "Max Rostal - In Memoriam (CD1).flac" WAVE TRACK 01 AUDIO TITLE "B.Bartok - Violin Concerto No.2: I. Allegro non troppo" PERFORMER "Max Rostal; BBC Scottish Orchestra - Norman Del Mar" INDEX 01 00:00:00 TRACK 02 AUDIO TITLE "II. Andante tranquillo" PERFORMER "Max Rostal; BBC Scottish Orchestra - Norman Del Mar" INDEX 00 18:25:00 INDEX 01 19:08:00 TRACK 03 AUDIO TITLE "III. Allegro molto" PERFORMER "Max Rostal; BBC Scottish Orchestra - Norman Del Mar" INDEX 00 30:06:00 INDEX 01 30:38:00 TRACK 04 AUDIO TITLE "A.Berg - Violin Concerto: I. Andante - Allegretto" PERFORMER "Max Rostal; BBC Symphony Orchestra - Hermann Scherchen" INDEX 00 43:00:00 INDEX 01 43:24:00 TRACK 05 AUDIO TITLE "II. Allegro - Adagio" PERFORMER "Max Rostal; BBC Symphony Orchestra - Hermann Scherchen" INDEX 00 55:20:00 INDEX 01 55:26:00

CD2

B.Stevens - Violin Concerto:
[01] I. Andante
[02] II. Adagio
[03] III. Allegro maestoso alla marcia
The BBC Northern Orchestra - Sir Charles Groves
Dmitri Shostakovich - Violin Concerto No.1:
[04] I. Nocturne
[05] II. Scherzo
[06] III. Passacaglia - IV. Burlesque
The BBC Symphony Orchestra - Sir Malcolm Sargent

Лог создания рипа

Exact Audio Copy V1.0 beta 3 from 29. August 2011
EAC extraction logfile from 14. February 2014, 20:30
Max Rostal / In Memoriam (CD2)
Used drive : COMPAQ CD-ROM LTN403 Adapter: 0 ID: 0
Read mode : SecureUtilize accurate stream : YesDefeat audio cache : YesMake use of C2 pointers : No
Read offset correction : -1164Overread into Lead-In and Lead-Out : NoFill up missing offset samples with silence : YesDelete leading and trailing silent blocks : NoNull samples used in CRC calculations : YesUsed interface : Native Win32 interface for Win NT & 2000
Used output format : User Defined EncoderSelected bitrate : 1024 kBit/sQuality : HighAdd ID3 tag : NoCommand line compressor : C:\Program Files\FLAC\flac.exeAdditional command line options : -T"COMMENT=rip by el coronel" -8 -V %source%
TOC of the extracted CD
Track | Start | Length | Start sector | End sector --------------------------------------------------------- 1 | 0:00.00 | 12:40.00 | 0 | 56999 2 | 12:40.00 | 9:15.62 | 57000 | 98686 3 | 21:55.62 | 9:49.13 | 98687 | 142874 4 | 31:45.00 | 12:52.00 | 142875 | 200774 5 | 44:37.00 | 6:23.00 | 200775 | 229499 6 | 51:00.00 | 18:42.00 | 229500 | 313649
Range status and errors
Selected range
Filename D:\Max Rostal - In Memoriam (CD2).wav
Peak level 100.0 % Extraction speed 3.0 X Range quality 100.0 % Test CRC A514D3E9 Copy CRC A514D3E9 Copy OK
No errors occurred
End of status report
==== Log checksum 34C3200AEADFA635A46C219503B0CD67889A7F3E4F2363D1006D01891B19AD35 ====

Содержание индексной карты (.CUE)

REM GENRE ViolinREM DATE 1993REM DISCID 51105606REM COMMENT "ExactAudioCopy v1.0b3"PERFORMER "Max Rostal"TITLE "Max Rostal - In Memoriam (CD2)"FILE "Max Rostal - In Memoriam (CD2).flac" WAVE TRACK 01 AUDIO TITLE "B.Stevens - Violin Concerto: I. Andante" PERFORMER "Max Rostal; BBC Northern Orchestra - Sir Charles Groves" INDEX 01 00:00:00 TRACK 02 AUDIO TITLE "II. Adagio" PERFORMER "Max Rostal; BBC Northern Orchestra - Sir Charles Groves" INDEX 00 12:25:00 INDEX 01 12:40:00 TRACK 03 AUDIO TITLE "III. Allegro maestoso alla marcia" PERFORMER "Max Rostal; BBC Northern Orchestra - Sir Charles Groves" INDEX 01 21:55:62 TRACK 04 AUDIO TITLE "D.Shostakovich - Violin Concerto No.1: I. Nocturne" PERFORMER "Max Rostal; BBC Symphony Orchestra - Sir Malcolm Sargent" INDEX 00 31:32:00 INDEX 01 31:45:00 TRACK 05 AUDIO TITLE "II. Scherzo" PERFORMER "Max Rostal; BBC Symphony Orchestra - Sir Malcolm Sargent" INDEX 00 43:58:00 INDEX 01 44:37:00 TRACK 06 AUDIO TITLE "III. Passacaglia - IV. Burlesque" PERFORMER "Max Rostal; BBC Symphony Orchestra - Sir Malcolm Sargent" INDEX 00 50:53:00 INDEX 01 51:00:00
Исполнители:
Max Rostal, violin
[teatrix.ru].t9679.torrent 
Торрент: Зарегистрирован [ 2015-10-23 17:11 ] · 8173D86C31D9BC0159893C33B9777BB1D31162DA

Скачать .torrent

Скачать

21 KB

Статус: проверено
Скачан: 0 раз
Размер: 502 MB
terms.php



Быстрый ответ

Имя:

      
Для отправки сообщений необходимо включить JavaScript
Показать сообщения:    

Текущее время: 04-Дек 11:09

Часовой пояс: UTC + 3


Вы можете начинать темы
Вы можете отвечать на сообщения
Вы не можете редактировать свои сообщения
Вы не можете удалять свои сообщения
Вы не можете голосовать в опросах
Вы не можете прикреплять файлы к сообщениям
Вы можете скачивать файлы