(Classical) Giovanni Benedetto Platti - Cello Concertos - Stefano Veggetti, Ensemble Cordia - 2013, FLAC (image+.cue) lossless


Статистика раздачи [Обновить пиров]
Размер:  319 MB   |    Зарегистрирован:  1 год 1 месяц   |    Скачан:  0 раз

Полного источника не было: Никогда

Личеров:  4  [  0 KB/s  ]   Подробная статистика пиров
 
   
 
 
 

[Цитировать]

Giovanni Benedetto Platti - Cello Concertos - Stefano Veggetti, Ensemble Cordia
Жанр: Classical
Год издания диска: 2013
Издатель (лейбл): Brilliant Classics
Номер по каталогу: 94722
Дата записи: 2011
Аудиокодек: FLAC
Тип рипа: image+.cue
Битрейт аудио: lossless
Продолжительность: 63:23
Источник: собственный рип
Наличие сканов в содержимом раздачи: да
Треклист:
Giovanni Benedetto Platti (1697-1763)
[1]-[3] Concerto in A for obbligato cello and strings (D-WD 654)
[4]-[8] Concerto grosso in D, after Sonata Op.5 No.1 by Corelli (D-WD 538)
[9]-[11] Concerto in D minor for obbligato cello and strings (D-WD 657)
[12]-[16] Concerto grosso in C, after Sonata Op.5 No.3 by Corelli (D-WD 539)
[17]-[19] Concerto in D for obbligato cello and strings (D-WD 650)
Исполнители:
Stefano Veggetti cello ([1]-[3], [9]-[11], [17]-[19])
Ensemble Cordia

Лог создания рипа

Exact Audio Copy V1.0 beta 3 from 29. August 2011
EAC extraction logfile from 23. April 2015, 2:44
Stefano Veggetti, Ensemble Cordia / Platti - Cello Concertos
Used drive : HL-DT-STDVDRAM GU70N Adapter: 0 ID: 0
Read mode : SecureUtilize accurate stream : YesDefeat audio cache : YesMake use of C2 pointers : No
Read offset correction : 48Overread into Lead-In and Lead-Out : NoFill up missing offset samples with silence : YesDelete leading and trailing silent blocks : NoNull samples used in CRC calculations : YesUsed interface : Native Win32 interface for Win NT & 2000
Used output format : User Defined EncoderSelected bitrate : 128 kBit/sQuality : HighAdd ID3 tag : NoCommand line compressor : C:\Program Files (x86)\Exact Audio Copy\Flac\flac.exeAdditional command line options : -V -8 -T "Date=%year%" -T "Genre=%genre%" %source%
TOC of the extracted CD
Track | Start | Length | Start sector | End sector --------------------------------------------------------- 1 | 0:00.00 | 4:58.41 | 0 | 22390 2 | 4:58.41 | 5:17.56 | 22391 | 46221 3 | 10:16.22 | 3:43.19 | 46222 | 62965 4 | 13:59.41 | 3:11.34 | 62966 | 77324 5 | 17:11.00 | 2:22.14 | 77325 | 87988 6 | 19:33.14 | 1:04.01 | 87989 | 92789 7 | 20:37.15 | 2:52.11 | 92790 | 105700 8 | 23:29.26 | 1:38.43 | 105701 | 113093 9 | 25:07.69 | 4:56.16 | 113094 | 135309 10 | 30:04.10 | 4:26.38 | 135310 | 155297 11 | 34:30.48 | 4:46.69 | 155298 | 176816 12 | 39:17.42 | 2:37.36 | 176817 | 188627 13 | 41:55.03 | 1:55.64 | 188628 | 197316 14 | 43:50.67 | 3:13.67 | 197317 | 211858 15 | 47:04.59 | 1:02.54 | 211859 | 216562 16 | 48:07.38 | 2:28.47 | 216563 | 227709 17 | 50:36.10 | 4:04.58 | 227710 | 246067 18 | 54:40.68 | 3:30.63 | 246068 | 261880 19 | 58:11.56 | 5:11.68 | 261881 | 285273
Range status and errors
Selected range
Filename C:\temp\Platti - Cello Concertos\Platti - Cello Concertos.wav
Peak level 100.0 % Extraction speed 2.1 X Range quality 100.0 % Test CRC 1BA56124 Copy CRC 1BA56124 Copy OK
No errors occurred
AccurateRip summary
Track 1 accurately ripped (confidence 3) [27F325C7] (AR v2)Track 2 accurately ripped (confidence 3) [8379169C] (AR v2)Track 3 accurately ripped (confidence 3) [BADC05B2] (AR v2)Track 4 accurately ripped (confidence 3) [94664DBA] (AR v2)Track 5 accurately ripped (confidence 3) [D54D218E] (AR v2)Track 6 accurately ripped (confidence 3) [35ACE7CC] (AR v2)Track 7 accurately ripped (confidence 3) [FEC4C2D8] (AR v2)Track 8 accurately ripped (confidence 3) [A005A755] (AR v2)Track 9 accurately ripped (confidence 3) [58346871] (AR v2)Track 10 accurately ripped (confidence 3) [43FF6AFF] (AR v2)Track 11 accurately ripped (confidence 3) [27D8B39C] (AR v2)Track 12 accurately ripped (confidence 3) [0A8B3DEF] (AR v2)Track 13 accurately ripped (confidence 3) [FB8ABBAC] (AR v2)Track 14 accurately ripped (confidence 3) [AC94A893] (AR v2)Track 15 accurately ripped (confidence 3) [B0611CA6] (AR v2)Track 16 accurately ripped (confidence 3) [B5485B5B] (AR v2)Track 17 accurately ripped (confidence 3) [E9E050B0] (AR v2)Track 18 accurately ripped (confidence 3) [F40F518A] (AR v2)Track 19 accurately ripped (confidence 3) [420A6486] (AR v2)
All tracks accurately ripped
End of status report
==== Log checksum C43D5F4643689E1930A8B14EA1D47AA8666019B429AAD5965F67A5D251E1CCE9 ====
[teatrix.ru].t9680.torrent 
Торрент: Зарегистрирован [ 2015-10-23 17:11 ] · B472DD602F94E184BDE64A2946AD482F1341C86F

Скачать .torrent

Скачать

26 KB

Статус: проверено
Скачан: 0 раз
Размер: 319 MB
terms.php



Быстрый ответ

Имя:

      
Для отправки сообщений необходимо включить JavaScript
Показать сообщения:    

Текущее время: 11-Дек 11:01

Часовой пояс: UTC + 3


Вы можете начинать темы
Вы можете отвечать на сообщения
Вы не можете редактировать свои сообщения
Вы не можете удалять свои сообщения
Вы не можете голосовать в опросах
Вы не можете прикреплять файлы к сообщениям
Вы можете скачивать файлы