(Classical) Brett Dean - The Lost Art of Letter Writing; Testament; Vexations and Devotions - F. P. Zimmermann, Sydney Symphony, Jonathan Nott, BBC SO and Chorus, Gondwana Voices, Martyn Brabbins, David Robertson - 2013, FLAC (image+.cue) lossless


Статистика раздачи [Обновить пиров]
Размер:  391 MB   |    Зарегистрирован:  1 год 1 месяц   |    Скачан:  1 раз

Полного источника не было: 5 месяцев 12 дней

Личеров:  4  [  0 KB/s  ]   Подробная статистика пиров
 
   
 
 
 

[Цитировать]

Brett Dean - The Lost Art of Letter Writing; Testament; Vexations and Devotions - F. P. Zimmermann, Sydney Symphony, Jonathan Nott, BBC SO and Chorus, Gondwana Voices, Martyn Brabbins, David Robertson
Жанр: Classical
Страна-производитель диска: Sweden
Год издания диска: 2013
Издатель (лейбл): BIS
Номер по каталогу: BIS-SACD-2016
Дата записи: 2007, 2011, 2012
Аудиокодек: FLAC
Тип рипа: image+.cue
Битрейт аудио: lossless
Продолжительность: 86:22
Источник: собственный рип
Наличие сканов в содержимом раздачи: да
Треклист:
Brett Dean (b. 1961)
[1]-[4] The Lost Art of Letter Writing (2006, rev. 2007)
Concerto for Violin and Orchestra
Frank Peter Zimmermann violin
Sydney Symphony
Jonathan Nott
conductor
[5] Testament for 12 violas (2002)
BBC Symphony Orchestra (viola section)
Martyn Brabbins conductor
[6]-[8] Vexations and Devotions (2005)
for SATB choir, children’s choir, large orchestra and electronics
BBC Symphony Orchestra and Chorus
Gondwana Voices
David Robertson
conductor
Исполнители:
Frank Peter Zimmermann violin
Sydney Symphony
Jonathan Nott
conductor
BBC Symphony Orchestra and Chorus
Gondwana Voices
Martyn Brabbins
conductor
David Robertson conductor

Лог создания рипа

Exact Audio Copy V1.0 beta 3 from 29. August 2011
EAC extraction logfile from 18. December 2014, 16:17
Frank Peter Zimmermann, Sydney Symphony, Jonathan Nott / Dean - The Lost Art of Letter Writing
Used drive : HL-DT-STDVDRRW GWA-4164B Adapter: 5 ID: 0
Read mode : SecureUtilize accurate stream : YesDefeat audio cache : YesMake use of C2 pointers : No
Read offset correction : 102Overread into Lead-In and Lead-Out : NoFill up missing offset samples with silence : YesDelete leading and trailing silent blocks : NoNull samples used in CRC calculations : YesUsed interface : Native Win32 interface for Win NT & 2000
Used output format : User Defined EncoderSelected bitrate : 896 kBit/sQuality : HighAdd ID3 tag : NoCommand line compressor : C:\Program Files\Exact Audio Copy\FLAC\FLAC.EXEAdditional command line options : -V -8 %source%
TOC of the extracted CD
Track | Start | Length | Start sector | End sector --------------------------------------------------------- 1 | 0:00.00 | 12:11.42 | 0 | 54866 2 | 12:11.42 | 9:59.69 | 54867 | 99860 3 | 22:11.36 | 4:08.44 | 99861 | 118504 4 | 26:20.05 | 7:42.05 | 118505 | 153159 5 | 34:02.10 | 14:55.12 | 153160 | 220296 6 | 48:57.22 | 9:04.63 | 220297 | 261159 7 | 58:02.10 | 15:38.62 | 261160 | 331571 8 | 73:40.72 | 12:41.07 | 331572 | 388653
Range status and errors
Selected range
Filename D:\temp\Music\BIS-SACD-2016 - Dean - The Lost Art of Letter Writing\Dean - The Lost Art of Letter Writing.wav
Peak level 99.9 % Extraction speed 3.1 X Range quality 100.0 % Test CRC E248BCE6 Copy CRC E248BCE6 Copy OK
No errors occurred
AccurateRip summary
Track 1 accurately ripped (confidence 1) [CC912BA2] (AR v2)Track 2 accurately ripped (confidence 1) [F3A61CAE] (AR v2)Track 3 accurately ripped (confidence 1) [8CCDEE0D] (AR v2)Track 4 accurately ripped (confidence 1) [D80CAEED] (AR v2)Track 5 accurately ripped (confidence 1) [9B633ECE] (AR v2)Track 6 accurately ripped (confidence 1) [3433236E] (AR v2)Track 7 accurately ripped (confidence 1) [FDC5D448] (AR v2)Track 8 accurately ripped (confidence 1) [B2AE418B] (AR v2)
All tracks accurately ripped
End of status report
==== Log checksum 6A1719DB739C338089157F7CEDE7B86A9976E0A3CDE92C0D5957FE078E6EBCE8 ====
[teatrix.ru].t9681.torrent 
Торрент: Зарегистрирован [ 2015-10-23 17:11 ] · AA30E9F82AFEE88F48CD7888B94A1C2B91ABE310

Скачать .torrent

Скачать

32 KB

Статус: проверено
Скачан: 1 раз
Размер: 391 MB
terms.php



Быстрый ответ

Имя:

      
Для отправки сообщений необходимо включить JavaScript
Показать сообщения:    

Текущее время: 07-Дек 17:25

Часовой пояс: UTC + 3


Вы можете начинать темы
Вы можете отвечать на сообщения
Вы не можете редактировать свои сообщения
Вы не можете удалять свои сообщения
Вы не можете голосовать в опросах
Вы не можете прикреплять файлы к сообщениям
Вы можете скачивать файлы