(Classical) Brahms: Violin Concerto; Hungarian Dances • Bartok: Rhapsodies - Leonidas Kavakos, Peter Nagy, Gewandhausorchester, Riccardo Chailly - 2013, FLAC (image+.cue) lossless


Статистика раздачи [Обновить пиров]
Размер:  315 MB   |    Зарегистрирован:  1 год 1 месяц   |    Скачан:  1 раз

Полного источника не было: 1 месяц 11 дней

Личеров:  4  [  0 KB/s  ]   Подробная статистика пиров
 
   
 
 
 

[Цитировать]

Brahms: Violin Concerto; Hungarian Dances • Bartok: Rhapsodies - Leonidas Kavakos, Péter Nagy, Gewandhausorchester, Riccardo Chailly
Жанр: Classical
Год издания диска: 2013
Издатель (лейбл): Decca
Дата записи: 2013
Аудиокодек: FLAC
Тип рипа: image+.cue
Битрейт аудио: lossless
Продолжительность: 74:36
Источник: собственный рип
Наличие сканов в содержимом раздачи: да
Треклист:
Johannes Brahms
[1]-[3] Violin Concerto in D major, Op.77
Bela Bartok
[4]-[5] Rhapsody No.1 for violin and piano, BB 94
[6]-[7] Rhapsody No.2 for violin and piano, BB 96
Johannes Brahms
(arr. Joseph Joachim)
[8]-[11] Hungarian Dances Nos. 1, 2, 6 & 11
Исполнители:
Leonidas Kavakos violin
Péter Nagy piano
Gewandhausorchester
Riccardo Chailly
conductor

Лог создания рипа

Exact Audio Copy V1.0 beta 3 from 29. August 2011
EAC extraction logfile from 14. December 2014, 19:12
Leonidas Kavakos, Gewandhausorchester, Riccardo Chailly / Brahms - Violin Concerto
Used drive : HL-DT-STDVDRAM GU70N Adapter: 0 ID: 0
Read mode : SecureUtilize accurate stream : YesDefeat audio cache : YesMake use of C2 pointers : No
Read offset correction : 48Overread into Lead-In and Lead-Out : NoFill up missing offset samples with silence : YesDelete leading and trailing silent blocks : NoNull samples used in CRC calculations : YesUsed interface : Native Win32 interface for Win NT & 2000
Used output format : User Defined EncoderSelected bitrate : 128 kBit/sQuality : HighAdd ID3 tag : NoCommand line compressor : C:\Program Files (x86)\Exact Audio Copy\Flac\flac.exeAdditional command line options : -V -8 -T "Date=%year%" -T "Genre=%genre%" %source%
TOC of the extracted CD
Track | Start | Length | Start sector | End sector --------------------------------------------------------- 1 | 0:00.00 | 23:39.02 | 0 | 106426 2 | 23:39.02 | 9:48.55 | 106427 | 150581 3 | 33:27.57 | 8:04.23 | 150582 | 186904 4 | 41:32.05 | 4:17.41 | 186905 | 206220 5 | 45:49.46 | 5:12.59 | 206221 | 229679 6 | 51:02.30 | 4:08.71 | 229680 | 248350 7 | 55:11.26 | 5:52.64 | 248351 | 274814 8 | 61:04.15 | 3:11.66 | 274815 | 289205 9 | 64:16.06 | 3:14.59 | 289206 | 303814 10 | 67:30.65 | 3:24.70 | 303815 | 319184 11 | 70:55.60 | 3:19.33 | 319185 | 334142
Range status and errors
Selected range
Filename C:\temp\Brahms - Violin Concerto - Kavakos, Gewandhausorchester, Chailly\Brahms - Violin Concerto.wav
Peak level 96.2 % Extraction speed 2.3 X Range quality 100.0 % Test CRC 62C59C0A Copy CRC 62C59C0A Copy OK
No errors occurred
AccurateRip summary
Track 1 accurately ripped (confidence 5) [5A7E1FAB] (AR v2)Track 2 accurately ripped (confidence 5) [EBFFA6F2] (AR v2)Track 3 accurately ripped (confidence 5) [43CC4C0B] (AR v2)Track 4 accurately ripped (confidence 5) [8D97320C] (AR v2)Track 5 accurately ripped (confidence 5) [AFA5C4F9] (AR v2)Track 6 accurately ripped (confidence 5) [B3A4CA36] (AR v2)Track 7 accurately ripped (confidence 5) [147A965C] (AR v2)Track 8 accurately ripped (confidence 5) [A06EB4C2] (AR v2)Track 9 accurately ripped (confidence 5) [0191F6BB] (AR v2)Track 10 accurately ripped (confidence 5) [DF812858] (AR v2)Track 11 accurately ripped (confidence 5) [9DF6B981] (AR v2)
All tracks accurately ripped
End of status report
==== Log checksum 7892C0595EA844E3CA7E3EA232242B551E8E8F9F37DECA7F92FFD9656D1AC481 ====
[teatrix.ru].t9682.torrent 
Торрент: Зарегистрирован [ 2015-10-23 17:11 ] · 1479FC67B416FBE2E0675FB07D3DB2F6E356B6B6

Скачать .torrent

Скачать

26 KB

Статус: проверено
Скачан: 1 раз
Размер: 315 MB
terms.php



Быстрый ответ

Имя:

      
Для отправки сообщений необходимо включить JavaScript
Показать сообщения:    

Текущее время: 05-Дек 13:30

Часовой пояс: UTC + 3


Вы можете начинать темы
Вы можете отвечать на сообщения
Вы не можете редактировать свои сообщения
Вы не можете удалять свои сообщения
Вы не можете голосовать в опросах
Вы не можете прикреплять файлы к сообщениям
Вы можете скачивать файлы