(Classical) Arcangelo Corelli, Tommaso Albinoni, Domenico Scarlatti, Francesco Manfredini, Pietro Locatelli - 1994,(Radio-Sinfonieorchester Stuttgart,Cond.:Garcia Navarro,Die Zagreber Solisten,Dubravkaavka Tomsic, piano) FLAC (tracks+.cue) lossless


Статистика раздачи [Обновить пиров]
Размер:  292 MB   |    Зарегистрирован:  1 год 2 месяца   |    Скачан:  1 раз

Полного источника не было: 2 месяца 10 дней

Личеров:  4  [  0 KB/s  ]   Подробная статистика пиров
 
   
 
 
 

[Цитировать]

Corelli, Albinoni, Scarlatti, Manfredini, Locatelli
Жанр: Classical
Страна-производитель диска: Germany
Год издания диска: 1994
Издатель (лейбл): Mediaphon/Bernard Mikulski/ZYX Classic
Номер по каталогу: CLS4022
Аудиокодек: FLAC
Тип рипа: tracks+.cue
Битрейт аудио: lossless
Продолжительность: 1:05:17.
Источник: собственный рип
Наличие сканов в содержимом раздачи: да
Треклист:
Arcangelo Corelli:
Radio-Sinfonieorchester Stuttgart, Conductor: Garcia Navarro
Concerto Grosso Op.6, No.8 G Minor
01. 1. Vivace Grave [0:01:07.27]
02. 2. Allegro [0:02:30.43]
03. 3. Adagio-Allegro [0:02:34.67]
04. 4. Vivace [0:01:13.25]
05. 5. Allegro-Largo (Pastorale) [0:05:59.63]
Tommaso Albinoni:
I Solisti di Zagreb/Die Zagreber Solisten
Concerto A Cinque In B Flat Major
06. 1 Allegro Moderato [0:03:32.05]
07. 2. Adagio [0:01:30.60]
08. 3. Allegro Vivace [0:01:35.10]
Domenico Scarlatti:
09. Sonata F Minor [0:06:11.00]
Dubravkaavka Tomsic, piano
Francesco Manfredini:
Radio-Sinfonieorchester Stuttgart, Conductor: Garcia Navarro
Concerto Grosso Op.3, No.12 C Major
10. 1. Largo (Pastorale) [0:04:02.52]
11. 2. Largo [0:02:00.68]
12. 3. Allegro [0:02:20.30]
Pietro Locatelli:
Radio-Sinfonieorchester Stuttgart, Conductor: Garcia Navarro
Concerto Grosso Op.1, No.8 F Minor
13. 1. Largo-Grave [0:02:53.52]
14. 2. Vivace [0:03:18.63]
15. 3. Largo Andante [0:02:17.17]
16. 4. Andante [0:02:44.55]
17. 5. Pastorale. Largo-Andante [0:03:18.38]
Domenico Scarlatti:
18. Sonata In G Major [0:06:02.00]
Dubravka Tomsic, piano
Arcangelo Corelli:
I Solisti di Zagreb/Die Zagreber Solisten
Concerto Grosso Op.6, No.4 D Major
19. 1. Adagio-Allegro [0:02:54.00]
20. 2. Adagio-Vivace [0:02:43.20]
21. 3. Allegro [0:01:11.02]
22. 4. Allegro [0:03:15.33]
Исполнители:
Radio-Sinfonieorchester Stuttgart, Conductor: Garcia Navarro.
I Solisti di Zagreb/Die Zagreber Solisten.
Dubravkaavka Tomsic, piano.

Лог создания рипа

Exact Audio Copy V1.0 beta 3 from 29. August 2011
Отчёт EAC об извлечении, выполненном 27. марта 2015, 20:01
VA / Corelli, Albinoni, Scarlatti, Manfredini, Locatelli
Дисковод: ASUS DVD-E616A3T Adapter: 5 ID: 0
Режим чтения : ДостоверностьИспользование точного потока : ДаОтключение кэша аудио : ДаИспользование указателей C2 : Нет
Коррекция смещения при чтении : 6Способность читать области Lead-in и Lead-out : НетЗаполнение пропущенных сэмплов тишиной : ДаУдаление блоков с тишиной в начале и конце : НетПри вычислениях CRC использовались нулевые сэмплы : ДаИнтерфейс : Встроенный Win32-интерфейс для Win NT/2000Обработка зазоров : Добавлено к предыдущему треку
Выходной формат : Пользовательский кодировщикВыбранный битрейт : 128 kBit/sКачество : ВысокийДобавление ID3-тега : НетУтилита сжатия : C:\Program Files\Exact Audio Copy\Flac\flac.exeДополнительные параметры : -V -8 -T "Genre=%genre%" -T "Artist=%artist%" -T "Title=%title%" -T "Album=%albumtitle%" -T "Date=%year%" -T "Tracknumber=%tracknr%" -T "Comment=EAC1.0b2 FLAC -8" %source%
TOC извлечённого CD
Трек | Старт | Длительность | Начальный сектор | Конечный сектор --------------------------------------------------------------------- 1 | 0:00.00 | 1:07.27 | 0 | 5051 2 | 1:07.27 | 2:30.43 | 5052 | 16344 3 | 3:37.70 | 2:34.67 | 16345 | 27961 4 | 6:12.62 | 1:13.25 | 27962 | 33461 5 | 7:26.12 | 5:59.63 | 33462 | 60449 6 | 13:26.00 | 3:32.05 | 60450 | 76354 7 | 16:58.05 | 1:30.60 | 76355 | 83164 8 | 18:28.65 | 1:35.10 | 83165 | 90299 9 | 20:04.00 | 6:11.00 | 90300 | 118124 10 | 26:15.00 | 4:02.52 | 118125 | 136326 11 | 30:17.52 | 2:00.68 | 136327 | 145394 12 | 32:18.45 | 2:20.30 | 145395 | 155924 13 | 34:39.00 | 2:53.52 | 155925 | 168951 14 | 37:32.52 | 3:18.63 | 168952 | 183864 15 | 40:51.40 | 2:17.17 | 183865 | 194156 16 | 43:08.57 | 2:44.55 | 194157 | 206511 17 | 45:53.37 | 3:18.38 | 206512 | 221399 18 | 49:12.00 | 6:02.00 | 221400 | 248549 19 | 55:14.00 | 2:54.00 | 248550 | 261599 20 | 58:08.00 | 2:43.20 | 261600 | 273844 21 | 60:51.20 | 1:11.02 | 273845 | 279171 22 | 62:02.22 | 3:15.33 | 279172 | 293829
Трек 1
Имя файла R:\Раздача 42\Corelli,Albinoni, Scarlatti, Manfredini, Locatelli - 1994\01 Concerto Grosso Op.6, No.8 G Minor, 1. Vivace Grave.wav
Длина предзазора 0:00:02.00
Пиковый уровень 77.3 % Скорость извлечения 0.8 X Качество трека 99.7 % CRC теста EF7AD144 CRC копии EF7AD144 Точное извлечение (достоверность 16) [0842B219] (AR v2) Копирование... OK
Трек 2
Имя файла R:\Раздача 42\Corelli,Albinoni, Scarlatti, Manfredini, Locatelli - 1994\02 Concerto Grosso Op.6, No.8 G Minor, 2. Allegro.wav
Пиковый уровень 59.0 % Скорость извлечения 1.7 X Качество трека 100.0 % CRC теста 1CA7B2E1 CRC копии 1CA7B2E1 Точное извлечение (достоверность 16) [567DD5AC] (AR v2) Копирование... OK
Трек 3
Имя файла R:\Раздача 42\Corelli,Albinoni, Scarlatti, Manfredini, Locatelli - 1994\03 Concerto Grosso Op.6, No.8 G Minor, 3. Adagio-Allegro.wav
Пиковый уровень 55.4 % Скорость извлечения 1.8 X Качество трека 100.0 % CRC теста A5E3BE50 CRC копии A5E3BE50 Точное извлечение (достоверность 16) [7B7A8610] (AR v2) Копирование... OK
Трек 4
Имя файла R:\Раздача 42\Corelli,Albinoni, Scarlatti, Manfredini, Locatelli - 1994\04 Concerto Grosso Op.6, No.8 G Minor, 4. Vivace.wav
Пиковый уровень 60.1 % Скорость извлечения 1.5 X Качество трека 100.0 % CRC теста D13988BA CRC копии D13988BA Точное извлечение (достоверность 16) [1448D64E] (AR v2) Копирование... OK
Трек 5
Имя файла R:\Раздача 42\Corelli,Albinoni, Scarlatti, Manfredini, Locatelli - 1994\05 Concerto Grosso Op.6, No.8 G Minor, 5. Allegro-Largo (Pastorale).wav
Пиковый уровень 66.7 % Скорость извлечения 1.9 X Качество трека 99.9 % CRC теста FA3C976B CRC копии FA3C976B Точное извлечение (достоверность 15) [464CF23A] (AR v2) Копирование... OK
Трек 6
Имя файла R:\Раздача 42\Corelli,Albinoni, Scarlatti, Manfredini, Locatelli - 1994\06 Concerto A Cinque In B Flat Major, 1 Allegro Moderato.wav
Длина предзазора 0:00:06.45
Пиковый уровень 71.0 % Скорость извлечения 2.3 X Качество трека 100.0 % CRC теста 5649D819 CRC копии 5649D819 Точное извлечение (достоверность 16) [1A135599] (AR v2) Копирование... OK
Трек 7
Имя файла R:\Раздача 42\Corelli,Albinoni, Scarlatti, Manfredini, Locatelli - 1994\07 Concerto A Cinque In B Flat Major, 2. Adagio.wav
Длина предзазора 0:00:02.13
Пиковый уровень 55.5 % Скорость извлечения 2.0 X Качество трека 100.0 % CRC теста CDA337C4 CRC копии CDA337C4 Точное извлечение (достоверность 16) [98A1E46F] (AR v2) Копирование... OK
Трек 8
Имя файла R:\Раздача 42\Corelli,Albinoni, Scarlatti, Manfredini, Locatelli - 1994\08 Concerto A Cinque In B Flat Major, 3. Allegro Vivace.wav
Длина предзазора 0:00:01.45
Пиковый уровень 66.2 % Скорость извлечения 2.0 X Качество трека 100.0 % CRC теста 9FBEFBC3 CRC копии 9FBEFBC3 Точное извлечение (достоверность 16) [B66C8A58] (AR v2) Копирование... OK
Трек 9
Имя файла R:\Раздача 42\Corelli,Albinoni, Scarlatti, Manfredini, Locatelli - 1994\09 Sonata F Minor.wav
Длина предзазора 0:00:05.45
Пиковый уровень 34.0 % Скорость извлечения 2.8 X Качество трека 100.0 % CRC теста 051C2E79 CRC копии 051C2E79 Точное извлечение (достоверность 15) [167CC0DD] (AR v2) Копирование... OK
Трек 10
Имя файла R:\Раздача 42\Corelli,Albinoni, Scarlatti, Manfredini, Locatelli - 1994\10 Concerto Grosso Op.3, No.12 C Major, 1. Largo (Pastorale).wav
Длина предзазора 0:00:04.28
Пиковый уровень 56.2 % Скорость извлечения 2.3 X Качество трека 99.9 % CRC теста 7ADFF60B CRC копии 7ADFF60B Точное извлечение (достоверность 16) [1E4E2A0D] (AR v2) Копирование... OK
Трек 11
Имя файла R:\Раздача 42\Corelli,Albinoni, Scarlatti, Manfredini, Locatelli - 1994\11 Concerto Grosso Op.3, No.12 C Major, 2. Largo.wav
Пиковый уровень 65.9 % Скорость извлечения 2.5 X Качество трека 100.0 % CRC теста 93365AAD CRC копии 93365AAD Точное извлечение (достоверность 16) [10B09211] (AR v2) Копирование... OK
Трек 12
Имя файла R:\Раздача 42\Corelli,Albinoni, Scarlatti, Manfredini, Locatelli - 1994\12 Concerto Grosso Op.3, No.12 C Major, 3. Allegro.wav
Пиковый уровень 50.1 % Скорость извлечения 2.0 X Качество трека 99.9 % CRC теста 85E993F9 CRC копии 85E993F9 Точное извлечение (достоверность 16) [65D46436] (AR v2) Копирование... OK
Трек 13
Имя файла R:\Раздача 42\Corelli,Albinoni, Scarlatti, Manfredini, Locatelli - 1994\13 Concerto Grosso Op.1, No.8 F Minor, 1. Largo-Grave.wav
Длина предзазора 0:00:08.43
Пиковый уровень 43.1 % Скорость извлечения 2.8 X Качество трека 100.0 % CRC теста 303525F6 CRC копии 303525F6 Точное извлечение (достоверность 16) [7E794572] (AR v2) Копирование... OK
Трек 14
Имя файла R:\Раздача 42\Corelli,Albinoni, Scarlatti, Manfredini, Locatelli - 1994\14 Concerto Grosso Op.1, No.8 F Minor, 2. Vivace.wav
Пиковый уровень 49.9 % Скорость извлечения 1.9 X Качество трека 99.8 % CRC теста D4528F5B CRC копии D4528F5B Точное извлечение (достоверность 16) [A27E864A] (AR v2) Копирование... OK
Трек 15
Имя файла R:\Раздача 42\Corelli,Albinoni, Scarlatti, Manfredini, Locatelli - 1994\15 Concerto Grosso Op.1, No.8 F Minor, 3. Largo Andante.wav
Пиковый уровень 67.8 % Скорость извлечения 2.9 X Качество трека 100.0 % CRC теста B2789042 CRC копии B2789042 Точное извлечение (достоверность 16) [7D1C9569] (AR v2) Копирование... OK
Трек 16
Имя файла R:\Раздача 42\Corelli,Albinoni, Scarlatti, Manfredini, Locatelli - 1994\16 Concerto Grosso Op.1, No.8 F Minor, 4. Andante.wav
Пиковый уровень 56.8 % Скорость извлечения 3.1 X Качество трека 100.0 % CRC теста B7ECADA7 CRC копии B7ECADA7 Точное извлечение (достоверность 16) [F0C4115E] (AR v2) Копирование... OK
Трек 17
Имя файла R:\Раздача 42\Corelli,Albinoni, Scarlatti, Manfredini, Locatelli - 1994\17 Concerto Grosso Op.1, No.8 F Minor, 5. Pastorale. Largo-Andante.wav
Пиковый уровень 60.6 % Скорость извлечения 2.5 X Качество трека 99.9 % CRC теста 82E76F7A CRC копии 82E76F7A Точное извлечение (достоверность 16) [8B86C76D] (AR v2) Копирование... OK
Трек 18
Имя файла R:\Раздача 42\Corelli,Albinoni, Scarlatti, Manfredini, Locatelli - 1994\18 Sonata In G Major.wav
Длина предзазора 0:00:06.03
Пиковый уровень 64.9 % Скорость извлечения 3.6 X Качество трека 100.0 % CRC теста 7598920A CRC копии 7598920A Точное извлечение (достоверность 15) [229909F7] (AR v2) Копирование... OK
Трек 19
Имя файла R:\Раздача 42\Corelli,Albinoni, Scarlatti, Manfredini, Locatelli - 1994\19 Concerto Grosso Op.6, No.4 D Major, 1. Adagio-Allegro.wav
Длина предзазора 0:00:04.13
Пиковый уровень 32.0 % Скорость извлечения 3.4 X Качество трека 100.0 % CRC теста 2B9E3348 CRC копии 2B9E3348 Точное извлечение (достоверность 16) [39EB5CDF] (AR v2) Копирование... OK
Трек 20
Имя файла R:\Раздача 42\Corelli,Albinoni, Scarlatti, Manfredini, Locatelli - 1994\20 Concerto Grosso Op.6, No.4 D Major, 2. Adagio-Vivace.wav
Длина предзазора 0:00:04.05
Пиковый уровень 10.3 % Скорость извлечения 3.3 X Качество трека 100.0 % CRC теста 6A87AD31 CRC копии 6A87AD31 Точное извлечение (достоверность 16) [F667A236] (AR v2) Копирование... OK
Трек 21
Имя файла R:\Раздача 42\Corelli,Albinoni, Scarlatti, Manfredini, Locatelli - 1994\21 Concerto Grosso Op.6, No.4 D Major, 3. Allegro.wav
Длина предзазора 0:00:02.10
Пиковый уровень 34.1 % Скорость извлечения 1.1 X Качество трека 99.7 % CRC теста 50FC0AC2 CRC копии 50FC0AC2 Точное извлечение (достоверность 16) [45D9CCBF] (AR v2) Копирование... OK
Трек 22
Имя файла R:\Раздача 42\Corelli,Albinoni, Scarlatti, Manfredini, Locatelli - 1994\22 Concerto Grosso Op.6, No.4 D Major, 4. Allegro.wav
Длина предзазора 0:00:01.65
Пиковый уровень 45.7 % Скорость извлечения 3.5 X Качество трека 100.0 % CRC теста 499F9A0D CRC копии 499F9A0D Точное извлечение (достоверность 16) [6F578FBF] (AR v2) Копирование... OK
Все треки извлечены точно
Ошибок не произошло
Конец отчёта
==== Контрольная сумма отчёта 85FE7684671C4B12AE5020B81A1F1FB0D84F41D7FFC14618F8D8F980742189D0 ====

Содержание индексной карты (.CUE)

REM GENRE ClassicalREM DATE 1994REM DISCID 2B0F4D16REM COMMENT "ExactAudioCopy v1.0b3"CATALOG 0000000000000PERFORMER "VA"TITLE "Corelli, Albinoni, Scarlatti, Manfredini, Locatelli"FILE "01 Concerto Grosso Op.6, No.8 G Minor, 1. Vivace Grave.wav" WAVE TRACK 01 AUDIO TITLE "Concerto Grosso Op.6, No.8 G Minor, 1. Vivace Grave" PERFORMER "VA" INDEX 01 00:00:00FILE "02 Concerto Grosso Op.6, No.8 G Minor, 2. Allegro.wav" WAVE TRACK 02 AUDIO TITLE "Concerto Grosso Op.6, No.8 G Minor, 2. Allegro" PERFORMER "VA" INDEX 01 00:00:00FILE "03 Concerto Grosso Op.6, No.8 G Minor, 3. Adagio-Allegro.wav" WAVE TRACK 03 AUDIO TITLE "Concerto Grosso Op.6, No.8 G Minor, 3. Adagio-Allegro" PERFORMER "VA" INDEX 01 00:00:00FILE "04 Concerto Grosso Op.6, No.8 G Minor, 4. Vivace.wav" WAVE TRACK 04 AUDIO TITLE "Concerto Grosso Op.6, No.8 G Minor, 4. Vivace" PERFORMER "VA" INDEX 01 00:00:00FILE "05 Concerto Grosso Op.6, No.8 G Minor, 5. Allegro-Largo (Pastorale).wav" WAVE TRACK 05 AUDIO TITLE "Concerto Grosso Op.6, No.8 G Minor, 5. Allegro-Largo (Pastorale)" PERFORMER "VA" INDEX 01 00:00:00 TRACK 06 AUDIO TITLE "Concerto A Cinque In B Flat Major, 1 Allegro Moderato" PERFORMER "VA" INDEX 00 05:53:18FILE "06 Concerto A Cinque In B Flat Major, 1 Allegro Moderato.wav" WAVE INDEX 01 00:00:00 TRACK 07 AUDIO TITLE "Concerto A Cinque In B Flat Major, 2. Adagio" PERFORMER "VA" INDEX 00 03:29:67FILE "07 Concerto A Cinque In B Flat Major, 2. Adagio.wav" WAVE INDEX 01 00:00:00 TRACK 08 AUDIO TITLE "Concerto A Cinque In B Flat Major, 3. Allegro Vivace" PERFORMER "VA" INDEX 00 01:29:15FILE "08 Concerto A Cinque In B Flat Major, 3. Allegro Vivace.wav" WAVE INDEX 01 00:00:00 TRACK 09 AUDIO TITLE "Sonata F Minor" PERFORMER "VA" INDEX 00 01:29:40FILE "09 Sonata F Minor.wav" WAVE INDEX 01 00:00:00 TRACK 10 AUDIO TITLE "Concerto Grosso Op.3, No.12 C Major, 1. Largo (Pastorale)" PERFORMER "VA" INDEX 00 06:06:47FILE "10 Concerto Grosso Op.3, No.12 C Major, 1. Largo (Pastorale).wav" WAVE INDEX 01 00:00:00FILE "11 Concerto Grosso Op.3, No.12 C Major, 2. Largo.wav" WAVE TRACK 11 AUDIO TITLE "Concerto Grosso Op.3, No.12 C Major, 2. Largo" PERFORMER "VA" INDEX 01 00:00:00FILE "12 Concerto Grosso Op.3, No.12 C Major, 3. Allegro.wav" WAVE TRACK 12 AUDIO TITLE "Concerto Grosso Op.3, No.12 C Major, 3. Allegro" PERFORMER "VA" INDEX 01 00:00:00 TRACK 13 AUDIO TITLE "Concerto Grosso Op.1, No.8 F Minor, 1. Largo-Grave" PERFORMER "VA" INDEX 00 02:11:62FILE "13 Concerto Grosso Op.1, No.8 F Minor, 1. Largo-Grave.wav" WAVE INDEX 01 00:00:00FILE "14 Concerto Grosso Op.1, No.8 F Minor, 2. Vivace.wav" WAVE TRACK 14 AUDIO TITLE "Concerto Grosso Op.1, No.8 F Minor, 2. Vivace" PERFORMER "VA" INDEX 01 00:00:00FILE "15 Concerto Grosso Op.1, No.8 F Minor, 3. Largo Andante.wav" WAVE TRACK 15 AUDIO TITLE "Concerto Grosso Op.1, No.8 F Minor, 3. Largo Andante" PERFORMER "VA" INDEX 01 00:00:00FILE "16 Concerto Grosso Op.1, No.8 F Minor, 4. Andante.wav" WAVE TRACK 16 AUDIO TITLE "Concerto Grosso Op.1, No.8 F Minor, 4. Andante" PERFORMER "VA" INDEX 01 00:00:00FILE "17 Concerto Grosso Op.1, No.8 F Minor, 5. Pastorale. Largo-Andante.wav" WAVE TRACK 17 AUDIO TITLE "Concerto Grosso Op.1, No.8 F Minor, 5. Pastorale. Largo-Andante" PERFORMER "VA" INDEX 01 00:00:00 TRACK 18 AUDIO TITLE "Sonata In G Major" PERFORMER "VA" INDEX 00 03:12:35FILE "18 Sonata In G Major.wav" WAVE INDEX 01 00:00:00 TRACK 19 AUDIO TITLE "Concerto Grosso Op.6, No.4 D Major, 1. Adagio-Allegro" PERFORMER "VA" INDEX 00 05:57:62FILE "19 Concerto Grosso Op.6, No.4 D Major, 1. Adagio-Allegro.wav" WAVE INDEX 01 00:00:00 TRACK 20 AUDIO TITLE "Concerto Grosso Op.6, No.4 D Major, 2. Adagio-Vivace" PERFORMER "VA" INDEX 00 02:49:70FILE "20 Concerto Grosso Op.6, No.4 D Major, 2. Adagio-Vivace.wav" WAVE INDEX 01 00:00:00 TRACK 21 AUDIO TITLE "Concerto Grosso Op.6, No.4 D Major, 3. Allegro" PERFORMER "VA" INDEX 00 02:41:10FILE "21 Concerto Grosso Op.6, No.4 D Major, 3. Allegro.wav" WAVE INDEX 01 00:00:00 TRACK 22 AUDIO TITLE "Concerto Grosso Op.6, No.4 D Major, 4. Allegro" PERFORMER "VA" INDEX 00 01:09:12FILE "22 Concerto Grosso Op.6, No.4 D Major, 4. Allegro.wav" WAVE INDEX 01 00:00:00
[teatrix.ru].t9683.torrent 
Торрент: Зарегистрирован [ 2015-10-23 17:11 ] · 813BFEEED3F98B4DBE00FAE2ED759AF873CB3C08

Скачать .torrent

Скачать

14 KB

Статус: проверено
Скачан: 1 раз
Размер: 292 MB
terms.php



Быстрый ответ

Имя:

      
Для отправки сообщений необходимо включить JavaScript
Показать сообщения:    

Текущее время: 20-Янв 14:58

Часовой пояс: UTC + 3


Вы можете начинать темы
Вы можете отвечать на сообщения
Вы не можете редактировать свои сообщения
Вы не можете удалять свои сообщения
Вы не можете голосовать в опросах
Вы не можете прикреплять файлы к сообщениям
Вы можете скачивать файлы