(Concerto) Debra Richtmeyer - Extravaganza for Saxophone and Orchestra: R.Strauss • D.Ott • А.Глазунов • С.Рахманинов (Slovak Radio Orchestra - K.Trevor) - 2003, FLAC (image+.cue) lossless


Статистика раздачи [Обновить пиров]
Размер:  324 MB   |    Зарегистрирован:  1 год 1 месяц   |    Скачан:  1 раз

Полного источника не было: 12 дней

Личеров:  4  [  0 KB/s  ]   Подробная статистика пиров
 
   
 
 
 

[Цитировать]

EXTRAVAGANZA FOR
SAXOPHONE AND ORCHESTRA

Debra Richtmeyer, Alto and Soprano Saxophones
-
-
- Жанр: Concerto
Страна-производитель диска: USA
Год издания диска: 2003
Издатель (лейбл): Albany
Дата записи: 1993
Аудиокодек: FLAC
Тип рипа: image+.cue
Битрейт аудио: lossless
Продолжительность: 66'04''
Источник: собственный рип
Наличие сканов в содержимом раздачи: да
Треклист:
Richard Strauss - Oboe Concerto:
[01]I. Allegro moderato
[02] II. Andante
[03] III. Vivace
David Ott - Concerto for Alto Saxophone and Orchestra:
[04] I. Allegro
[05] II. Andante cantabile
[06] III. Allegro
Alexander Glazunov
[07] Concerto for Alto Saxophone and Orchestra
Sergei Rachmaninov
[08] Vocalise
Исполнители:
Debra Richtmeyer - alto and soprano saxophone
Slovak Radio Orchestra - Kirk Trevor-

Лог создания рипа

Exact Audio Copy V1.0 beta 3 from 29. August 2011
EAC extraction logfile from 10. March 2014, 23:53
Debra Richtmeyer; Slovak Radio Orchestra - K.Trevor / Extravaganza for Saxophone and Orchestra
Used drive : PHILIPS CDRW1610A Adapter: 0 ID: 0
Read mode : SecureUtilize accurate stream : YesDefeat audio cache : YesMake use of C2 pointers : No
Read offset correction : 733Overread into Lead-In and Lead-Out : NoFill up missing offset samples with silence : YesDelete leading and trailing silent blocks : NoNull samples used in CRC calculations : YesUsed interface : Native Win32 interface for Win NT & 2000
Used output format : User Defined EncoderSelected bitrate : 1024 kBit/sQuality : HighAdd ID3 tag : NoCommand line compressor : C:\Program Files\FLAC\flac.exeAdditional command line options : -T"COMMENT=rip by el coronel" -8 -V %source%
TOC of the extracted CD
Track | Start | Length | Start sector | End sector --------------------------------------------------------- 1 | 0:00.00 | 8:18.66 | 0 | 37415 2 | 8:18.66 | 8:05.66 | 37416 | 73856 3 | 16:24.57 | 7:08.62 | 73857 | 106018 4 | 23:33.44 | 10:26.45 | 106019 | 153013 5 | 34:00.14 | 5:15.01 | 153014 | 176639 6 | 39:15.15 | 7:32.00 | 176640 | 210539 7 | 46:47.15 | 13:55.47 | 210540 | 273211 8 | 60:42.62 | 5:21.09 | 273212 | 297295
Range status and errors
Selected range
Filename D:\Debra Richtmeyer - Extravaganza for Saxophone and Orchestra.wav
Peak level 100.0 % Extraction speed 8.4 X Range quality 100.0 % Test CRC 8810643A Copy CRC 8810643A Copy OK
No errors occurred
End of status report
==== Log checksum C03F82C93C6C65D8DB5747369D71397489C2DC3B80FA56D2F6B7D8ED3E4952A7 ====

Содержание индексной карты (.CUE)

REM GENRE ClassicalREM DATE 2003REM DISCID 660F7B08REM COMMENT "ExactAudioCopy v1.0b3"PERFORMER "Debra Richtmeyer; Slovak Radio Orchestra - K.Trevor"TITLE "Extravaganza for Saxophone and Orchestra"FILE "Debra Richtmeyer - Extravaganza for Saxophone and Orchestra.flac" WAVE TRACK 01 AUDIO TITLE "R.Strauss - Oboe Concerto: I. Allegro moderato" PERFORMER "Debra Richtmeyer; Slovak Radio Orchestra - K.Trevor" INDEX 01 00:00:00 TRACK 02 AUDIO TITLE "II. Andante" PERFORMER "Debra Richtmeyer; Slovak Radio Orchestra - K.Trevor" INDEX 01 08:18:66 TRACK 03 AUDIO TITLE "III. Vivace" PERFORMER "Debra Richtmeyer; Slovak Radio Orchestra - K.Trevor" INDEX 01 16:24:57 TRACK 04 AUDIO TITLE "D.Ott - Concerto for Alto Saxophone and Orchestra: I. Allegro" PERFORMER "Debra Richtmeyer; Slovak Radio Orchestra - K.Trevor" INDEX 01 23:33:44 TRACK 05 AUDIO TITLE "II. Andante cantabile" PERFORMER "Debra Richtmeyer; Slovak Radio Orchestra - K.Trevor" INDEX 01 34:00:14 TRACK 06 AUDIO TITLE "III. Allegro deciso" PERFORMER "Debra Richtmeyer; Slovak Radio Orchestra - K.Trevor" INDEX 01 39:15:15 TRACK 07 AUDIO TITLE "A.Glazunov - Concerto for Alto Saxophone and Orchestra" PERFORMER "Debra Richtmeyer; Slovak Radio Orchestra - K.Trevor" INDEX 01 46:47:15 TRACK 08 AUDIO TITLE "S.Rachmaninov - Vocalise" PERFORMER "Debra Richtmeyer; Slovak Radio Orchestra - K.Trevor" INDEX 01 60:42:62
-Доп. информация: При всём (кажущемся) желании составителей сборника убедить слушателя, что самым экстравагантным сочинением здесь является Концерт Д.Отта, я бы таковым назвал причудливый Гобойный концерт Рихарда Штраусса: этакая дикая смесь Моцарта, Шумана, Брамса и Малера.
[teatrix.ru].t9684.torrent 
Торрент: Зарегистрирован [ 2015-10-23 17:11 ] · 39E044703BFF34BC257FCFAB27CB2D9B17140FCB

Скачать .torrent

Скачать

14 KB

Статус: проверено
Скачан: 1 раз
Размер: 324 MB
terms.php



Быстрый ответ

Имя:

      
Для отправки сообщений необходимо включить JavaScript
Показать сообщения:    

Текущее время: 10-Дек 15:48

Часовой пояс: UTC + 3


Вы можете начинать темы
Вы можете отвечать на сообщения
Вы не можете редактировать свои сообщения
Вы не можете удалять свои сообщения
Вы не можете голосовать в опросах
Вы не можете прикреплять файлы к сообщениям
Вы можете скачивать файлы