(Classical) Prelude, Fnugg & Riffs - Works for Tuba and Wind Orchestra: Bernstein, Baadsvik, Диев, Turnage, Nelson, Högberg (Hogberg) - Oystein Baadsvik, Swedish Wind Ensemble, Christian Lindberg - 2007, FLAC (image+.cue) lossless


Статистика раздачи [Обновить пиров]
Размер:  232 MB   |    Зарегистрирован:  1 год 1 месяц   |    Скачан:  0 раз

Полного источника не было: Никогда

Личеров:  4  [  0 KB/s  ]   Подробная статистика пиров
 
   
 
 
 

[Цитировать]

Prelude, Fnugg & Riffs - Works for Tuba and Wind Orchestra: Bernstein, Baadsvik, Диев, Turnage, Nelson, Högberg - Øystein Baadsvik, Swedish Wind Ensemble, Christian Lindberg
Жанр: Classical
Страна-производитель диска: Sweden
Год издания диска: 2007
Издатель (лейбл): BIS
Номер по каталогу: BIS-CD-1625
Дата записи: 2006
Аудиокодек: FLAC
Тип рипа: image+.cue
Битрейт аудио: lossless
Продолжительность: 57:33
Источник: собственный рип
Наличие сканов в содержимом раздачи: да
Треклист:
Leonard Bernstein (1918–90)
[1]-[3] Prelude, Fugue and Riffs
for solo clarinet and jazz ensemble
Øystein Baadsvik (b. 1966) / Svein H. Giske (b. 1973)
[4] Fnugg Blue
for tuba and wind orchestra
Борис Диев (1924-2008)
[5] Concerto for Tuba and Wind Orchestra
Mark-Anthony Turnage (b. 1960)
[6] A Quick Blast
for wind, brass and percussion
Fredrik Högberg (b. 1971)
[7] Trolltuba
for tuba and wind orchestra
Daniel Nelson (b. 1965)
[8]-[14] Metallëphônic Remix
for tuba and wind ensemble
Исполнители:
Øystein Baadsvik tuba
Swedish Wind Ensemble
Christian Lindberg
conductor

Лог создания рипа

Exact Audio Copy V1.0 beta 3 from 29. August 2011
EAC extraction logfile from 26. March 2015, 0:07
Oystein Baadsvik, Swedish Wind Ensemble, Christian Lindberg / Prelude, Fugue and Riffs
Used drive : HL-DT-STDVDRAM GU70N Adapter: 0 ID: 0
Read mode : SecureUtilize accurate stream : YesDefeat audio cache : YesMake use of C2 pointers : No
Read offset correction : 48Overread into Lead-In and Lead-Out : NoFill up missing offset samples with silence : YesDelete leading and trailing silent blocks : NoNull samples used in CRC calculations : YesUsed interface : Native Win32 interface for Win NT & 2000
Used output format : User Defined EncoderSelected bitrate : 128 kBit/sQuality : HighAdd ID3 tag : NoCommand line compressor : C:\Program Files (x86)\Exact Audio Copy\Flac\flac.exeAdditional command line options : -V -8 -T "Date=%year%" -T "Genre=%genre%" %source%
TOC of the extracted CD
Track | Start | Length | Start sector | End sector --------------------------------------------------------- 1 | 0:00.00 | 1:45.31 | 0 | 7905 2 | 1:45.31 | 1:42.46 | 7906 | 15601 3 | 3:28.02 | 4:03.33 | 15602 | 33859 4 | 7:31.35 | 8:09.33 | 33860 | 70567 5 | 15:40.68 | 9:20.16 | 70568 | 112583 6 | 25:01.09 | 8:11.74 | 112584 | 149482 7 | 33:13.08 | 8:03.45 | 149483 | 185752 8 | 41:16.53 | 2:17.08 | 185753 | 196035 9 | 43:33.61 | 1:08.28 | 196036 | 201163 10 | 44:42.14 | 2:59.45 | 201164 | 214633 11 | 47:41.59 | 4:54.18 | 214634 | 236701 12 | 52:36.02 | 1:29.12 | 236702 | 243388 13 | 54:05.14 | 0:31.51 | 243389 | 245764 14 | 54:36.65 | 2:56.74 | 245765 | 259038
Range status and errors
Selected range
Filename C:\temp\BIS-CD-1625 - Prelude, Fnugg and Riffs - Baadsvik\Prelude, Fugue and Riffs.wav
Peak level 99.9 % Extraction speed 5.0 X Range quality 100.0 % Test CRC 988AD435 Copy CRC 988AD435 Copy OK
No errors occurred
AccurateRip summary
Track 1 accurately ripped (confidence 2) [1C2524EC] (AR v2)Track 2 accurately ripped (confidence 2) [ADFA19A6] (AR v2)Track 3 accurately ripped (confidence 2) [CEE4F234] (AR v2)Track 4 accurately ripped (confidence 2) [5F96D57D] (AR v2)Track 5 accurately ripped (confidence 2) [9F7D66AE] (AR v2)Track 6 accurately ripped (confidence 2) [9AEBE024] (AR v2)Track 7 accurately ripped (confidence 2) [E36B0EF7] (AR v2)Track 8 accurately ripped (confidence 2) [CE15C7F4] (AR v2)Track 9 accurately ripped (confidence 2) [91EA07DF] (AR v2)Track 10 accurately ripped (confidence 2) [A77C34B8] (AR v2)Track 11 accurately ripped (confidence 2) [458196ED] (AR v2)Track 12 accurately ripped (confidence 2) [422337C6] (AR v2)Track 13 accurately ripped (confidence 2) [7B6823FF] (AR v2)Track 14 accurately ripped (confidence 2) [5BED2491] (AR v2)
All tracks accurately ripped
End of status report
==== Log checksum 851F745E9048A9E9D8829910193F3B0A08E393E4D86C4C7F3EE65105D055A83D ====
[teatrix.ru].t9685.torrent 
Торрент: Зарегистрирован [ 2015-10-23 17:11 ] · BE3CD447B6999917F072B1F511ACE1C24819606D

Скачать .torrent

Скачать

37 KB

Статус: проверено
Скачан: 0 раз
Размер: 232 MB
terms.php



Быстрый ответ

Имя:

      
Для отправки сообщений необходимо включить JavaScript
Показать сообщения:    

Текущее время: 04-Дек 13:10

Часовой пояс: UTC + 3


Вы можете начинать темы
Вы можете отвечать на сообщения
Вы не можете редактировать свои сообщения
Вы не можете удалять свои сообщения
Вы не можете голосовать в опросах
Вы не можете прикреплять файлы к сообщениям
Вы можете скачивать файлы