(Classical) French Trumpet Concertos: Tomasi, Jolivet, Planel, Desenclos - Ole Edvard Antonsen, Sao Paulo Symphony Orchestra, Lan Shui - 2013, FLAC (image+.cue) lossless


Статистика раздачи [Обновить пиров]
Размер:  269 MB   |    Зарегистрирован:  1 год 1 месяц   |    Скачан:  2 раза

Полного источника не было: 3 месяца 3 дня

Личеров:  4  [  0 KB/s  ]   Подробная статистика пиров
 
   
 
 
 

[Цитировать]

French Trumpet Concertos: Tomasi, Jolivet, Planel, Desenclos - Ole Edvard Antonsen, São Paulo Symphony Orchestra, Lan Shui
Жанр: Classical
Страна-производитель диска: Sweden
Год издания диска: 2013
Издатель (лейбл): BIS
Номер по каталогу: BIS-SACD-1778
Дата записи: 2010
Аудиокодек: FLAC
Тип рипа: image+.cue
Битрейт аудио: lossless
Продолжительность: 71:32
Источник: собственный рип
Наличие сканов в содержимом раздачи: да
Треклист:
Henri Tomasi (1901-1971)
[1]-[3] Concerto pour trompette et orchestre (1944)
André Jolivet (1905-1974)
[4] Concertino pour trompette, orchestre à cordes et piano (1948)
Olga Kopylova piano
Robert Planel (1908–1994)
[5]-[7] Concerto pour trompette et orchestre à cordes (1966)
André Jolivet
[8]-[10] IIe Concerto pour trompette (1954)
Alfred Desenclos (1912–71)
[11]-[13] Incantation, thrène et danse pour trompette et orchestre (1953)
Исполнители:
Ole Edvard Antonsen trumpet
São Paulo Symphony Orchestra (OSESP)
Lan Shui
conductor

Лог создания рипа

Exact Audio Copy V1.0 beta 3 from 29. August 2011
EAC extraction logfile from 12. December 2014, 1:48
Ole Edvard Antonsen, OSESP, Lan Shui / French Trumpet Concertos
Used drive : HL-DT-STDVDRAM GU70N Adapter: 0 ID: 0
Read mode : SecureUtilize accurate stream : YesDefeat audio cache : YesMake use of C2 pointers : No
Read offset correction : 48Overread into Lead-In and Lead-Out : NoFill up missing offset samples with silence : YesDelete leading and trailing silent blocks : NoNull samples used in CRC calculations : YesUsed interface : Native Win32 interface for Win NT & 2000
Used output format : User Defined EncoderSelected bitrate : 128 kBit/sQuality : HighAdd ID3 tag : NoCommand line compressor : C:\Program Files (x86)\Exact Audio Copy\Flac\flac.exeAdditional command line options : -V -8 -T "Date=%year%" -T "Genre=%genre%" %source%
TOC of the extracted CD
Track | Start | Length | Start sector | End sector --------------------------------------------------------- 1 | 0:00.00 | 7:56.27 | 0 | 35726 2 | 7:56.27 | 5:01.52 | 35727 | 58353 3 | 12:58.04 | 3:14.14 | 58354 | 72917 4 | 16:12.18 | 9:54.15 | 72918 | 117482 5 | 26:06.33 | 5:00.12 | 117483 | 139994 6 | 31:06.45 | 4:37.11 | 139995 | 160780 7 | 35:43.56 | 5:41.35 | 160781 | 186390 8 | 41:25.16 | 5:01.69 | 186391 | 209034 9 | 46:27.10 | 3:59.44 | 209035 | 227003 10 | 50:26.54 | 4:09.73 | 227004 | 245751 11 | 54:36.52 | 2:54.03 | 245752 | 258804 12 | 57:30.55 | 5:23.50 | 258805 | 283079 13 | 62:54.30 | 8:37.55 | 283080 | 321909
Range status and errors
Selected range
Filename C:\temp\BIS-SACD-1778 - French Trumpet Concertos (Antonsen, Sao Paulo SO, Lan Shui)\French Trumpet Concertos.wav
Peak level 99.8 % Extraction speed 2.3 X Range quality 100.0 % Test CRC B3C4AED9 Copy CRC B3C4AED9 Copy OK
No errors occurred
AccurateRip summary
Track 1 accurately ripped (confidence 4) [8FD0EEC4] (AR v2)Track 2 accurately ripped (confidence 4) [C2920621] (AR v2)Track 3 accurately ripped (confidence 4) [226C7DFB] (AR v2)Track 4 accurately ripped (confidence 4) [31A613AC] (AR v2)Track 5 accurately ripped (confidence 4) [6386E960] (AR v2)Track 6 accurately ripped (confidence 4) [7B2633E1] (AR v2)Track 7 accurately ripped (confidence 4) [8F288731] (AR v2)Track 8 accurately ripped (confidence 4) [44085A86] (AR v2)Track 9 accurately ripped (confidence 4) [26B22CBF] (AR v2)Track 10 accurately ripped (confidence 4) [36D9A441] (AR v2)Track 11 accurately ripped (confidence 4) [C841D1D8] (AR v2)Track 12 accurately ripped (confidence 4) [FA60FD0A] (AR v2)Track 13 accurately ripped (confidence 4) [D389CAD4] (AR v2)
All tracks accurately ripped
End of status report
==== Log checksum 1B798FCB07312586AFA6A33C8512FA4A8A58C0FA9BA26B802601B78074801BE6 ====
[teatrix.ru].t9686.torrent 
Торрент: Зарегистрирован [ 2015-10-23 17:11 ] · 11DAA68674D1E46ABE0F2FAFD7726F00D3E8D623

Скачать .torrent

Скачать

22 KB

Статус: проверено
Скачан: 2 раз
Размер: 269 MB
terms.php



Быстрый ответ

Имя:

      
Для отправки сообщений необходимо включить JavaScript
Показать сообщения:    

Текущее время: 08-Дек 09:06

Часовой пояс: UTC + 3


Вы можете начинать темы
Вы можете отвечать на сообщения
Вы не можете редактировать свои сообщения
Вы не можете удалять свои сообщения
Вы не можете голосовать в опросах
Вы не можете прикреплять файлы к сообщениям
Вы можете скачивать файлы