(Concerto) Jacques Ibert - Concertos for Saxophone, Cello & Oboe / Жак Ибер - Концерты (Gary Louie, Nathaniel Rosen, Humbert Lucarell, Manhattan Chamber Orchestra, Richard Auldon Clark) - 1996, FLAC (tracks+.cue) lossless


Статистика раздачи [Обновить пиров]
Размер:  272 MB   |    Зарегистрирован:  1 год 1 месяц   |    Скачан:  0 раз

Полного источника не было: Никогда

Личеров:  4  [  0 KB/s  ]   Подробная статистика пиров
 
   
 
 
 

[Цитировать]

Jacques Ibert - Oeuvres Variées concertos pour saxophone, violoncelle et hautbois
Жанр: Concerto
Страна-производитель диска: USA
Год издания диска: 1996
Издатель (лейбл): Newport Classic
Номер по каталогу: 85598
Дата записи: 1995
Аудиокодек: FLAC
Тип рипа: tracks+.cue
Битрейт аудио: lossless
Продолжительность: 68:59
Источник: скачано с
Наличие сканов в содержимом раздачи: да
Треклист:
Jacques IBERT (1890–1962)
Concertino da Camera for Alto Saxophone & 11 Instruments (1933)
I. Allegro Con Moto (4:15)
II. Larghetto (7:46)
Concerto for Cello & 10 Wind Instruments (1925)
I. Pastorale (3:53)
II. Romance (4:56)
III. Gigue (5:06)
Divertissement for orchestra (1930)
I. Introduction (1:21)
II. Cortege (4:45)
III. Nocturne (2:50)
IV. Valse (2:53)
V. Parade (1:35)
VI. Finale (1:53)
Symphonie Concertante for Oboe & Strings (1948-49)
I. Allegro Con Moto (9:57)
II. Adagio, Ma Non Troppo (9:51)
III. Allegro Brilliante (7:58)
Исполнители:
Gary Louie, saxophone
Nathaniel Rosen, cello
Humbert Lucarelli, oboe
Manhattan Chamber Orchestra
Richard Auldon Clark, conductor

Лог создания рипа

Exact Audio Copy V1.0 beta 4 from 7. December 2014
EAC extraction logfile from 28. January 2015, 7:14
Jacques Ibert / Oeuvres Variees
Used drive : TSSTcorpCDDVDW SN-208DN Adapter: 1 ID: 0
Read mode : SecureUtilize accurate stream : YesDefeat audio cache : YesMake use of C2 pointers : No
Read offset correction : 6Overread into Lead-In and Lead-Out : NoFill up missing offset samples with silence : YesDelete leading and trailing silent blocks : NoNull samples used in CRC calculations : YesUsed interface : Native Win32 interface for Win NT & 2000Gap handling : Appended to previous track
Used output format : User Defined EncoderSelected bitrate : 128 kBit/sQuality : HighAdd ID3 tag : YesCommand line compressor : C:\Program Files (x86)\Exact Audio Copy\FLAC\flac.exeAdditional command line options : -8 -V -T "ARTIST=%artist%" -T "TITLE=%title%" -T "ALBUM=%albumtitle%" -T "DATE=%year%" -T "TRACKNUMBER=%tracknr%" -T "GENRE=%genre%" -T "PERFORMER=%albuminterpret%" -T "COMPOSER=%composer%" %haslyrics%--tag-from-file=LYRICS="%lyricsfile%"%haslyrics% -T "ALBUMARTIST=%albumartist%" -T "DISCNUMBER=%cdnumber%" -T "TOTALDISCS=%totalcds%" -T "TOTALTRACKS=%numtracks%" -T "COMMENT=%comment%" %source% -o %dest%
TOC of the extracted CD
Track | Start | Length | Start sector | End sector --------------------------------------------------------- 1 | 0:00.00 | 4:15.67 | 0 | 19191 2 | 4:15.67 | 7:46.30 | 19192 | 54171 3 | 12:02.22 | 3:53.25 | 54172 | 71671 4 | 15:55.47 | 4:56.35 | 71672 | 93906 5 | 20:52.07 | 5:06.23 | 93907 | 116879 6 | 25:58.30 | 1:21.17 | 116880 | 122971 7 | 27:19.47 | 4:45.55 | 122972 | 144401 8 | 32:05.27 | 2:50.48 | 144402 | 157199 9 | 34:56.00 | 2:53.17 | 157200 | 170191 10 | 37:49.17 | 1:35.23 | 170192 | 177339 11 | 39:24.40 | 1:53.35 | 177340 | 185849 12 | 41:18.00 | 9:57.72 | 185850 | 230696 13 | 51:15.72 | 9:51.70 | 230697 | 275091 14 | 61:07.67 | 7:58.23 | 275092 | 310964
Track 1
Filename C:\rips\Jacques Ibert - Oeuvres Variees\01 - Concertino da Camera, for Alto Saxophone & 11 Instruments (1925) I. Allegro Con Moto.wav
Pre-gap length 0:00:02.00
Peak level 64.3 % Extraction speed 2.3 X Track quality 100.0 % Test CRC 052BADA0 Copy CRC 052BADA0 Track not present in AccurateRip database Copy OK
Track 2
Filename C:\rips\Jacques Ibert - Oeuvres Variees\02 - Concertino da Camera, for Alto Saxophone & 11 Instruments (1925) II. Larghetto.wav
Peak level 60.3 % Extraction speed 2.8 X Track quality 100.0 % Test CRC 00E7471C Copy CRC 00E7471C Track not present in AccurateRip database Copy OK
Track 3
Filename C:\rips\Jacques Ibert - Oeuvres Variees\03 - Concerto for Cello & 10 Wind Instruments (1925) I. Pastorale.wav
Peak level 67.8 % Extraction speed 2.9 X Track quality 100.0 % Test CRC E61BCA71 Copy CRC E61BCA71 Cannot be verified as accurate (confidence 1) [6312E234], AccurateRip returned [CFE8992D] (AR v2) Copy OK
Track 4
Filename C:\rips\Jacques Ibert - Oeuvres Variees\04 - Concerto for Cello & 10 Wind Instruments (1925) II. Romance.wav
Peak level 45.5 % Extraction speed 2.7 X Track quality 99.9 % Test CRC 0BB4507F Copy CRC 0BB4507F Cannot be verified as accurate (confidence 1) [57C57293], AccurateRip returned [76B41A7C] (AR v2) Copy OK
Track 5
Filename C:\rips\Jacques Ibert - Oeuvres Variees\05 - Concerto for Cello & 10 Wind Instruments (1925) III. Gigue.wav
Peak level 75.9 % Extraction speed 3.4 X Track quality 100.0 % Test CRC 7BC81A8D Copy CRC 7BC81A8D Cannot be verified as accurate (confidence 1) [A417C13D], AccurateRip returned [CED62BB5] (AR v2) Copy OK
Track 6
Filename C:\rips\Jacques Ibert - Oeuvres Variees\06 - Divertissement (1930) I. Introduction.wav
Peak level 62.9 % Extraction speed 2.7 X Track quality 100.0 % Test CRC 035D5FA4 Copy CRC 035D5FA4 Track not present in AccurateRip database Copy OK
Track 7
Filename C:\rips\Jacques Ibert - Oeuvres Variees\07 - Divertissement (1930) II. Cortege.wav
Peak level 65.0 % Extraction speed 3.7 X Track quality 100.0 % Test CRC B737C50D Copy CRC B737C50D Track not present in AccurateRip database Copy OK
Track 8
Filename C:\rips\Jacques Ibert - Oeuvres Variees\08 - Divertissement (1930) III. Nocturne.wav
Peak level 7.5 % Extraction speed 2.6 X Track quality 99.9 % Test CRC 4AE8A5CB Copy CRC 4AE8A5CB Track not present in AccurateRip database Copy OK
Track 9
Filename C:\rips\Jacques Ibert - Oeuvres Variees\09 - Divertissement (1930) IV. Valse.wav
Peak level 59.9 % Extraction speed 3.6 X Track quality 100.0 % Test CRC 58F5D7E1 Copy CRC 58F5D7E1 Track not present in AccurateRip database Copy OK
Track 10
Filename C:\rips\Jacques Ibert - Oeuvres Variees\10 - Divertissement (1930) V. Parade.wav
Peak level 32.0 % Extraction speed 3.2 X Track quality 100.0 % Test CRC 1A5787B7 Copy CRC 1A5787B7 Track not present in AccurateRip database Copy OK
Track 11
Filename C:\rips\Jacques Ibert - Oeuvres Variees\11 - Divertissement (1930) VI. Finale.wav
Peak level 56.2 % Extraction speed 3.3 X Track quality 100.0 % Test CRC 9719294D Copy CRC 9719294D Track not present in AccurateRip database Copy OK
Track 12
Filename C:\rips\Jacques Ibert - Oeuvres Variees\12 - Symphonie Concertante for Oboe & Strings (1948-49) I. Allegro Con Moto.wav
Peak level 34.6 % Extraction speed 4.1 X Track quality 99.9 % Test CRC 5A5BDFB3 Copy CRC 5A5BDFB3 Cannot be verified as accurate (confidence 1) [648B56F0], AccurateRip returned [D9BFECB8] (AR v2) Copy OK
Track 13
Filename C:\rips\Jacques Ibert - Oeuvres Variees\13 - Symphonie Concertante for Oboe & Strings (1948-49) II. Adagio, Ma Non Troppo.wav
Peak level 28.7 % Extraction speed 4.3 X Track quality 99.9 % Test CRC F8262318 Copy CRC F8262318 Cannot be verified as accurate (confidence 1) [DBF2DBBD], AccurateRip returned [453C86FD] (AR v2) Copy OK
Track 14
Filename C:\rips\Jacques Ibert - Oeuvres Variees\14 - Symphonie Concertante for Oboe & Strings (1948-49) III. Allegro Brilliante.wav
Peak level 34.8 % Extraction speed 5.0 X Track quality 100.0 % Test CRC C23C55A2 Copy CRC C23C55A2 Cannot be verified as accurate (confidence 1) [4ADF0609], AccurateRip returned [F59750C8] (AR v2) Copy OK
6 track(s) could not be verified as accurate 8 track(s) not present in the AccurateRip database
No tracks could be verified as accurateYou may have a different pressing from the one(s) in the database
No errors occurred
End of status report
---- CUETools DB Plugin V2.1.4
[CTDB TOCID: 0R3Vxl2fI6487aVCWgV9HMaJm5g-] foundSubmit result: already submittedTrack | CTDB Status 1 | (1/1) Accurately ripped 2 | (1/1) Accurately ripped 3 | (1/1) Accurately ripped 4 | (1/1) Accurately ripped 5 | (1/1) Accurately ripped 6 | (1/1) Accurately ripped 7 | (1/1) Accurately ripped 8 | (1/1) Accurately ripped 9 | (1/1) Accurately ripped 10 | (1/1) Accurately ripped 11 | (1/1) Accurately ripped 12 | (1/1) Accurately ripped 13 | (1/1) Accurately ripped 14 | (1/1) Accurately ripped
==== Log checksum CD37AB78A77A3D62C77789D016A134A6E6407A8BE48525716C53239E3BCC2B88 ====

Содержание индексной карты (.CUE)

REM GENRE ClassicalREM DATE 1996REM DISCID D010320EREM COMMENT "ExactAudioCopy v1.0b4"FILE "01 - Concertino da Camera, for Alto Saxophone & 11 Instruments (1925) I. Allegro Con Moto.wav" WAVE TRACK 01 AUDIO INDEX 01 00:00:00FILE "02 - Concertino da Camera, for Alto Saxophone & 11 Instruments (1925) II. Larghetto.wav" WAVE TRACK 02 AUDIO INDEX 01 00:00:00FILE "03 - Concerto for Cello & 10 Wind Instruments (1925) I. Pastorale.wav" WAVE TRACK 03 AUDIO INDEX 01 00:00:00FILE "04 - Concerto for Cello & 10 Wind Instruments (1925) II. Romance.wav" WAVE TRACK 04 AUDIO INDEX 01 00:00:00FILE "05 - Concerto for Cello & 10 Wind Instruments (1925) III. Gigue.wav" WAVE TRACK 05 AUDIO INDEX 01 00:00:00FILE "06 - Divertissement (1930) I. Introduction.wav" WAVE TRACK 06 AUDIO INDEX 01 00:00:00FILE "07 - Divertissement (1930) II. Cortege.wav" WAVE TRACK 07 AUDIO INDEX 01 00:00:00FILE "08 - Divertissement (1930) III. Nocturne.wav" WAVE TRACK 08 AUDIO INDEX 01 00:00:00FILE "09 - Divertissement (1930) IV. Valse.wav" WAVE TRACK 09 AUDIO INDEX 01 00:00:00FILE "10 - Divertissement (1930) V. Parade.wav" WAVE TRACK 10 AUDIO INDEX 01 00:00:00FILE "11 - Divertissement (1930) VI. Finale.wav" WAVE TRACK 11 AUDIO INDEX 01 00:00:00FILE "12 - Symphonie Concertante for Oboe & Strings (1948-49) I. Allegro Con Moto.wav" WAVE TRACK 12 AUDIO INDEX 01 00:00:00FILE "13 - Symphonie Concertante for Oboe & Strings (1948-49) II. Adagio, Ma Non Troppo.wav" WAVE TRACK 13 AUDIO INDEX 01 00:00:00FILE "14 - Symphonie Concertante for Oboe & Strings (1948-49) III. Allegro Brilliante.wav" WAVE TRACK 14 AUDIO INDEX 01 00:00:00
Доп. информация: Из 4х концертов Ибера очень популярен Концерт для флейты с оркестром. Также многие саксофонисты с удовольствием исполняют Камерное концертино для саксофона и 11-ти инструментов (1933). Миниатюрный концерт для виолончели и духовых (1925) по-своему интересен, как типичный образчик французской музыки 20х годов. Концертная симфония для гобоя и струнного оркестра (1948-49) - самое масштабное концертное сочинение Ибера, довольно сложное по музыкальному языку. Стилистика Ибера в концертах представляет из себя пикантную смесь из традиций позднего Равеля, музыкантов "Шестёрки", джаза и неоклассицизма.
[teatrix.ru].t9687.torrent 
Торрент: Зарегистрирован [ 2015-10-23 17:11 ] · 411445E3C97CF3426619B9A7E11ABDD69F336D7C

Скачать .torrent

Скачать

13 KB

Статус: проверено
Скачан: 0 раз
Размер: 272 MB
terms.php



Быстрый ответ

Имя:

      
Для отправки сообщений необходимо включить JavaScript
Показать сообщения:    

Текущее время: 09-Дек 12:45

Часовой пояс: UTC + 3


Вы можете начинать темы
Вы можете отвечать на сообщения
Вы не можете редактировать свои сообщения
Вы не можете удалять свои сообщения
Вы не можете голосовать в опросах
Вы не можете прикреплять файлы к сообщениям
Вы можете скачивать файлы