(Classical, Harp, Concerto,) Villa-Lobos - Concerto for harp and orchestra, Meyer - Concerto for harp and chamber orchestra, Debussy - Two dances for harp and string orchestra, Вера Дулова - 2011, FLAC (tracks+.cue) lossless


Статистика раздачи [Обновить пиров]
Размер:  262 MB   |    Зарегистрирован:  1 год 1 месяц   |    Скачан:  0 раз

Полного источника не было: Никогда

Личеров:  4  [  0 KB/s  ]   Подробная статистика пиров
 
   
 
 
 

[Цитировать]

Villa-Lobos, Meyer, Debussy - Concerto for harp and orchestra, Вера Дулова
Жанр: Classical, Harp, Concerto
Страна-производитель диска: Россия
Год издания диска: 2011
Издатель (лейбл): Мелодия
Номер по каталогу: Mel CD 10 01809
Дата записи: 1976, 1948
Аудиокодек: FLAC
Тип рипа: tracks+.cue
Битрейт аудио: lossless
Продолжительность: 01:01:15
Источник: собственный рип
Наличие сканов в содержимом раздачи: да
Треклист:
Heitor Villa-Lobos (1887 - 1959)
Concerto for harp and orchestra in A minor, 1953
1. Allegro 4.45
2. Andante moderato 9.21
3. Scherzo. Allegretto quasi allegro
4. Allegro 16.13
Ernst Hermann Meyer (1905 - 1988)
Concerto for harp and chamber orchestra, 1968
5. 1. Allegro moderato 22.10
5. 2. Notturno. Largetto
5. 3. Finale. Con moto e forza
Claude Debussy (1862 - 1918)
6. Two dances for harp and string orchestra: Danse Sacrée et Danse Profane, 1904 8.39
Исполнители:
Vera Dulova, harp
Orchestra of the State Academic Bolshoi Theatre of the USSR, conductor A.Lazarev

Лог создания рипа

Exact Audio Copy V1.0 beta 3 from 29. August 2011
EAC extraction logfile from 10. March 2015, 12:04
Vera Dulova / Concerto for harp: Villa-Lobos, Meyer, Debussy
Used drive : ASUS DRW-24B3ST Adapter: 2 ID: 1
Read mode : SecureUtilize accurate stream : YesDefeat audio cache : YesMake use of C2 pointers : No
Read offset correction : 6Overread into Lead-In and Lead-Out : NoFill up missing offset samples with silence : YesDelete leading and trailing silent blocks : NoNull samples used in CRC calculations : YesUsed interface : Native Win32 interface for Win NT & 2000Gap handling : Appended to previous track
Used output format : User Defined EncoderSelected bitrate : 128 kBit/sQuality : HighAdd ID3 tag : NoCommand line compressor : J:\Programs\Exact Audio Copy\Flac\flac.exeAdditional command line options : -V -8 -T "Genre=%genre%" -T "Artist=%artist%" -T "Title=%title%" -T "Album=%albumtitle%" -T "Date=%year%" -T "Tracknumber=%tracknr%" -T "Comment=%comment%" %source%
TOC of the extracted CD
Track | Start | Length | Start sector | End sector --------------------------------------------------------- 1 | 0:00.00 | 4:45.66 | 0 | 21440 2 | 4:45.66 | 9:21.62 | 21441 | 63577 3 | 14:07.53 | 16:13.62 | 63578 | 136614 4 | 30:21.40 | 22:10.74 | 136615 | 236438 5 | 52:32.39 | 8:40.44 | 236439 | 275482
Track 1
Filename J:\Torrent\Vera Dulova - Concerto for harp - Villa-Lobos, Meyer, Debussy (2011)\01. Villa-Lobos, Concerto for harp and orchestra- 1. Allegro.wav
Pre-gap length 0:00:02.00
Peak level 98.5 % Extraction speed 3.0 X Track quality 99.9 % Test CRC 149FBD0F Copy CRC 149FBD0F Track not present in AccurateRip database Copy OK
Track 2
Filename J:\Torrent\Vera Dulova - Concerto for harp - Villa-Lobos, Meyer, Debussy (2011)\02. Villa-Lobos, Concerto for harp and orchestra- 2. Andante moderato.wav
Peak level 96.6 % Extraction speed 4.5 X Track quality 100.0 % Test CRC 3C3C4F1A Copy CRC 3C3C4F1A Track not present in AccurateRip database Copy OK
Track 3
Filename J:\Torrent\Vera Dulova - Concerto for harp - Villa-Lobos, Meyer, Debussy (2011)\03. Villa-Lobos, Concerto for harp and orchestra- 3. Scherzo. Allegretto quasi allegro, 4. Allegro.wav
Peak level 95.8 % Extraction speed 5.7 X Track quality 100.0 % Test CRC 293262AF Copy CRC 293262AF Track not present in AccurateRip database Copy OK
Track 4
Filename J:\Torrent\Vera Dulova - Concerto for harp - Villa-Lobos, Meyer, Debussy (2011)\04. Meyer, Concerto for harp and chamber orchestra.wav
Peak level 100.0 % Extraction speed 6.5 X Track quality 99.9 % Test CRC 2AD23D45 Copy CRC 2AD23D45 Track not present in AccurateRip database Copy OK
Track 5
Filename J:\Torrent\Vera Dulova - Concerto for harp - Villa-Lobos, Meyer, Debussy (2011)\05. Debussy, Two dances for harp and string orchestra.wav
Peak level 93.6 % Extraction speed 6.6 X Track quality 99.9 % Test CRC ABC6EB67 Copy CRC ABC6EB67 Track not present in AccurateRip database Copy OK
None of the tracks are present in the AccurateRip database
No errors occurred
End of status report
==== Log checksum 7F0F9B7FC3EBF2BE2DFE23C81E1F420C8005A8541CF1095B41D5EE47E5005A2C ====

Содержание индексной карты (.CUE)

REM GENRE ClassicalREM DATE 1976REM DISCID 430E5905REM COMMENT "ExactAudioCopy v1.0b3"PERFORMER "Vera Dulova "TITLE "Concerto for harp: Villa-Lobos, Meyer, Debussy"FILE "01. Villa-Lobos, Concerto for harp and orchestra- 1. Allegro.wav" WAVE TRACK 01 AUDIO TITLE "Villa-Lobos, Concerto for harp and orchestra: 1. Allegro " PERFORMER "Vera Dulova " INDEX 01 00:00:00FILE "02. Villa-Lobos, Concerto for harp and orchestra- 2. Andante moderato.wav" WAVE TRACK 02 AUDIO TITLE "Villa-Lobos, Concerto for harp and orchestra: 2. Andante moderato " PERFORMER "Vera Dulova " INDEX 01 00:00:00FILE "03. Villa-Lobos, Concerto for harp and orchestra- 3. Scherzo. Allegretto quasi allegro, 4. Allegro.wav" WAVE TRACK 03 AUDIO TITLE "Villa-Lobos, Concerto for harp and orchestra: 3. Scherzo. Allegretto quasi al..." PERFORMER "Vera Dulova " INDEX 01 00:00:00FILE "04. Meyer, Concerto for harp and chamber orchestra.wav" WAVE TRACK 04 AUDIO TITLE "Meyer, Concerto for harp and chamber orchestra " PERFORMER "Vera Dulova " INDEX 01 00:00:00FILE "05. Debussy, Two dances for harp and string orchestra.wav" WAVE TRACK 05 AUDIO TITLE "Debussy, Two dances for harp and string orchestra " PERFORMER "Vera Dulova " INDEX 01 00:00:00
Доп. информация:
Orchestra of the State Academic Bolshoi Theatre of the USSR, conductor A.Lazarev (1-4)
Symphony Orchestra of the All-Union Radio, conductor A. Gauk (5)
Recorded in 1976 (1-3), 1977 (4).
Sound engineer: M. Kozhukhova (1-4)
Track 5: recorded in 1948, restored in 1970 by T. Barenbaum.
[teatrix.ru].t9688.torrent 
Торрент: Зарегистрирован [ 2015-10-23 17:11 ] · ACD1C9D904514BAD29FFC8A28D2C1C3A807923B6

Скачать .torrent

Скачать

12 KB

Статус: проверено
Скачан: 0 раз
Размер: 262 MB
terms.php



Быстрый ответ

Имя:

      
Для отправки сообщений необходимо включить JavaScript
Показать сообщения:    

Текущее время: 07-Дек 21:24

Часовой пояс: UTC + 3


Вы можете начинать темы
Вы можете отвечать на сообщения
Вы не можете редактировать свои сообщения
Вы не можете удалять свои сообщения
Вы не можете голосовать в опросах
Вы не можете прикреплять файлы к сообщениям
Вы можете скачивать файлы