(Classical) Markopoulos - Shapes in Motion; Concerto-Rhapsody; Triptych; Pyrrichios Dance No.13 - Grauwels, Spyridakis, Papatheodorou, Brussels Virtuosi, Brussels Philharmonic, Flanders Opera SO, Tilkin, Abrath - 2009, FLAC (image+.cue) lossless


Статистика раздачи [Обновить пиров]
Размер:  339 MB   |    Зарегистрирован:  1 год 1 месяц   |    Скачан:  0 раз

Полного источника не было: Никогда

Личеров:  3  [  0 KB/s  ]   Подробная статистика пиров
 
   
 
 
 

[Цитировать]

Markopoulos - Shapes in Motion; Concerto-Rhapsody; Triptych; Pyrrichios Dance No.13 - Grauwels, Spyridakis, Papatheodorou, Brussels Virtuosi, Brussels Philharmonic, Flanders Opera SO, Tilkin, Abrath
Жанр: Classical
Год издания диска: 2009
Издатель (лейбл): Naxos
Номер по каталогу: 8.572237
Дата записи: 2003, 2007
Аудиокодек: FLAC
Тип рипа: image+.cue
Битрейт аудио: lossless
Продолжительность: 73:21
Источник: собственный рип
Наличие сканов в содержимом раздачи: да
Треклист:
Yannis Markopoulos (b. 1939)
[1] 24 Pyrrichioi Dances: Pyrrichios Dance No.13, ‘Nemesis’ (2000-2001) 1
[2]-[4] Shapes in Motion (Piano Concerto) (1999) 2
[5]-[7] Triptych for Flute, Strings and Harp (1969, 2001-06) 3
[8]-[10] Concerto-Rhapsody 4
(for cretan lyre and orchestra) (1986)
[11] Little Fantasy (for flute and piano) (2005) 5
[12] Classical Sketches: No. 2. Lamento (1958) 6
[13] Evilia Topia (Sunlit Landscapes) (for solo flute) (2007) 7
Исполнители:
Marc Grauwels flute 1, 3, 5-7
Dimitri Papatheodorou piano 2
Zacharias Spyridakis cretan lyre 4
Dalia Ouziel piano 5
Sophie Hallynck harp 3, 6
Brussels Virtuosi 3, 6
Brussels Philharmonic – The Orchestra of Flanders 1
Flanders Opera Symphony Orchestra 2, 4
Michel Tilkin 1
Edwig Abrath 2, 4
Iannis Leonidakis 3, 6

Лог создания рипа

Exact Audio Copy V1.0 beta 3 from 29. August 2011
EAC extraction logfile from 30. November 2014, 21:30
- / Markopoulos - Shapes in Motion
Used drive : HL-DT-STDVDRAM GU70N Adapter: 0 ID: 0
Read mode : SecureUtilize accurate stream : YesDefeat audio cache : YesMake use of C2 pointers : No
Read offset correction : 48Overread into Lead-In and Lead-Out : NoFill up missing offset samples with silence : YesDelete leading and trailing silent blocks : NoNull samples used in CRC calculations : YesUsed interface : Native Win32 interface for Win NT & 2000
Used output format : User Defined EncoderSelected bitrate : 128 kBit/sQuality : HighAdd ID3 tag : NoCommand line compressor : C:\Program Files (x86)\Exact Audio Copy\Flac\flac.exeAdditional command line options : -V -8 -T "Date=%year%" -T "Genre=%genre%" %source%
TOC of the extracted CD
Track | Start | Length | Start sector | End sector --------------------------------------------------------- 1 | 0:01.00 | 7:18.15 | 75 | 32939 2 | 7:19.15 | 7:34.33 | 32940 | 67022 3 | 14:53.48 | 5:59.15 | 67023 | 93962 4 | 20:52.63 | 7:38.48 | 93963 | 128360 5 | 28:31.36 | 5:59.61 | 128361 | 155346 6 | 34:31.22 | 4:26.66 | 155347 | 175362 7 | 38:58.13 | 4:58.57 | 175363 | 197769 8 | 43:56.70 | 2:51.64 | 197770 | 210658 9 | 46:48.59 | 7:26.26 | 210659 | 244134 10 | 54:15.10 | 5:45.44 | 244135 | 270053 11 | 60:00.54 | 4:29.61 | 270054 | 290289 12 | 64:30.40 | 3:33.45 | 290290 | 306309 13 | 68:04.10 | 5:14.65 | 306310 | 329924
Range status and errors
Selected range
Filename C:\temp\Naxos_8.572237 - Markopoulos - Shapes in Motion\Markopoulos - Shapes in Motion.wav
Peak level 100.0 % Extraction speed 2.3 X Range quality 99.9 % Test CRC AB7A5C34 Copy CRC AB7A5C34 Copy OK
No errors occurred
AccurateRip summary
Track 1 accurately ripped (confidence 3) [82D846D2] (AR v2)Track 2 accurately ripped (confidence 3) [D1BE5DB9] (AR v2)Track 3 accurately ripped (confidence 3) [8C3DC132] (AR v2)Track 4 accurately ripped (confidence 3) [2CDB5BF2] (AR v2)Track 5 accurately ripped (confidence 3) [9D83F633] (AR v2)Track 6 accurately ripped (confidence 3) [BFA2B8B8] (AR v2)Track 7 accurately ripped (confidence 3) [2E9316D7] (AR v2)Track 8 accurately ripped (confidence 3) [1DF47EE4] (AR v2)Track 9 accurately ripped (confidence 3) [29E54DA1] (AR v2)Track 10 accurately ripped (confidence 3) [4E6A726A] (AR v2)Track 11 accurately ripped (confidence 3) [89529258] (AR v2)Track 12 accurately ripped (confidence 3) [FC255757] (AR v2)Track 13 accurately ripped (confidence 3) [DF3FC618] (AR v2)
All tracks accurately ripped
End of status report
==== Log checksum B981E070B180B9E9200E96C0C94B2083AF9B8F678747266552DB528C2762D915 ====
[teatrix.ru].t9689.torrent 
Торрент: Зарегистрирован [ 2015-10-23 17:11 ] · 8A4C7B5B3D8BE0C1FD07FD266AE01AF240667740

Скачать .torrent

Скачать

28 KB

Статус: проверено
Скачан: 0 раз
Размер: 339 MB
terms.php



Быстрый ответ

Имя:

      
Для отправки сообщений необходимо включить JavaScript
Показать сообщения:    

Текущее время: 05-Дек 05:29

Часовой пояс: UTC + 3


Вы можете начинать темы
Вы можете отвечать на сообщения
Вы не можете редактировать свои сообщения
Вы не можете удалять свои сообщения
Вы не можете голосовать в опросах
Вы не можете прикреплять файлы к сообщениям
Вы можете скачивать файлы