Wolfgang Amadeus Mozart Clarinet Concerto KV 622; Symphony No.41 'Jupiter' (Staatskapelle Weimar, George Alexander Albrecht, Ralph Manno) - 1997, FLAC (tracks+.cue) lossless


Статистика раздачи [Обновить пиров]
Размер:  287 MB   |    Зарегистрирован:  1 год 1 месяц   |    Скачан:  0 раз

Полного источника не было: Никогда

Личеров:  3  [  0 KB/s  ]   Подробная статистика пиров
 
   
 
 
 

[Цитировать]

Wolfgang Amadeus Mozart Clarinet Concerto KV 622; Symphony No.41 'Jupiter'
Жанр: Classic
Страна-производитель диска: EC
Год издания диска: 1997
Издатель (лейбл): Arte Nova, BMG
Номер по каталогу: 74321 46495 2
Дата записи: 1996
Аудиокодек: FLAC
Тип рипа: tracks+.cue
Битрейт аудио: lossless
Продолжительность: 65:20
Источник: собственный рип
Наличие сканов в содержимом раздачи: да
Треклист:
Clarinet Concerto in A major KV 622:
1 Allegro - 12:31
2 Adagio - 07:42
3 Rondo. Allegro - 08:50
Symphony No. 41 in C major KV 551 "Jupiter":
4 Allegro vivace - 10:57
5 Andante cantabile - 11:05
6 Menuetto. Allegretto - 04:55
7 Molto allegro - 09:04
Исполнители:
Staatskapelle Weimar
George Alexander Albrecht, conductor
Ralph Manno, clarinet

Лог создания рипа

Exact Audio Copy V1.0 beta 4 from 7. December 2014
Отчёт EAC об извлечении, выполненном 20. марта 2015, 22:15
Mozart Wolfgang Amadeus (1756-1791) / Mozart Clarinet Concerto KV 622; Symphony No.41 'Jupiter'
Дисковод: MATSHITADVD-RAM UJ892AS Adapter: 1 ID: 0
Режим чтения : ДостоверностьИспользование точного потока : ДаОтключение кэша аудио : ДаИспользование указателей C2 : Нет
Коррекция смещения при чтении : 102Способность читать области Lead-in и Lead-out : НетЗаполнение пропущенных сэмплов тишиной : ДаУдаление блоков с тишиной в начале и конце : НетПри вычислениях CRC использовались нулевые сэмплы : ДаИнтерфейс : Встроенный Win32-интерфейс для Win NT/2000Обработка зазоров : Добавлено к предыдущему треку
Выходной формат : Пользовательский кодировщикВыбранный битрейт : 128 kBit/sКачество : ВысокийДобавление ID3-тега : НетУтилита сжатия : C:\Program Files (x86)\Exact Audio Copy\flac-1.3.1-win\win64\flac.exeДополнительные параметры : -V -8 -T "Genre=%genre%" -T "Artist=%artist%" -T "Title=%title%" -T "Album=%albumtitle%" -T "Date=%year%" -T "Tracknumber=%tracknr%" -T "Comment=%comment%" %source%
TOC извлечённого CD
Трек | Старт | Длительность | Начальный сектор | Конечный сектор --------------------------------------------------------------------- 1 | 0:00.00 | 12:30.72 | 0 | 56321 2 | 12:30.72 | 7:42.05 | 56322 | 90976 3 | 20:13.02 | 9:03.38 | 90977 | 131739 4 | 29:16.40 | 10:57.25 | 131740 | 181039 5 | 40:13.65 | 11:04.62 | 181040 | 230901 6 | 51:18.52 | 4:55.03 | 230902 | 253029 7 | 56:13.55 | 9:04.45 | 253030 | 293874
Трек 1
Имя файла C:\Users\Arsenij\Desktop\mozarrt\01 Ralph Manno, Staatskapelle Weimar - Mozart - Clarinet Concerto in A major KV 622 - 1. Allegro.wav
Длина предзазора 0:00:02.00
Пиковый уровень 80.9 % Скорость извлечения 2.9 X Качество трека 99.9 % CRC теста 3A450149 CRC копии 3A450149 Точное извлечение (достоверность 2) [9C0F55C8] (AR v2) Копирование... OK
Трек 2
Имя файла C:\Users\Arsenij\Desktop\mozarrt\02 Ralph Manno, Staatskapelle Weimar - Mozart - Clarinet Concerto in A major KV 622 - 2. Adagio.wav
Пиковый уровень 78.1 % Скорость извлечения 3.5 X Качество трека 100.0 % CRC теста 4B96611E CRC копии 4B96611E Точное извлечение (достоверность 2) [7C0DEB2F] (AR v2) Копирование... OK
Трек 3
Имя файла C:\Users\Arsenij\Desktop\mozarrt\03 Ralph Manno, Staatskapelle Weimar - Mozart - Clarinet Concerto in A major KV 622 - 3. Rondo- Allegro.wav
Пиковый уровень 86.0 % Скорость извлечения 3.8 X Качество трека 99.9 % CRC теста 06A76098 CRC копии 06A76098 Точное извлечение (достоверность 2) [57C003AA] (AR v2) Копирование... OK
Трек 4
Имя файла C:\Users\Arsenij\Desktop\mozarrt\04 Staatskapelle Weimar - Mozart - Symphony No.41 in C major KV 551 'Jupiter' - 1. Allegro vivace.wav
Длина предзазора 0:00:13.15
Пиковый уровень 93.4 % Скорость извлечения 4.3 X Качество трека 99.9 % CRC теста A733F3B4 CRC копии A733F3B4 Точное извлечение (достоверность 2) [03001535] (AR v2) Копирование... OK
Трек 5
Имя файла C:\Users\Arsenij\Desktop\mozarrt\05 Staatskapelle Weimar - Mozart - Symphony No.41 in C major KV 551 'Jupiter' - 2. Andante cantabile.wav
Пиковый уровень 63.5 % Скорость извлечения 4.9 X Качество трека 100.0 % CRC теста B19BA837 CRC копии B19BA837 Точное извлечение (достоверность 2) [0012F00D] (AR v2) Копирование... OK
Трек 6
Имя файла C:\Users\Arsenij\Desktop\mozarrt\06 Staatskapelle Weimar - Mozart - Symphony No.41 in C major KV 551 'Jupiter' - 3. Menuetto- Allegretto.wav
Пиковый уровень 82.9 % Скорость извлечения 4.9 X Качество трека 100.0 % CRC теста 2BEC9020 CRC копии 2BEC9020 Точное извлечение (достоверность 2) [30D78FDB] (AR v2) Копирование... OK
Трек 7
Имя файла C:\Users\Arsenij\Desktop\mozarrt\07 Staatskapelle Weimar - Mozart - Symphony No.41 in C major KV 551 'Jupiter' - 4. Molto allegro.wav
Пиковый уровень 99.9 % Скорость извлечения 5.4 X Качество трека 100.0 % CRC теста C72C0551 CRC копии C72C0551 Точное извлечение (достоверность 2) [C88304D0] (AR v2) Копирование... OK
Все треки извлечены точно
Ошибок не произошло
Конец отчёта
==== Контрольная сумма отчёта 69FFE991921AB03532C2F5FB256B6231D850FDC0450096FA125F1B04874D886D ====

Содержание индексной карты (.CUE)

REM GENRE ClassicalREM DATE 1996REM DISCID 570F4E07REM COMMENT "ExactAudioCopy v1.0b4"PERFORMER "Mozart Wolfgang Amadeus (1756-1791)"TITLE "Mozart Clarinet Concerto KV 622; Symphony No.41 'Jupiter'"FILE "01 Ralph Manno, Staatskapelle Weimar - Mozart - Clarinet Concerto in A major KV 622 - 1. Allegro.wav" WAVE TRACK 01 AUDIO TITLE "Mozart - Clarinet Concerto in A major KV 622 - 1. Allegro" PERFORMER "Ralph Manno, Staatskapelle Weimar" INDEX 01 00:00:00FILE "02 Ralph Manno, Staatskapelle Weimar - Mozart - Clarinet Concerto in A major KV 622 - 2. Adagio.wav" WAVE TRACK 02 AUDIO TITLE "Mozart - Clarinet Concerto in A major KV 622 - 2. Adagio" PERFORMER "Ralph Manno, Staatskapelle Weimar" INDEX 01 00:00:00FILE "03 Ralph Manno, Staatskapelle Weimar - Mozart - Clarinet Concerto in A major KV 622 - 3. Rondo- Allegro.wav" WAVE TRACK 03 AUDIO TITLE "Mozart - Clarinet Concerto in A major KV 622 - 3. Rondo: Allegro" PERFORMER "Ralph Manno, Staatskapelle Weimar" INDEX 01 00:00:00 TRACK 04 AUDIO TITLE "Mozart - Symphony No.41 in C major KV 551 'Jupiter' - 1. Allegro vivace" PERFORMER "Staatskapelle Weimar" INDEX 00 08:50:23FILE "04 Staatskapelle Weimar - Mozart - Symphony No.41 in C major KV 551 'Jupiter' - 1. Allegro vivace.wav" WAVE INDEX 01 00:00:00FILE "05 Staatskapelle Weimar - Mozart - Symphony No.41 in C major KV 551 'Jupiter' - 2. Andante cantabile.wav" WAVE TRACK 05 AUDIO TITLE "Mozart - Symphony No.41 in C major KV 551 'Jupiter' - 2. Andante cantabile" PERFORMER "Staatskapelle Weimar" INDEX 01 00:00:00FILE "06 Staatskapelle Weimar - Mozart - Symphony No.41 in C major KV 551 'Jupiter' - 3. Menuetto- Allegretto.wav" WAVE TRACK 06 AUDIO TITLE "Mozart - Symphony No.41 in C major KV 551 'Jupiter' - 3. Menuetto: Allegretto" PERFORMER "Staatskapelle Weimar" INDEX 01 00:00:00FILE "07 Staatskapelle Weimar - Mozart - Symphony No.41 in C major KV 551 'Jupiter' - 4. Molto allegro.wav" WAVE TRACK 07 AUDIO TITLE "Mozart - Symphony No.41 in C major KV 551 'Jupiter' - 4. Molto allegro" PERFORMER "Staatskapelle Weimar" INDEX 01 00:00:00
[teatrix.ru].t9690.torrent 
Торрент: Зарегистрирован [ 2015-10-23 17:11 ] · 48665A28B84198ECAA2835A265E667FFD1836E94

Скачать .torrent

Скачать

13 KB

Статус: проверено
Скачан: 0 раз
Размер: 287 MB
terms.php



Быстрый ответ

Имя:

      
Для отправки сообщений необходимо включить JavaScript
Показать сообщения:    

Текущее время: 08-Дек 01:18

Часовой пояс: UTC + 3


Вы можете начинать темы
Вы можете отвечать на сообщения
Вы не можете редактировать свои сообщения
Вы не можете удалять свои сообщения
Вы не можете голосовать в опросах
Вы не можете прикреплять файлы к сообщениям
Вы можете скачивать файлы