(Classical) Сергей Рахманинов - Фортепианные концерты №№ 1, 4; Рапсодия на тему Паганини - Noriko Ogawa, Malmo Symphony Orchestra, Owain Arwel Hughes - 2012, FLAC (image+.cue) lossless


Статистика раздачи [Обновить пиров]
Размер:  279 MB   |    Зарегистрирован:  1 год 1 месяц   |    Скачан:  1 раз

Полного источника не было: 7 месяцев

Личеров:  2  [  0 KB/s  ]   Подробная статистика пиров
 
   
 
 
 

[Цитировать]

Сергей Рахманинов - Фортепианные концерты №№ 1, 4; Рапсодия на тему Паганини - Noriko Ogawa, Malmö Symphony Orchestra, Owain Arwel Hughes
Жанр: Classical
Страна-производитель диска: Sweden
Год издания диска: 2012
Издатель (лейбл): BIS
Номер по каталогу: BIS-CD-975
Дата записи: 1998, 2001
Аудиокодек: FLAC
Тип рипа: image+.cue
Битрейт аудио: lossless
Продолжительность: 81:44
Источник: собственный рип
Наличие сканов в содержимом раздачи: да
Треклист:
Сергей Васильевич Рахманинов (1873-1943)
[1]-[3] Концерт для фортепиано с оркестром № 1 фа диез минор, Op.1 (1891/1917)
[4]-[6] Концерт для фортепиано с оркестром № 4 соль минор, Op.40 (1926/1941)
[7]-[32] Рапсодия на тему Паганини для фортепиано с оркестром, Op.43
Исполнители:
Noriko Ogawa piano
Malmö Symphony Orchestra
Owain Arwel Hughes
conductor

Лог создания рипа

Exact Audio Copy V1.0 beta 3 from 29. August 2011
EAC extraction logfile from 13. March 2015, 21:43
Noriko Ogawa, Malmo Symphony Orchestra, Owain Arwel Hughes / Rachmaninov - Piano Concertos Nos. 1 & 4
Used drive : HL-DT-STDVDRAM GU70N Adapter: 0 ID: 0
Read mode : SecureUtilize accurate stream : YesDefeat audio cache : YesMake use of C2 pointers : No
Read offset correction : 48Overread into Lead-In and Lead-Out : NoFill up missing offset samples with silence : YesDelete leading and trailing silent blocks : NoNull samples used in CRC calculations : YesUsed interface : Native Win32 interface for Win NT & 2000
Used output format : User Defined EncoderSelected bitrate : 128 kBit/sQuality : HighAdd ID3 tag : NoCommand line compressor : C:\Program Files (x86)\Exact Audio Copy\Flac\flac.exeAdditional command line options : -V -8 -T "Date=%year%" -T "Genre=%genre%" %source%
TOC of the extracted CD
Track | Start | Length | Start sector | End sector --------------------------------------------------------- 1 | 0:00.00 | 14:04.40 | 0 | 63339 2 | 14:04.40 | 6:21.16 | 63340 | 91930 3 | 20:25.56 | 8:35.42 | 91931 | 130597 4 | 29:01.23 | 10:03.62 | 130598 | 175884 5 | 39:05.10 | 7:17.29 | 175885 | 208688 6 | 46:22.39 | 10:01.59 | 208689 | 253822 7 | 56:24.23 | 0:09.12 | 253823 | 254509 8 | 56:33.35 | 0:19.42 | 254510 | 255976 9 | 56:53.02 | 0:18.67 | 255977 | 257393 10 | 57:11.69 | 0:19.33 | 257394 | 258851 11 | 57:31.27 | 0:25.58 | 258852 | 260784 12 | 57:57.10 | 0:32.46 | 260785 | 263230 13 | 58:29.56 | 0:29.63 | 263231 | 265468 14 | 58:59.44 | 1:02.46 | 265469 | 270164 15 | 60:02.15 | 1:13.02 | 270165 | 275641 16 | 61:15.17 | 0:35.49 | 275642 | 278315 17 | 61:50.66 | 0:32.19 | 278316 | 280734 18 | 62:23.10 | 0:54.65 | 280735 | 284849 19 | 63:18.00 | 1:44.19 | 284850 | 292668 20 | 65:02.19 | 1:22.61 | 292669 | 298879 21 | 66:25.05 | 0:28.61 | 298880 | 301040 22 | 66:53.66 | 0:44.63 | 301041 | 304403 23 | 67:38.54 | 1:11.25 | 304404 | 309753 24 | 68:50.04 | 1:51.09 | 309754 | 318087 25 | 70:41.13 | 1:59.71 | 318088 | 327083 26 | 72:41.09 | 3:04.46 | 327084 | 340929 27 | 75:45.55 | 0:33.74 | 340930 | 343478 28 | 76:19.54 | 0:37.16 | 343479 | 346269 29 | 76:56.70 | 0:27.05 | 346270 | 348299 30 | 77:24.00 | 1:39.33 | 348300 | 355757 31 | 79:03.33 | 0:53.07 | 355758 | 359739 32 | 79:56.40 | 1:47.51 | 359740 | 367815
Range status and errors
Selected range
Filename C:\temp\BIS-CD-0975 - Rachmaninov - Piano Concertos Nos. 1 & 4 - Ogawa\Rachmaninov - Piano Concertos Nos. 1 & 4.wav
Peak level 99.8 % Extraction speed 2.4 X Range quality 100.0 % Test CRC 6E4AC2EC Copy CRC 6E4AC2EC Copy OK
No errors occurred
AccurateRip summary
Track 1 accurately ripped (confidence 2) [DF3A0B00] (AR v2)Track 2 accurately ripped (confidence 2) [E1DBC094] (AR v2)Track 3 accurately ripped (confidence 2) [4D43D465] (AR v2)Track 4 accurately ripped (confidence 2) [893762C3] (AR v2)Track 5 accurately ripped (confidence 2) [C3D5BC6C] (AR v2)Track 6 accurately ripped (confidence 2) [93188F84] (AR v2)Track 7 accurately ripped (confidence 2) [0933F023] (AR v2)Track 8 accurately ripped (confidence 2) [70D2A7DB] (AR v2)Track 9 accurately ripped (confidence 2) [100899CF] (AR v2)Track 10 accurately ripped (confidence 2) [1269D90C] (AR v2)Track 11 accurately ripped (confidence 2) [A4537F8B] (AR v2)Track 12 accurately ripped (confidence 2) [99D7EFCD] (AR v2)Track 13 accurately ripped (confidence 2) [8C88051D] (AR v2)Track 14 accurately ripped (confidence 2) [85D7209D] (AR v2)Track 15 accurately ripped (confidence 2) [1E8C82A0] (AR v2)Track 16 accurately ripped (confidence 2) [E6337F01] (AR v2)Track 17 accurately ripped (confidence 2) [D46AE2F0] (AR v2)Track 18 accurately ripped (confidence 2) [53AB129E] (AR v2)Track 19 accurately ripped (confidence 2) [AA0DC797] (AR v2)Track 20 accurately ripped (confidence 2) [4A3608B2] (AR v2)Track 21 accurately ripped (confidence 2) [492D14C9] (AR v2)Track 22 accurately ripped (confidence 2) [5C0C588B] (AR v2)Track 23 accurately ripped (confidence 2) [BD2714A1] (AR v2)Track 24 accurately ripped (confidence 2) [8617404E] (AR v2)Track 25 accurately ripped (confidence 2) [33EC1172] (AR v2)Track 26 accurately ripped (confidence 2) [D0E34107] (AR v2)Track 27 accurately ripped (confidence 2) [419E514D] (AR v2)Track 28 accurately ripped (confidence 2) [25717432] (AR v2)Track 29 accurately ripped (confidence 2) [107229E7] (AR v2)Track 30 accurately ripped (confidence 2) [B6E4C183] (AR v2)Track 31 accurately ripped (confidence 2) [0349A165] (AR v2)Track 32 accurately ripped (confidence 2) [0D078C62] (AR v2)
All tracks accurately ripped
End of status report
==== Log checksum C8C40607AC1DBD7A2EF9A41C05E9A7D0D4EAC7DC241A96A41E5AF9FF6D612295 ====
[teatrix.ru].t9691.torrent 
Торрент: Зарегистрирован [ 2015-10-23 17:11 ] · 92B5B428B01B65AD9B592885BCFD33EA761AC1A0

Скачать .torrent

Скачать

23 KB

Статус: проверено
Скачан: 1 раз
Размер: 279 MB
terms.php



Быстрый ответ

Имя:

      
Для отправки сообщений необходимо включить JavaScript
Показать сообщения:    

Текущее время: 09-Дек 22:18

Часовой пояс: UTC + 3


Вы можете начинать темы
Вы можете отвечать на сообщения
Вы не можете редактировать свои сообщения
Вы не можете удалять свои сообщения
Вы не можете голосовать в опросах
Вы не можете прикреплять файлы к сообщениям
Вы можете скачивать файлы