(Classical) The Romantic Violin Concerto – Vol. 18: Jongen & Sylvio Lazzari (Graffin, Brabbins) - 2015, FLAC (image+.cue) lossless


Статистика раздачи [Обновить пиров]
Размер:  284 MB   |    Зарегистрирован:  1 год 1 месяц   |    Скачан:  0 раз

Полного источника не было: Никогда

Личеров:  2  [  0 KB/s  ]   Подробная статистика пиров
 
   
 
 
 

[Цитировать]

The Romantic Violin Concerto – Vol. 18: Jongen & Sylvio Lazzari (Graffin, Brabbins)
Жанр: Classical
Страна-производитель диска: Франция
Год издания диска: 2015
Издатель (лейбл): Hyperion
Номер по каталогу: CDA68005
Дата записи: 9 — 11 июля 2013 г., Эйндховен.
Аудиокодек: FLAC
Тип рипа: image+.cue
Битрейт аудио: lossless
Продолжительность: 01:05:47
Источник: odeonmusic
Наличие сканов в содержимом раздачи: да
Треклист:
Жозеф Мари Альфонс Николя Йонген (1873 — 1953).
01. Фантазия E-dur для скрипки с оркестром, op. 12 (1898) [06:18].
03. Симфоническое адажио H-dur для скрипки с оркестром, op. 20 (1901) [11:53].
Скрипичный концерт h-moll, op. 17 (1899 — 1900).
04. I. Allegro poco maestoso [11:55].
05. II. Adagio, molto espressivo [09:15].
06. III. Animé [09:32].
Сильвио Жозеф Лазари (Йозеф Фортунат Сильвестр Лаццари; 1857 — 1944).
02. Рапсодия e-moll для скрипки с оркестром (1922) [16:52].
Исполнители:
Philippe Graffin (скрипка).
Royal Flemish Philharmonic.
Дирижер Martyn Brabbins.

Лог создания рипа

Exact Audio Copy V1.0 beta 3 from 29. August 2011
EAC extraction logfile from 30. December 2014, 18:17
Philippe Graffin / Jongen; Lazzari - Works for Violin and Orchestra - Graffin (Romantic Violin Concerto - 18)
Used drive : TSSTcorpCDDVDW SH-222BB Adapter: 2 ID: 1
Read mode : SecureUtilize accurate stream : YesDefeat audio cache : YesMake use of C2 pointers : No
Read offset correction : 6Overread into Lead-In and Lead-Out : NoFill up missing offset samples with silence : YesDelete leading and trailing silent blocks : NoNull samples used in CRC calculations : YesUsed interface : Native Win32 interface for Win NT & 2000
Used output format : User Defined EncoderSelected bitrate : 896 kBit/sQuality : HighAdd ID3 tag : NoCommand line compressor : C:\Program Files\Exact Audio Copy\FLAC\FLAC.EXEAdditional command line options : -8 -V -T "TITLE=%title%" -T "ARTIST=%artist%" -T "ALBUMARTIST=%albumartist%" -T "ALBUM=%albumtitle%" -T "DATE=%year%" -T "TRACKNUMBER=%tracknr%" -T "TRACKTOTAL=%numtracks%" -T "GENRE=%genre%" -T "COMMENT=%comment%" -T "PERFORMER=%albuminterpret%" -T "COMPOSER=%composer%" %source% -o %dest%
TOC of the extracted CD
Track | Start | Length | Start sector | End sector --------------------------------------------------------- 1 | 0:00.00 | 6:18.32 | 0 | 28381 2 | 6:18.32 | 16:51.45 | 28382 | 104251 3 | 23:10.02 | 11:52.74 | 104252 | 157725 4 | 35:03.01 | 11:55.34 | 157726 | 211384 5 | 46:58.35 | 9:14.61 | 211385 | 252995 6 | 56:13.21 | 9:31.72 | 252996 | 295892
Range status and errors
Selected range
Filename G:\Ripped general\[7588] Jongen; Lazzari – Works for Violin and Orchestra – Graffin (Romantic Violin Concerto – 18)\Jongen; Lazzari - Works for Violin and Orchestra - Graffin (Romantic Violin Concerto - 18).wav
Peak level 98.4 % Extraction speed 6.5 X Range quality 100.0 % Test CRC 2C2074F0 Copy CRC 2C2074F0 Copy OK
No errors occurred
AccurateRip summary
Track 1 not present in databaseTrack 2 not present in databaseTrack 3 not present in databaseTrack 4 not present in databaseTrack 5 not present in databaseTrack 6 not present in database
None of the tracks are present in the AccurateRip database
End of status report
==== Log checksum 3CFAFBE8DD030DFDD75F2C393E6E5624DB1F8A26F3E99CDFBD65067E692747FF ====

Содержание индексной карты (.CUE)

REM GENRE ClassicalREM DATE 2013REM DISCID 420F6906REM COMMENT "ExactAudioCopy v1.0b3"CATALOG 0034571280059PERFORMER "Philippe Graffin & Martyn Brabbins"TITLE "Jongen & Lazzari – Works for violin & orchestra – Philippe Graffin (RVC – 18)"FILE "Jongen & Lazzari – Works for violin & orchestra – Philippe Graffin (RVC – 18).flac" WAVE TRACK 01 AUDIO TITLE "Jongen - Fantasia in E major, Op. 12 (1898)" PERFORMER "Philippe Graffin & Martyn Brabbins" ISRC GBAJY1500501 INDEX 01 00:00:00 TRACK 02 AUDIO TITLE "Sylvio Lazzari - Rapsodie in E minor (1922)" PERFORMER "Philippe Graffin & Martyn Brabbins" ISRC GBAJY1500502 INDEX 01 06:18:32 TRACK 03 AUDIO TITLE "Jongen - Adagio symphonique in B major, Op. 20 (1901)" PERFORMER "Philippe Graffin & Martyn Brabbins" ISRC GBAJY1500503 INDEX 01 23:10:02 TRACK 04 AUDIO TITLE "Jongen - Violin Concerto in B minor, Op. 17 (1900) - I. Allegro poco maestoso" PERFORMER "Philippe Graffin & Martyn Brabbins" ISRC GBAJY1500504 INDEX 01 35:03:01 TRACK 05 AUDIO TITLE "Jongen - Violin Concerto in B minor, Op. 17 (1900) - II. Adagio, molto espressivo" PERFORMER "Philippe Graffin & Martyn Brabbins" ISRC GBAJY1500505 INDEX 01 46:58:35 TRACK 06 AUDIO TITLE "Jongen - Violin Concerto in B minor, Op. 17 (1900) - III. Anime" PERFORMER "Philippe Graffin & Martyn Brabbins" ISRC GBAJY1500505 INDEX 01 56:13:21

Вариант индексной карты (.CUE) с выставленными зазорами

REM GENRE ClassicalREM DATE 2013REM DISCID 420F6906REM COMMENT "ExactAudioCopy v1.0b3"CATALOG 0034571280059PERFORMER "Philippe Graffin & Martyn Brabbins"TITLE "Jongen & Lazzari – Works for violin & orchestra – Philippe Graffin (RVC – 18)"FILE "Jongen & Lazzari – Works for violin & orchestra – Philippe Graffin (RVC – 18).flac" WAVE TRACK 01 AUDIO TITLE "Jongen - Fantasia in E major, Op. 12 (1898)" PERFORMER "Philippe Graffin & Martyn Brabbins" ISRC GBAJY1500501 INDEX 00 00:00:00 INDEX 01 00:02:52 TRACK 02 AUDIO TITLE "Sylvio Lazzari - Rapsodie in E minor (1922)" PERFORMER "Philippe Graffin & Martyn Brabbins" ISRC GBAJY1500502 INDEX 00 06:12:69 INDEX 01 06:18:32 TRACK 03 AUDIO TITLE "Jongen - Adagio symphonique in B major, Op. 20 (1901)" PERFORMER "Philippe Graffin & Martyn Brabbins" ISRC GBAJY1500503 INDEX 00 23:02:30 INDEX 01 23:10:02 TRACK 04 AUDIO TITLE "Jongen - Violin Concerto in B minor, Op. 17 (1900) - I. Allegro poco maestoso" PERFORMER "Philippe Graffin & Martyn Brabbins" ISRC GBAJY1500504 INDEX 00 34:53:44 INDEX 01 35:03:01 TRACK 05 AUDIO TITLE "Jongen - Violin Concerto in B minor, Op. 17 (1900) - II. Adagio, molto espressivo" PERFORMER "Philippe Graffin & Martyn Brabbins" ISRC GBAJY1500505 INDEX 00 46:56:42 INDEX 01 46:58:35 TRACK 06 AUDIO TITLE "Jongen - Violin Concerto in B minor, Op. 17 (1900) - III. Anime" PERFORMER "Philippe Graffin & Martyn Brabbins" ISRC GBAJY1500505 INDEX 00 56:10:57 INDEX 01 56:13:21 INDEX 02 65:37:01
-На оригинальной (отсканированной) обложке вместо портрета Жозефа Йонгена был размещен портрет Феликса-Александра Гильмана. Эта ошибка устранена в электронной версии (на сайте «Гипериона»).
[teatrix.ru].t9692.torrent 
Торрент: Зарегистрирован [ 2015-10-23 17:11 ] · FA44C957D2B8D1485CD7338F6CD07E219637385E

Скачать .torrent

Скачать

13 KB

Статус: проверено
Скачан: 0 раз
Размер: 284 MB
terms.php



Быстрый ответ

Имя:

      
Для отправки сообщений необходимо включить JavaScript
Показать сообщения:    

Текущее время: 08-Дек 21:09

Часовой пояс: UTC + 3


Вы можете начинать темы
Вы можете отвечать на сообщения
Вы не можете редактировать свои сообщения
Вы не можете удалять свои сообщения
Вы не можете голосовать в опросах
Вы не можете прикреплять файлы к сообщениям
Вы можете скачивать файлы