(Classical, contemporary) Sally Beamish - Viola Concerto No.2 'The Seafarer'; Whitescape; Sangsters - Tabea Zimmermann, Swedish Chamber Orchestra, Ola Rudner - 2007, FLAC (image+.cue) lossless


Статистика раздачи [Обновить пиров]
Размер:  226 MB   |    Зарегистрирован:  1 год 1 месяц   |    Скачан:  0 раз

Полного источника не было: Никогда

Личеров:  2  [  0 KB/s  ]   Подробная статистика пиров
 
   
 
 
 

[Цитировать]

Sally Beamish - Viola Concerto No.2 'The Seafarer'; Whitescape; Sangsters - Tabea Zimmermann, Swedish Chamber Orchestra, Ola Rudner
Жанр: Classical, contemporary
Страна-производитель диска: Sweden
Год издания диска: 2007
Издатель (лейбл): BIS
Номер по каталогу: BIS-CD-1241
Дата записи: 2003, 2005
Аудиокодек: FLAC
Тип рипа: image+.cue
Битрейт аудио: lossless
Продолжительность: 58:47
Источник: собственный рип
Наличие сканов в содержимом раздачи: да
Треклист:
Sally Beamish (b.1956)
[1]-[3] Concerto No. 2 for Viola and Orchestra ‘The Seafarer’ (2001)
[4] Whitescape (2000)
[5-[7] Sangsters (2002)
Исполнители:
Tabea Zimmermann viola [1]-[3]
Swedish Chamber Orchestra, Örebro
Ola Rudner
conductor

Лог создания рипа

Exact Audio Copy V1.0 beta 3 from 29. August 2011
EAC extraction logfile from 7. March 2015, 11:17
Swedish Chamber Orchestra, Ola Rudner / Beamish - The Seafarer
Used drive : HL-DT-STDVDRAM GU70N Adapter: 0 ID: 0
Read mode : SecureUtilize accurate stream : YesDefeat audio cache : YesMake use of C2 pointers : No
Read offset correction : 48Overread into Lead-In and Lead-Out : NoFill up missing offset samples with silence : YesDelete leading and trailing silent blocks : NoNull samples used in CRC calculations : YesUsed interface : Native Win32 interface for Win NT & 2000
Used output format : User Defined EncoderSelected bitrate : 128 kBit/sQuality : HighAdd ID3 tag : NoCommand line compressor : C:\Program Files (x86)\Exact Audio Copy\Flac\flac.exeAdditional command line options : -V -8 -T "Date=%year%" -T "Genre=%genre%" %source%
TOC of the extracted CD
Track | Start | Length | Start sector | End sector --------------------------------------------------------- 1 | 0:00.00 | 7:42.41 | 0 | 34690 2 | 7:42.41 | 8:14.04 | 34691 | 71744 3 | 15:56.45 | 11:59.16 | 71745 | 125685 4 | 27:55.61 | 10:37.44 | 125686 | 173504 5 | 38:33.30 | 5:05.25 | 173505 | 196404 6 | 43:38.55 | 7:56.06 | 196405 | 232110 7 | 51:34.61 | 7:12.14 | 232111 | 264524
Range status and errors
Selected range
Filename C:\temp\BIS-CD-1241 - Beamish - The Seafarer\Beamish - The Seafarer.wav
Peak level 100.0 % Extraction speed 5.0 X Range quality 100.0 % Test CRC A537E10D Copy CRC A537E10D Copy OK
No errors occurred
AccurateRip summary
Track 1 accurately ripped (confidence 5) [7A443A20] (AR v2)Track 2 accurately ripped (confidence 5) [DC9AC6B2] (AR v2)Track 3 accurately ripped (confidence 5) [B320DA77] (AR v2)Track 4 accurately ripped (confidence 5) [9464B563] (AR v2)Track 5 accurately ripped (confidence 5) [1D78ADEC] (AR v2)Track 6 accurately ripped (confidence 5) [1CC1C210] (AR v2)Track 7 accurately ripped (confidence 5) [1AA11806] (AR v2)
All tracks accurately ripped
End of status report
==== Log checksum 78058294902283AE8AC0CCADF140E7B12B9B29149F25B47D9587940D586204EB ====
[teatrix.ru].t9695.torrent 
Торрент: Зарегистрирован [ 2015-10-23 17:11 ] · FEC50E8188E6E4EFD45ACD0F8E1FCE30097DE655

Скачать .torrent

Скачать

36 KB

Статус: проверено
Скачан: 0 раз
Размер: 226 MB
terms.php



Быстрый ответ

Имя:

      
Для отправки сообщений необходимо включить JavaScript
Показать сообщения:    

Текущее время: 04-Дек 19:20

Часовой пояс: UTC + 3


Вы можете начинать темы
Вы можете отвечать на сообщения
Вы не можете редактировать свои сообщения
Вы не можете удалять свои сообщения
Вы не можете голосовать в опросах
Вы не можете прикреплять файлы к сообщениям
Вы можете скачивать файлы