(Classical) The Romantic Cello Concerto – Vol. 6: Vieuxtemps & Ysaye (Alban Gerhardt, Josep Caballe-Domenech) - 2015, FLAC (image+.cue) lossless


Статистика раздачи [Обновить пиров]
Размер:  274 MB   |    Зарегистрирован:  1 год 1 месяц   |    Скачан:  0 раз

Полного источника не было: Никогда

Личеров:  2  [  0 KB/s  ]   Подробная статистика пиров
 
   
 
 
 

[Цитировать]

The Romantic Cello Concerto – Vol. 6: Vieuxtemps & Ysaÿe (Alban Gerhardt, Josep Caballé-Domenech)
Жанр: Classical
Страна-производитель диска: Франция
Год издания диска: 2015
Издатель (лейбл): Hyperion
Номер по каталогу: CDA67790
Дата записи: 3 — 5 апреля 2013 г., Антверпен.
Аудиокодек: FLAC
Тип рипа: image+.cue
Битрейт аудио: lossless
Продолжительность: 01:05:07
Источник: odeonmusic
Наличие сканов в содержимом раздачи: да
Треклист:
Анри Франсуа Жозеф Вьетан (1820 — 1881).
Виолончельный концерт № 1 c-moll, op. 46 (1875 — 1876).
01. I. Allegro moderato [12:50].
02. II. Andante [05:05].
03. III. Finale. Allegro [07:04].
Виолончельный концерт № 2 h-moll, op. 50 / 4 posth. (1877 — 1880).
04. I. Allegro [10:19].
05. II. Adagio [05:34].
06. III. Finale. Allegretto con moto [06:02].
Эжен-Огюст Изаи (1858 — 1931).
«Размышление» (Méditation) h-moll, поэма для виолончели и оркестра, op. 16 (ок. 1910, опубл. 1921).
07. Lento ma non troppo [11:16].
Серенада A-dur для виолончели и оркестра, op. 22 (ок. 1910, опубл. 1921).
08. Andante non troppo lento. — Allegretto poco scherzando. — Cadenza. — Poco più lento [06:56].
Исполнители:
Alban Gerhardt (виолончель).
Royal Flemish Philharmonic.
Дирижер Josep Caballé-Domenech.

Лог создания рипа

Exact Audio Copy V1.0 beta 4 from 7. December 2014
EAC extraction logfile from 1. March 2015, 11:57
Alban Gerhard / Vieuxtemps - Cello Concertos - Alban Gerhardt
Used drive : PLDS DVD-RW DA8A5SH Adapter: 1 ID: 0
Read mode : SecureUtilize accurate stream : YesDefeat audio cache : YesMake use of C2 pointers : Yes
Read offset correction : 6Overread into Lead-In and Lead-Out : NoFill up missing offset samples with silence : YesDelete leading and trailing silent blocks : NoNull samples used in CRC calculations : YesUsed interface : Native Win32 interface for Win NT & 2000
Used output format : User Defined EncoderSelected bitrate : 896 kBit/sQuality : HighAdd ID3 tag : NoCommand line compressor : J:\EAC\Exact Audio Copy\Flac\flac.exeAdditional command line options : -8 -V -T "TITLE=%title%" -T "ARTIST=%artist%" -T "ALBUMARTIST=%albumartist%" -T "ALBUM=%albumtitle%" -T "DATE=%year%" -T "TRACKNUMBER=%tracknr%" -T "TRACKTOTAL=%numtracks%" -T "GENRE=%genre%" -T "COMMENT=%comment%" -T "PERFORMER=%albuminterpret%" -T "COMPOSER=%composer%" %source% -o %dest%
TOC of the extracted CD
Track | Start | Length | Start sector | End sector --------------------------------------------------------- 1 | 0:00.00 | 12:50.01 | 0 | 57750 2 | 12:50.01 | 5:05.10 | 57751 | 80635 3 | 17:55.11 | 7:03.42 | 80636 | 112402 4 | 24:58.53 | 10:18.41 | 112403 | 158793 5 | 35:17.19 | 5:34.02 | 158794 | 183845 6 | 40:51.21 | 6:01.39 | 183846 | 210959 7 | 46:52.60 | 11:15.63 | 210960 | 261647 8 | 58:08.48 | 6:56.37 | 261648 | 292884
Range status and errors
Selected range
Filename K:\Ripped\[7554] Vieuxtemps – Cello Concertos – Alban Gerhardt\Vieuxtemps - Cello Concertos - Alban Gerhardt.wav
Peak level 99.6 % Extraction speed 4.3 X Range quality 100.0 % Test CRC 55E6C56E Copy CRC 55E6C56E Copy OK
No errors occurred
AccurateRip summary
Track 1 not present in databaseTrack 2 not present in databaseTrack 3 not present in databaseTrack 4 not present in databaseTrack 5 not present in databaseTrack 6 not present in databaseTrack 7 not present in databaseTrack 8 not present in database
None of the tracks are present in the AccurateRip database
End of status report
==== Log checksum 1571F1DCD277C661BF5F4EB0741F37854597F23180BDE229596050D4806E5EC2 ====

Содержание индексной карты (.CUE)

REM GENRE ClassicalREM DATE 2013REM DISCID 610F4108REM COMMENT "ExactAudioCopy v1.0b4"PERFORMER "Alban Gerhardt & Josep Caballe-Domenech"TITLE "Vieuxtemps & Ysaye – Cello concertos – Alban Gerhardt"FILE "Vieuxtemps & Ysaye – Cello concertos – Alban Gerhardt.flac" WAVE TRACK 01 AUDIO TITLE "Vieuxtemps - Cello Concerto No. 1 in A minor, Op. 46 (1876) - I. Allegro moderato" PERFORMER "Alban Gerhardt & Josep Caballe-Domenech" INDEX 01 00:00:00 TRACK 02 AUDIO TITLE "Vieuxtemps - Cello Concerto No. 1 in A minor, Op. 46 (1876) - II. Andante" PERFORMER "Alban Gerhardt & Josep Caballe-Domenech" INDEX 01 12:50:01 TRACK 03 AUDIO TITLE "Vieuxtemps - Cello Concerto No. 1 in A minor, Op. 46 (1876) - III. Allegro" PERFORMER "Alban Gerhardt & Josep Caballe-Domenech" INDEX 01 17:55:11 TRACK 04 AUDIO TITLE "Vieuxtemps - Cello Concerto No. 2 in B minor, Op. 50 (1877 - 1880) - I. Allegro" PERFORMER "Alban Gerhardt & Josep Caballe-Domenech" INDEX 01 24:58:53 TRACK 05 AUDIO TITLE "Vieuxtemps - Cello Concerto No. 2 in B minor, Op. 50 (1877 - 1880) - II. Adagio" PERFORMER "Alban Gerhardt & Josep Caballe-Domenech" INDEX 01 35:17:19 TRACK 06 AUDIO TITLE "Vieuxtemps - Cello Concerto No. 2 in B minor, Op. 50 (1877 - 1880) - III. Allegretto con moto" PERFORMER "Alban Gerhardt & Josep Caballe-Domenech" INDEX 01 40:51:21 TRACK 07 AUDIO TITLE "Ysaye - Meditation in B minor 'Poeme', Op. 16 (ca. 1910)" PERFORMER "Alban Gerhardt & Josep Caballe-Domenech" INDEX 01 46:52:60 TRACK 08 AUDIO TITLE "Ysaye - Serenade in A major, Op. 22 (ca. 1910)" PERFORMER "Alban Gerhardt & Josep Caballe-Domenech" INDEX 01 58:08:48

Вариант индексной карты (.CUE) с выставленными зазорами

REM GENRE ClassicalREM DATE 2013REM DISCID 610F4108REM COMMENT "ExactAudioCopy v1.0b4"PERFORMER "Alban Gerhardt & Josep Caballe-Domenech"TITLE "Vieuxtemps & Ysaye – Cello concertos – Alban Gerhardt"FILE "Vieuxtemps & Ysaye – Cello concertos – Alban Gerhardt.flac" WAVE TRACK 01 AUDIO TITLE "Vieuxtemps - Cello Concerto No. 1 in A minor, Op. 46 (1876) - I. Allegro moderato" PERFORMER "Alban Gerhardt & Josep Caballe-Domenech" INDEX 00 00:00:00 INDEX 01 00:02:37 TRACK 02 AUDIO TITLE "Vieuxtemps - Cello Concerto No. 1 in A minor, Op. 46 (1876) - II. Andante" PERFORMER "Alban Gerhardt & Josep Caballe-Domenech" INDEX 00 12:44:68 INDEX 01 12:50:01 TRACK 03 AUDIO TITLE "Vieuxtemps - Cello Concerto No. 1 in A minor, Op. 46 (1876) - III. Allegro" PERFORMER "Alban Gerhardt & Josep Caballe-Domenech" INDEX 01 17:55:11 TRACK 04 AUDIO TITLE "Vieuxtemps - Cello Concerto No. 2 in B minor, Op. 50 (1877 - 1880) - I. Allegro" PERFORMER "Alban Gerhardt & Josep Caballe-Domenech" INDEX 00 24:55:02 INDEX 01 24:58:53 TRACK 05 AUDIO TITLE "Vieuxtemps - Cello Concerto No. 2 in B minor, Op. 50 (1877 - 1880) - II. Adagio" PERFORMER "Alban Gerhardt & Josep Caballe-Domenech" INDEX 00 35:15:72 INDEX 01 35:17:19 TRACK 06 AUDIO TITLE "Vieuxtemps - Cello Concerto No. 2 in B minor, Op. 50 (1877 - 1880) - III. Allegretto con moto" PERFORMER "Alban Gerhardt & Josep Caballe-Domenech" INDEX 01 40:51:21 TRACK 07 AUDIO TITLE "Ysaye - Meditation in B minor 'Poeme', Op. 16 (ca. 1910)" PERFORMER "Alban Gerhardt & Josep Caballe-Domenech" INDEX 00 46:48:39 INDEX 01 46:52:60 TRACK 08 AUDIO TITLE "Ysaye - Serenade in A major, Op. 22 (ca. 1910)" PERFORMER "Alban Gerhardt & Josep Caballe-Domenech" INDEX 00 58:04:03 INDEX 01 58:08:48 INDEX 02 65:00:59
[teatrix.ru].t9696.torrent 
Торрент: Зарегистрирован [ 2015-10-23 17:11 ] · 96BE2B6006FE1B27ECE278F812A8B014DB55729B

Скачать .torrent

Скачать

12 KB

Статус: проверено
Скачан: 0 раз
Размер: 274 MB
terms.php



Быстрый ответ

Имя:

      
Для отправки сообщений необходимо включить JavaScript
Показать сообщения:    

Текущее время: 06-Дек 19:05

Часовой пояс: UTC + 3


Вы можете начинать темы
Вы можете отвечать на сообщения
Вы не можете редактировать свои сообщения
Вы не можете удалять свои сообщения
Вы не можете голосовать в опросах
Вы не можете прикреплять файлы к сообщениям
Вы можете скачивать файлы