(Classical) Antonio Vivaldi - Cello Concerti, Vol.4 (Raphael Wallfisch, Nicholas Kraemer) - 1995, FLAC (image+.cue) lossless


Статистика раздачи [Обновить пиров]
Размер:  298 MB   |    Зарегистрирован:  1 год 1 месяц   |    Скачан:  0 раз

Полного источника не было: Никогда

Личеров:  2  [  0 KB/s  ]   Подробная статистика пиров
 
   
 
 
 

[Цитировать]

Antonio Vivaldi - Cello Concerti, Vol.4 (Raphael Wallfisch, Nicholas Kraemer)
Жанр: Classical
Страна-производитель диска: Germany
Год издания диска: 1995
Издатель (лейбл): Naxos
Номер по каталогу: 8.550910
Дата записи: 1994
Аудиокодек: FLAC
Тип рипа: image+.cue
Битрейт аудио: lossless
Продолжительность: 61:20
Источник: собственный рип
сайт-источник/ник/другое: Из личной коллекции
Наличие сканов в содержимом раздачи: да
Треклист:
Vivaldi, Antonio
Cello Concerto in G Minor, RV 416
1. I. Allegro 00:03:30
2. II. Largo 00:02:40
3. III. Allegro 00:03:08
Cello Concerto in F Major, RV 411
4. I. Allegro 00:02:59
5. II. Largo 00:01:10
6. III. Allegro molto 00:02:15
Cello Concerto in D Minor, RV 405
7. I. Allegro 00:03:06
8. II. Adagio 00:02:23
9. III. Allegro 00:02:34
Cello Concerto in A Minor, RV 420
10. I. Andante 00:03:57
11. II. Adagio 00:02:44
12. III. Allegro 00:03:47
Cello Concerto in G Major, RV 414
13. I. Allegro molto 00:03:37
14. II. Largo 00:03:28
15. III. Allegro 00:03:19
Cello Concerto in G Minor, RV 417
16. I. Allegro 00:02:48
17. II. Andante 00:02:49
18. III. Allegro 00:03:19
Cello Concerto in A Minor, RV 421
19. I. Allegro non troppo 00:03:21
20. II. Largo 00:01:54
21. III. Allegro 00:02:33
Исполнители:
Raphael Wallfisch - cello
City of London Sinfonia, Nicholas Kraemer - conductor

Лог создания рипа

Exact Audio Copy V1.0 beta 3 from 29. August 2011
EAC extraction logfile from 26. February 2015, 20:55
Vivaldi / Cello Concerti. Vol. 4
Used drive : HL-DT-STDVDRAM GSA-T40N Adapter: 0 ID: 0
Read mode : SecureUtilize accurate stream : YesDefeat audio cache : YesMake use of C2 pointers : No
Read offset correction : 667Overread into Lead-In and Lead-Out : NoFill up missing offset samples with silence : YesDelete leading and trailing silent blocks : NoNull samples used in CRC calculations : YesUsed interface : Native Win32 interface for Win NT & 2000
Used output format : User Defined EncoderSelected bitrate : 32 kBit/sQuality : HighAdd ID3 tag : NoCommand line compressor : C:\Program Files\Exact Audio Copy\Flac\flac.exeAdditional command line options : -V -8 -T "Date=%year%" -T "Genre=%genre%" %source%
TOC of the extracted CD
Track | Start | Length | Start sector | End sector --------------------------------------------------------- 1 | 0:00.00 | 3:30.42 | 0 | 15791 2 | 3:30.42 | 2:39.40 | 15792 | 27756 3 | 6:10.07 | 3:08.20 | 27757 | 41876 4 | 9:18.27 | 2:59.30 | 41877 | 55331 5 | 12:17.57 | 1:09.18 | 55332 | 60524 6 | 13:27.00 | 2:15.55 | 60525 | 70704 7 | 15:42.55 | 3:05.62 | 70705 | 84641 8 | 18:48.42 | 2:23.00 | 84642 | 95366 9 | 21:11.42 | 2:34.08 | 95367 | 106924 10 | 23:45.50 | 3:57.17 | 106925 | 124716 11 | 27:42.67 | 2:43.20 | 124717 | 136961 12 | 30:26.12 | 3:46.65 | 136962 | 153976 13 | 34:13.02 | 3:37.33 | 153977 | 170284 14 | 37:50.35 | 3:28.10 | 170285 | 185894 15 | 41:18.45 | 3:18.45 | 185895 | 200789 16 | 44:37.15 | 2:48.30 | 200790 | 213419 17 | 47:25.45 | 2:48.72 | 213420 | 226091 18 | 50:14.42 | 3:18.55 | 226092 | 240996 19 | 53:33.22 | 3:20.55 | 240997 | 256051 20 | 56:54.02 | 1:54.45 | 256052 | 264646 21 | 58:48.47 | 2:32.55 | 264647 | 276101
Range status and errors
Selected range
Filename D:\Rip\Vivaldi.Cello_Concerti,Vol.4-Raphael_Wallfisch,Nicholas_Kraemer,1994(Naxos,8.550910)\Vivaldi - Cello Concerti. Vol. 4.wav
Peak level 92.7 % Extraction speed 4.3 X Range quality 100.0 % Test CRC BA3C1A39 Copy CRC BA3C1A39 Copy OK
No errors occurred
AccurateRip summary
Track 1 accurately ripped (confidence 4) [FF92566F] (AR v2)Track 2 accurately ripped (confidence 4) [1167110D] (AR v2)Track 3 accurately ripped (confidence 4) [F9B60E41] (AR v2)Track 4 accurately ripped (confidence 4) [EA7FC4E9] (AR v2)Track 5 accurately ripped (confidence 4) [2190F548] (AR v2)Track 6 accurately ripped (confidence 4) [82A3FF0D] (AR v2)Track 7 accurately ripped (confidence 4) [C06F14FD] (AR v2)Track 8 accurately ripped (confidence 4) [4B40D2A4] (AR v2)Track 9 accurately ripped (confidence 4) [CC265B22] (AR v2)Track 10 accurately ripped (confidence 4) [9569D250] (AR v2)Track 11 accurately ripped (confidence 4) [DF792933] (AR v2)Track 12 accurately ripped (confidence 4) [5F13495E] (AR v2)Track 13 accurately ripped (confidence 4) [683679E6] (AR v2)Track 14 accurately ripped (confidence 4) [4D258A4F] (AR v2)Track 15 accurately ripped (confidence 4) [CDC55F1C] (AR v2)Track 16 accurately ripped (confidence 4) [7517062C] (AR v2)Track 17 accurately ripped (confidence 4) [624D1074] (AR v2)Track 18 accurately ripped (confidence 4) [7D9B029E] (AR v2)Track 19 accurately ripped (confidence 4) [E9DD2791] (AR v2)Track 20 accurately ripped (confidence 4) [40571B4A] (AR v2)Track 21 accurately ripped (confidence 4) [CDE20EAA] (AR v2)
All tracks accurately ripped
End of status report
==== Log checksum BD1487F4AA054A27C2F491BFE8607B9897FE94D642F55AA5E3B838E899FD1F6E ====

Содержание индексной карты (.CUE)

REM GENRE ClassicalREM DATE 1995REM DISCID 1A0E6115REM COMMENT "ExactAudioCopy v1.0b3"PERFORMER "Vivaldi"TITLE "Cello Concerti. Vol. 4"FILE "Vivaldi - Cello Concerti. Vol. 4.flac" WAVE TRACK 01 AUDIO TITLE "Concerto in G Minor, RV 416: Allegro" PERFORMER "Vivaldi" INDEX 01 00:00:00 TRACK 02 AUDIO TITLE "Concerto in G Minor, RV 416: Largo" PERFORMER "Vivaldi" INDEX 01 03:30:42 TRACK 03 AUDIO TITLE "Concerto in G Minor, RV 416: Allegro" PERFORMER "Vivaldi" INDEX 01 06:10:07 TRACK 04 AUDIO TITLE "Concerto in F Major, RV 411: Allegro" PERFORMER "Vivaldi" INDEX 00 09:13:47 INDEX 01 09:18:27 TRACK 05 AUDIO TITLE "Concerto in F Major, RV 411: Largo" PERFORMER "Vivaldi" INDEX 01 12:17:57 TRACK 06 AUDIO TITLE "Concerto in F Major, RV 411: Allegro molto" PERFORMER "Vivaldi" INDEX 01 13:27:00 TRACK 07 AUDIO TITLE "Concerto in D Minor, RV 405: Allegro" PERFORMER "Vivaldi" INDEX 00 15:38:60 INDEX 01 15:42:55 TRACK 08 AUDIO TITLE "Concerto in D Minor, RV 405: Adagio" PERFORMER "Vivaldi" INDEX 01 18:48:42 TRACK 09 AUDIO TITLE "Concerto in D Minor, RV 405: Allegro" PERFORMER "Vivaldi" INDEX 01 21:11:42 TRACK 10 AUDIO TITLE "Concerto in in A Minor, RV 420: Andante" PERFORMER "Vivaldi" INDEX 00 23:41:53 INDEX 01 23:45:50 TRACK 11 AUDIO TITLE "Concerto in in A Minor, RV 420: Adagio" PERFORMER "Vivaldi" INDEX 01 27:42:67 TRACK 12 AUDIO TITLE "Concerto in in A Minor, RV 420: Allegro" PERFORMER "Vivaldi" INDEX 01 30:26:12 TRACK 13 AUDIO TITLE "Concerto in G Major, RV 414: Allegro molto" PERFORMER "Vivaldi" INDEX 00 34:08:58 INDEX 01 34:13:02 TRACK 14 AUDIO TITLE "Concerto in G Major, RV 414: Largo" PERFORMER "Vivaldi" INDEX 01 37:50:35 TRACK 15 AUDIO TITLE "Concerto in G Major, RV 414: Allegro" PERFORMER "Vivaldi" INDEX 01 41:18:45 TRACK 16 AUDIO TITLE "Concerto in G Minor, RV 417: Allegro" PERFORMER "Vivaldi" INDEX 00 44:34:52 INDEX 01 44:37:15 TRACK 17 AUDIO TITLE "Concerto in G Minor, RV 417: Andante" PERFORMER "Vivaldi" INDEX 01 47:25:45 TRACK 18 AUDIO TITLE "Concerto in G Minor, RV 417: Allegro" PERFORMER "Vivaldi" INDEX 01 50:14:42 TRACK 19 AUDIO TITLE "Concerto in A Minor, RV 421: Allegro non troppo" PERFORMER "Vivaldi" INDEX 00 53:28:55 INDEX 01 53:33:22 TRACK 20 AUDIO TITLE "Concerto in A Minor, RV 421: Largo" PERFORMER "Vivaldi" INDEX 01 56:54:02 TRACK 21 AUDIO TITLE "Concerto in A Minor, RV 421: Allegro" PERFORMER "Vivaldi" INDEX 01 58:48:47
Доп. информация:
Vol.1 - http://rutracker.org/forum/viewtopic.php?t=4957505
Vol.2 - http://rutracker.org/forum/viewtopic.php?t=4957513
Vol.3 - http://rutracker.org/forum/viewtopic.php?t=4957518
Vol.4 - http://rutracker.org/forum/viewtopic.php?t=4957526
[teatrix.ru].t9697.torrent 
Торрент: Зарегистрирован [ 2015-10-23 17:11 ] · 2306C92D557730885E4EC6D2D9D51D8CA1153F02

Скачать .torrent

Скачать

13 KB

Статус: проверено
Скачан: 0 раз
Размер: 298 MB
terms.php



Быстрый ответ

Имя:

      
Для отправки сообщений необходимо включить JavaScript
Показать сообщения:    

Текущее время: 05-Дек 19:34

Часовой пояс: UTC + 3


Вы можете начинать темы
Вы можете отвечать на сообщения
Вы не можете редактировать свои сообщения
Вы не можете удалять свои сообщения
Вы не можете голосовать в опросах
Вы не можете прикреплять файлы к сообщениям
Вы можете скачивать файлы