(Classical) Mozart - Piano Concertos Nos. 22, 24 - Angela Hewitt, National Arts Centre Orchestra, Hannu Lintu - 2014, FLAC (image+.cue) lossless


Статистика раздачи [Обновить пиров]
Размер:  229 MB   |    Зарегистрирован:  1 год 1 месяц   |    Скачан:  0 раз

Полного источника не было: Никогда

Личеров:  4  [  0 KB/s  ]   Подробная статистика пиров
 
   
 
 
 

[Цитировать]

Mozart - Piano Concertos Nos. 22, 24 - Angela Hewitt, National Arts Centre Orchestra, Hannu Lintu
Жанр: Classical
Страна-производитель диска: UK
Год издания диска: 2014
Издатель (лейбл): Hyperion
Номер по каталогу: CDA68049
Дата записи: 2013
Аудиокодек: FLAC
Тип рипа: image+.cue
Битрейт аудио: lossless
Продолжительность: 63:20
Источник: собственный рип
Наличие сканов в содержимом раздачи: да
Треклист:
Wolfgang Amadeus Mozart
[1]-[3] Piano Concerto No.22 in E flat major, K482
[4]-[6] Piano Concerto No.24 in С minor, K491
Исполнители:
Angela Hewitt piano
National Arts Centre Orchestra
Hannu Lintu
conductor

Лог создания рипа

Exact Audio Copy V1.0 beta 3 from 29. August 2011
EAC extraction logfile from 17. November 2014, 22:42
Angela Hewitt, National Arts Centre Orchestra, Hannu Lintu / Mozart - Piano Concertos Nos. 22 & 24
Used drive : HL-DT-STDVDRAM GU70N Adapter: 0 ID: 0
Read mode : SecureUtilize accurate stream : YesDefeat audio cache : YesMake use of C2 pointers : No
Read offset correction : 48Overread into Lead-In and Lead-Out : NoFill up missing offset samples with silence : YesDelete leading and trailing silent blocks : NoNull samples used in CRC calculations : YesUsed interface : Native Win32 interface for Win NT & 2000
Used output format : User Defined EncoderSelected bitrate : 128 kBit/sQuality : HighAdd ID3 tag : NoCommand line compressor : C:\Program Files (x86)\Exact Audio Copy\Flac\flac.exeAdditional command line options : -V -8 -T "Date=%year%" -T "Genre=%genre%" %source%
TOC of the extracted CD
Track | Start | Length | Start sector | End sector --------------------------------------------------------- 1 | 0:00.00 | 13:43.20 | 0 | 61744 2 | 13:43.20 | 8:01.56 | 61745 | 97875 3 | 21:45.01 | 10:57.09 | 97876 | 147159 4 | 32:42.10 | 13:56.07 | 147160 | 209866 5 | 46:38.17 | 7:18.19 | 209867 | 242735 6 | 53:56.36 | 9:22.25 | 242736 | 284910
Range status and errors
Selected range
Filename C:\temp\CDA68049 - Mozart - Piano Concertos Nos. 22, 24\CD\Mozart - Piano Concertos Nos. 22 & 24.wav
Peak level 95.7 % Extraction speed 5.2 X Range quality 100.0 % Test CRC 8D7A4339 Copy CRC 8D7A4339 Copy OK
No errors occurred
AccurateRip summary
Track 1 accurately ripped (confidence 2) [829CFA00] (AR v2)Track 2 accurately ripped (confidence 2) [A379A9D1] (AR v2)Track 3 accurately ripped (confidence 2) [73A93C6A] (AR v2)Track 4 accurately ripped (confidence 2) [D09B9DA9] (AR v2)Track 5 accurately ripped (confidence 2) [1AA5F0B1] (AR v2)Track 6 accurately ripped (confidence 2) [57A04A6F] (AR v2)
All tracks accurately ripped
End of status report
==== Log checksum B4CC69CB8819761C3939C119F4AC2BCA2F81DB48D076EBE347C8E16034CFAD43 ====
[teatrix.ru].t9698.torrent 
Торрент: Зарегистрирован [ 2015-10-23 17:11 ] · DB329B1102441B7402F20DCC3C0C010885049A09

Скачать .torrent

Скачать

37 KB

Статус: проверено
Скачан: 0 раз
Размер: 229 MB
terms.php



Быстрый ответ

Имя:

      
Для отправки сообщений необходимо включить JavaScript
Показать сообщения:    

Текущее время: 04-Дек 02:56

Часовой пояс: UTC + 3


Вы можете начинать темы
Вы можете отвечать на сообщения
Вы не можете редактировать свои сообщения
Вы не можете удалять свои сообщения
Вы не можете голосовать в опросах
Вы не можете прикреплять файлы к сообщениям
Вы можете скачивать файлы