(Contemporary Classical, Concerto) György (Gyorgy) Ligeti - Concertos for Cello, Violin & Piano (Jean-Guihen Queyras,Saschko Gawriloff, Pierre-Laurent Aimard, Ensemble InterContemporain, Pierre Boulez)- 1994, FLAC (image+.cue) lossless


Статистика раздачи [Обновить пиров]
Размер:  260 MB   |    Зарегистрирован:  1 год 1 месяц   |    Скачан:  1 раз

Полного источника не было: 11 месяцев 20 дней

Личеров:  2  [  0 KB/s  ]   Подробная статистика пиров
 
   
 
 
 

[Цитировать]

György Ligeti - Concertos for Cello, Violin & Piano Жанр: Contemporary Classical, Concerto
Страна-производитель диска: Germany
Год издания диска: 1994
Издатель (лейбл): Deutsche Grammophon
Номер по каталогу: 439 808-2
Дата записи: 1992-93
Аудиокодек: FLAC
Тип рипа: image+.cue
Битрейт аудио: lossless
Продолжительность: 01:07:10
Источник: соулсик
Наличие сканов в содержимом раздачи: да
Треклист:
György Ligeti (1923-2006)
Concerto for Piano and Orchestra (1985-8)
01. Vivace Molto Ritmico E Preciso - Attacca Subito 3:55
02. Lento e deserto 7:01
03. Vivace cantabile 4:23
04. Allegro risoluto, molto ritmico - 4:48
05. Presto luminoso, fluido, costante, sempre molto ritmico 3:25
Concerto for Cello and Orchestra (1966)
06. Quarter = 40: Attacca 6:54
07. (Lo stesso tempo) 8:19
Concerto for Violin and Orchestra (1990-2)
08. Praeludium: Vivacissimo Luminoso - Attacca: 4:18
09. Aria Hoquetus, Choral: Andante Con Moto - Attacca: 8:15
10. Intermezzo. Presto fluido 2:44
11. Passacaglia. Lento intenso 5:55
12. Appassionato. Agitato molto 7:13
Исполнители:
Pierre Boulez, conductor
Ensemble InterContemporain, ensemble
Pierre-Laurent Aimard, piano
Jean-Guihen Queyras, cello
Saschko Gawriloff, violin

Лог создания рипа

Exact Audio Copy V1.0 beta 3 from 29. August 2011
File di log EAC per l'estrazione del 23. Aprile 2013, 17:21
Pierre Boulez & Ensemble InterContemporain / Ligeti: Concertos for Piano, Cello, Violin
Unità predefinita : TSSTcorpCDDVDW SH-S203N Adapter: 1 ID: 0
Modalità di lettura : Burst
Correzione offset di lettura : 6Compensa lettura nel Lead-In e nel Lead-Out : NoRiempi sample offset mancanti con silenzio : SìRimuovi blocchi di silenzio ad inizio e fine traccia : NoUsa i sample nulli nel calcolo CRC : SìInterfaccia usata : Interfaccia nativa Win32 Per Windows XP/Vista/Win 7
Formato di destinazione scelto : Usa Encoder Definito Da UtenteBitrate selezionato : 768 kBit/sQualità : AltaAggiungi tag ID3 : SìCompressore a riga di comando : C:\Program Files\FLAC\FLAC frontend.exe
TOC del CD estratto
Traccia | Inizio | Lunghezza | Inizio settore | Fine settore ---------------------------------------------------------------- 1 | 0:00.33 | 3:54.50 | 33 | 17632 2 | 3:55.08 | 7:01.25 | 17633 | 49232 3 | 10:56.33 | 4:23.00 | 49233 | 68957 4 | 15:19.33 | 4:48.00 | 68958 | 90557 5 | 20:07.33 | 3:25.00 | 90558 | 105932 6 | 23:32.33 | 6:54.00 | 105933 | 136982 7 | 30:26.33 | 8:19.00 | 136983 | 174407 8 | 38:45.33 | 4:18.00 | 174408 | 193757 9 | 43:03.33 | 8:15.00 | 193758 | 230882 10 | 51:18.33 | 2:44.00 | 230883 | 243182 11 | 54:02.33 | 5:55.00 | 243183 | 269807 12 | 59:57.33 | 7:13.00 | 269808 | 302282
Stato intervallo ed errori
Intervallo selezionato
Nome file D:\BLOGGER DOWNLOAD\AA CD RIPPATI\Ligeti Concertos Boulez 1994\Pierre Boulez & Ensemble InterContemporain - Ligeti- Concertos for Piano, Cello, Violin.wav
Problema di timing 0:00:33
Livello di picco 99.9 % Velocità estrazione 26.0 X Copia CRC BB7B6464 Copia completata con successo
Non sono stati riscontrati errori
Sommario Accuraterip
Traccia 1 Estratta accuratamente (Confidence 5) [96040853] (AR v2)Traccia 2 Estratta accuratamente (Confidence 5) [08225E9C] (AR v2)Traccia 3 Estratta accuratamente (Confidence 5) [ED2B5163] (AR v2)Traccia 4 Estratta accuratamente (Confidence 5) [8386D887] (AR v2)Traccia 5 Estratta accuratamente (Confidence 5) [A7037929] (AR v2)Traccia 6 Estratta accuratamente (Confidence 5) [8A922964] (AR v2)Traccia 7 Estratta accuratamente (Confidence 5) [F4F05E3D] (AR v2)Traccia 8 Estratta accuratamente (Confidence 5) [28E2231B] (AR v2)Traccia 9 Estratta accuratamente (Confidence 5) [1BCF500A] (AR v2)Traccia 10 Estratta accuratamente (Confidence 5) [B7D54DCE] (AR v2)Traccia 11 Estratta accuratamente (Confidence 5) [3BAC64AF] (AR v2)Traccia 12 Estratta accuratamente (Confidence 5) [99D1D6A4] (AR v2)
Tutte le tracce sono state estratte accuratamente
Fine del resoconto di stato
[teatrix.ru].t9699.torrent 
Торрент: Зарегистрирован [ 2015-10-23 17:11 ] · 32E2969B91D451F297F5AE448DD9005A67743023

Скачать .torrent

Скачать

11 KB

Статус: проверено
Скачан: 1 раз
Размер: 260 MB
terms.php



Быстрый ответ

Имя:

      
Для отправки сообщений необходимо включить JavaScript
Показать сообщения:    

Текущее время: 09-Дек 04:59

Часовой пояс: UTC + 3


Вы можете начинать темы
Вы можете отвечать на сообщения
Вы не можете редактировать свои сообщения
Вы не можете удалять свои сообщения
Вы не можете голосовать в опросах
Вы не можете прикреплять файлы к сообщениям
Вы можете скачивать файлы