(Classical) Meisterwerke masterworks Ludwig van Beethoven / Сборник шедевров Людвига ван Бетховена [10 CD Box Set] - 2008, FLAC (image+.cue) lossless


Статистика раздачи [Обновить пиров]
Размер:  2.55 GB   |    Зарегистрирован:  1 год 1 месяц   |    Скачан:  0 раз

Полного источника не было: Никогда

Личеров:  1  [  0 KB/s  ]   Подробная статистика пиров
 
   
 
 
 

[Цитировать]

Meisterwerke masterworks Ludwig van Beethoven / Сборник шедевров Людвига ван Бетховена [10 CD Box Set]
Жанр: Classical
Страна-производитель диска: UK
Год издания диска: 2008
Издатель (лейбл): Brilliant Classics
Аудиокодек: FLAC
Тип рипа: image+.cue
Битрейт аудио: lossless
Продолжительность: 11 hr. 8 min.
Источник: собственный рип
Наличие сканов в содержимом раздачи: да

CD1: Syphonies 5&6

Треклист:Symphony No.5 in C minor Op.67:1. Allegro con brio2. Andante con moto3. Allegro4. Allegro-prestoSymphony No.6 in F major Op.68 "Pastorale":5. Erwachen heiterer Empfindugen bei der Ankunft auf dem Lande-Allegro mo non troppo6. Szene am Bach-Andante molto mosso7. Lustiges Zusammensein der Landleute-Allegro8. Gewitter, Sturm-Allegro9. Hirtengesang-Frohe und dankbare Gefuhle nach dem Sturm-AllegrettoИсполнители:Staatskapelle Dresden,Herbert Blomstedt

Лог создания рипа

Exact Audio Copy V1.0 beta 6 from 9. April 2015
Отчёт EAC об извлечении, выполненном 12. июля 2015, 20:44
Ludwig van Beethoven / Meisterwerke masterworks Beethoven
Дисковод: ASUS DRW-24B5ST Adapter: 1 ID: 0
Режим чтения : Достоверность
Использование точного потока : Да
Отключение кэша аудио : Да
Использование указателей C2 : Нет
Коррекция смещения при чтении : 6
Способность читать области Lead-in и Lead-out : Нет
Заполнение пропущенных сэмплов тишиной : Да
Удаление блоков с тишиной в начале и конце : Нет
При вычислениях CRC использовались нулевые сэмплы : Да
Интерфейс : Встроенный Win32-интерфейс для Win NT/2000
Выходной формат : Пользовательский кодировщик
Выбранный битрейт : 128 kBit/s
Качество : Высокий
Добавление ID3-тега : Нет
Утилита сжатия : C:\Program Files (x86)\Exact Audio Copy\flac-1.3.1-win\win64\flac.exe
Дополнительные параметры : -V -8 -T "Date=%year%" -T "Genre=%genre%" %source%
TOC извлечённого CD
Трек | Старт | Длительность | Начальный сектор | Конечный сектор
---------------------------------------------------------------------
1 | 0:00.00 | 8:05.37 | 0 | 36411
2 | 8:05.37 | 11:21.50 | 36412 | 87536
3 | 19:27.12 | 8:53.23 | 87537 | 127534
4 | 28:20.35 | 9:02.67 | 127535 | 168251
5 | 37:23.27 | 9:31.33 | 168252 | 211109
6 | 46:54.60 | 12:40.62 | 211110 | 268171
7 | 59:35.47 | 5:44.25 | 268172 | 293996
8 | 65:19.72 | 3:42.50 | 293997 | 310696
9 | 69:02.47 | 9:51.10 | 310697 | 355031
Характеристики диапазона извлечения и сообщения об ошибках
Выбранный диапазон
Имя файла C:\Users\Тарик\Music\Бетховен\Meisterwerke masterworks\CD1 Symphonies 5&6\Ludwig van Beethoven - Meisterwerke masterworks Beethoven.wav
Пиковый уровень 98.0 %
Скорость извлечения 10.3 X
Качество диапазона 100.0 %
CRC теста 9A57D997
CRC копии 9A57D997
Копирование... OK
Ошибок не произошло
AccurateRip: сводка
Трек 1 : извлечено точно (доверие 23) [9FA21727] (AR v2)
Трек 2 : извлечено точно (доверие 23) [6A9932E9] (AR v2)
Трек 3 : извлечено точно (доверие 23) [117776E6] (AR v2)
Трек 4 : извлечено точно (доверие 23) [70D08253] (AR v2)
Трек 5 : извлечено точно (доверие 23) [F8D1C4B6] (AR v2)
Трек 6 : извлечено точно (доверие 23) [C53961A5] (AR v2)
Трек 7 : извлечено точно (доверие 23) [FCADD750] (AR v2)
Трек 8 : извлечено точно (доверие 23) [A4964D98] (AR v2)
Трек 9 : извлечено точно (доверие 23) [CFACC769] (AR v2)
Все треки извлечены точно
Конец отчёта
==== Контрольная сумма отчёта 8EF49ED2D8EBDBE28CDCB7272D0A3BF534101EE318C46392D292FEC7A228777F ====

Содержание индексной карты (.CUE)

REM GENRE Classical
REM DISCID 80127D09
REM COMMENT "ExactAudioCopy v1.0b6"
PERFORMER "Ludwig van Beethoven"
TITLE "Meisterwerke masterworks Beethoven"
FILE "Ludwig van Beethoven - Meisterwerke masterworks Beethoven.flac" WAVE
TRACK 01 AUDIO
TITLE "Symphony No.5 in C minor Op.67 Allegro con brio"
PERFORMER "Ludwig van Beethoven"
INDEX 01 00:00:00
TRACK 02 AUDIO
TITLE "Symphony No.5 in C minor Op.67 Andante con moto"
PERFORMER "Ludwig van Beethoven"
INDEX 01 08:05:37
TRACK 03 AUDIO
TITLE "Symphony No.5 in C minor Op.67 Allegro"
PERFORMER "Ludwig van Beethoven"
INDEX 01 19:27:12
TRACK 04 AUDIO
TITLE "Symphony No.5 in C minor Op.67 Allegro-presto"
PERFORMER "Ludwig van Beethoven"
INDEX 01 28:20:35
TRACK 05 AUDIO
TITLE "Symphony No.6 in F major Op.68 'Pastorale' Allegro ma non troppo"
PERFORMER "Ludwig van Beethoven"
INDEX 00 37:13:00
INDEX 01 37:23:27
TRACK 06 AUDIO
TITLE "Symphony No.6 in F major Op.68 'Pastorale' Andante molto mosso"
PERFORMER "Ludwig van Beethoven"
INDEX 01 46:54:60
TRACK 07 AUDIO
TITLE "Symphony No.6 in F major Op.68 'Pastorale' Allegro"
PERFORMER "Ludwig van Beethoven"
INDEX 01 59:35:47
TRACK 08 AUDIO
TITLE "Symphony No.6 in F major Op.68 'Pastorale' Allegro"
PERFORMER "Ludwig van Beethoven"
INDEX 01 65:19:72
TRACK 09 AUDIO
TITLE "Symphony No.6 in F major Op.68 'Pastorale' Allegretto"
PERFORMER "Ludwig van Beethoven"
INDEX 01 69:02:47

CD2: Symphony No.9

Треклист:Symphony No. 9 in D minor Op. 125Mit Schlusschor uber Schillers Ode An Die Freude1. Allegro mo non troppo, un poco maestoso2. Molto vivace3. Adagio molto e cantabile4. Presto
Исполнители:Helena Doese, sopranoMarga Schiml, altoPeter Schreier, tenorTheo Adam, bass
Rundfunkchor LeipzigChor der Staatsoper Dresden
Staatskapelle Dresden,Herbert Blomstedt

Лог создания рипа

Exact Audio Copy V1.0 beta 6 from 9. April 2015
Отчёт EAC об извлечении, выполненном 14. июля 2015, 20:02
Ludwig van Beethoven / Meisterwerke masterworks Beethoven
Дисковод: ASUS DRW-24B5ST Adapter: 1 ID: 0
Режим чтения : Достоверность
Использование точного потока : Да
Отключение кэша аудио : Да
Использование указателей C2 : Нет
Коррекция смещения при чтении : 6
Способность читать области Lead-in и Lead-out : Нет
Заполнение пропущенных сэмплов тишиной : Да
Удаление блоков с тишиной в начале и конце : Нет
При вычислениях CRC использовались нулевые сэмплы : Да
Интерфейс : Встроенный Win32-интерфейс для Win NT/2000
Выходной формат : Пользовательский кодировщик
Выбранный битрейт : 128 kBit/s
Качество : Высокий
Добавление ID3-тега : Нет
Утилита сжатия : C:\Program Files (x86)\Exact Audio Copy\flac-1.3.1-win\win64\flac.exe
Дополнительные параметры : -V -8 -T "Date=%year%" -T "Genre=%genre%" %source%
TOC извлечённого CD
Трек | Старт | Длительность | Начальный сектор | Конечный сектор
---------------------------------------------------------------------
1 | 0:00.00 | 16:55.00 | 0 | 76124
2 | 16:55.00 | 13:47.67 | 76125 | 138216
3 | 30:42.67 | 16:24.53 | 138217 | 212069
4 | 47:07.45 | 25:09.22 | 212070 | 325266
Характеристики диапазона извлечения и сообщения об ошибках
Выбранный диапазон
Имя файла C:\Users\Тарик\Music\Бетховен\Meisterwerke masterworks\CD2 Symphony No.9\Ludwig van Beethoven - Meisterwerke masterworks Beethoven.wav
Пиковый уровень 98.1 %
Скорость извлечения 9.4 X
Качество диапазона 99.9 %
CRC теста A0C8347F
CRC копии A0C8347F
Копирование... OK
Ошибок не произошло
AccurateRip: сводка
Трек 1 : извлечено точно (доверие 26) [51716CFE] (AR v2)
Трек 2 : извлечено точно (доверие 26) [D013C053] (AR v2)
Трек 3 : извлечено точно (доверие 26) [B3530B2F] (AR v2)
Трек 4 : извлечено точно (доверие 24) [B6939B3D] (AR v2)
Все треки извлечены точно
Конец отчёта
==== Контрольная сумма отчёта E1FA6300074F887F9A1348AA04E5BD07C5E1AE476307C29B50EF7F722BE826D8 ====

Содержание индексной карты (.CUE)

REM GENRE Classical
REM DISCID 3110F004
REM COMMENT "ExactAudioCopy v1.0b6"
CATALOG 0000000000000
PERFORMER "Ludwig van Beethoven"
TITLE "Meisterwerke masterworks Beethoven"
FILE "Ludwig van Beethoven - Meisterwerke masterworks Beethoven.flac" WAVE
TRACK 01 AUDIO
TITLE "Symphony No.9 in D minor Op.125 Allegro ma non troppo, un poco maestoso"
PERFORMER "Ludwig van Beethoven"
INDEX 01 00:00:00
TRACK 02 AUDIO
TITLE "Symphony No.9 in D minor Op.125 Molto vivace"
PERFORMER "Ludwig van Beethoven"
INDEX 01 16:55:00
TRACK 03 AUDIO
TITLE "Symphony No.9 in D minor Op.125 Adagio milto e cantabile"
PERFORMER "Ludwig van Beethoven"
INDEX 01 30:42:67
TRACK 04 AUDIO
TITLE "Symphony No.9 in D minor Op.125 Presto"
PERFORMER "Ludwig van Beethoven"
INDEX 01 47:07:45

CD3: Piano Concertos 1&4

Треклист:Piano concerto No. 1 in C major Op. 151. Allegro con brio2. Largo3. Rondo, allegro scherzandoPiano concerto No. 4 in G major Op. 584. Allegro moderato5. Andante con moto6. Rondo, vivace
Исполнители:Shoko Sugitani, pianoBerliner symphoniker,Gerard Oskamp

Лог создания рипа

Exact Audio Copy V1.0 beta 6 from 9. April 2015
Отчёт EAC об извлечении, выполненном 10. июля 2015, 19:46
Ludwig van Beethoven / Meisterwerke masterworks Beethoven
Дисковод: ASUS DRW-24B5ST Adapter: 1 ID: 0
Режим чтения : Достоверность
Использование точного потока : Да
Отключение кэша аудио : Да
Использование указателей C2 : Нет
Коррекция смещения при чтении : 6
Способность читать области Lead-in и Lead-out : Нет
Заполнение пропущенных сэмплов тишиной : Да
Удаление блоков с тишиной в начале и конце : Нет
При вычислениях CRC использовались нулевые сэмплы : Да
Интерфейс : Встроенный Win32-интерфейс для Win NT/2000
Выходной формат : Пользовательский кодировщик
Выбранный битрейт : 128 kBit/s
Качество : Высокий
Добавление ID3-тега : Нет
Утилита сжатия : C:\Program Files (x86)\Exact Audio Copy\flac-1.3.1-win\win64\flac.exe
Дополнительные параметры : -V -8 -T "Date=%year%" -T "Genre=%genre%" %source%
TOC извлечённого CD
Трек | Старт | Длительность | Начальный сектор | Конечный сектор
---------------------------------------------------------------------
1 | 0:01.00 | 18:19.44 | 75 | 82543
2 | 18:20.44 | 12:43.37 | 82544 | 139805
3 | 31:04.06 | 9:00.47 | 139806 | 180352
4 | 40:04.53 | 20:47.30 | 180353 | 273907
5 | 60:52.08 | 6:20.30 | 273908 | 302437
6 | 67:12.38 | 10:09.44 | 302438 | 348156
Характеристики диапазона извлечения и сообщения об ошибках
Выбранный диапазон
Имя файла C:\Users\Тарик\Music\Бетховен\Meisterwerke masterworks\CD3\Ludwig van Beethoven - Meisterwerke masterworks Beethoven.wav
Пиковый уровень 96.4 %
Скорость извлечения 10.0 X
Качество диапазона 100.0 %
CRC теста FF65F3E4
CRC копии FF65F3E4
Копирование... OK
Ошибок не произошло
AccurateRip: сводка
Трек 1 : извлечено точно (доверие 6) [DB5A4D88] (AR v2)
Трек 2 : извлечено точно (доверие 6) [566C9DE3] (AR v2)
Трек 3 : извлечено точно (доверие 6) [2A222BD7] (AR v2)
Трек 4 : извлечено точно (доверие 6) [7270F157] (AR v2)
Трек 5 : извлечено точно (доверие 6) [29A3ECAE] (AR v2)
Трек 6 : извлечено точно (доверие 5) [C87F881D] (AR v2)
Все треки извлечены точно
Конец отчёта
==== Контрольная сумма отчёта 78660B021DEC0BC66B8154E87C28E426AD67C1C11AD6969E77DBAE7BCA9442D1 ====

Содержание индексной карты (.CUE)

REM GENRE Classical
REM DISCID 45122106
REM COMMENT "ExactAudioCopy v1.0b6"
PERFORMER "Ludwig van Beethoven"
TITLE "Meisterwerke masterworks Beethoven"
FILE "Ludwig van Beethoven - Meisterwerke masterworks Beethoven.flac" WAVE
TRACK 01 AUDIO
TITLE "Piano concerto #1 in C major Op.15 Allegro con brio"
PERFORMER "Ludwig van Beethoven"
FLAGS DCP
INDEX 00 00:00:00
INDEX 01 00:01:00
TRACK 02 AUDIO
TITLE "Piano concerto #1 in C major Op.15 Largo"
PERFORMER "Ludwig van Beethoven"
FLAGS DCP
INDEX 00 18:15:74
INDEX 01 18:20:44
TRACK 03 AUDIO
TITLE "Piano concerto #1 in C major Op.15 Rondo, allegro scherzando"
PERFORMER "Ludwig van Beethoven"
FLAGS DCP
INDEX 00 31:00:37
INDEX 01 31:04:06
TRACK 04 AUDIO
TITLE "Piano concerto #4 in G major Op.58 Allegro moderato"
PERFORMER "Ludwig van Beethoven"
FLAGS DCP
INDEX 00 40:00:08
INDEX 01 40:04:53
TRACK 05 AUDIO
TITLE "Piano concerto #4 in G major Op.58 Andante con moto"
PERFORMER "Ludwig van Beethoven"
FLAGS DCP
INDEX 01 60:52:08
TRACK 06 AUDIO
TITLE "Piano concerto #4 in G major Op.58 Rondo, vivace"
PERFORMER "Ludwig van Beethoven"
FLAGS DCP
INDEX 01 67:12:38

CD4: Piano Concertos 3&5

Треклист:Piano concerto No. 3 in C minor Op. 371. Allegro con brio2. Largo3. Rondo, allegroPiano concerto No. 5 in E flat major Op. 73 "Emperor Concerto"4. Allegro5. Adagio un poco mosso6. Rondo, allegro ma non troppo
Исполнители:Shoko Sugitani, pianoBerliner symphoniker,Gerard Oskamp

Лог создания рипа

Exact Audio Copy V1.0 beta 6 from 9. April 2015
Отчёт EAC об извлечении, выполненном 15. июля 2015, 22:50
Ludwig van Beethoven / Meisterwerke masterworks Beethoven
Дисковод: ASUS DRW-24B5ST Adapter: 1 ID: 0
Режим чтения : Достоверность
Использование точного потока : Да
Отключение кэша аудио : Да
Использование указателей C2 : Нет
Коррекция смещения при чтении : 6
Способность читать области Lead-in и Lead-out : Нет
Заполнение пропущенных сэмплов тишиной : Да
Удаление блоков с тишиной в начале и конце : Нет
При вычислениях CRC использовались нулевые сэмплы : Да
Интерфейс : Встроенный Win32-интерфейс для Win NT/2000
Выходной формат : Пользовательский кодировщик
Выбранный битрейт : 128 kBit/s
Качество : Высокий
Добавление ID3-тега : Нет
Утилита сжатия : C:\Program Files (x86)\Exact Audio Copy\flac-1.3.1-win\win64\flac.exe
Дополнительные параметры : -V -8 -T "Date=%year%" -T "Genre=%genre%" %source%
TOC извлечённого CD
Трек | Старт | Длительность | Начальный сектор | Конечный сектор
---------------------------------------------------------------------
1 | 0:01.00 | 17:09.05 | 75 | 77254
2 | 17:10.05 | 10:33.57 | 77255 | 124786
3 | 27:43.62 | 9:13.20 | 124787 | 166281
4 | 36:57.07 | 20:12.38 | 166282 | 257219
5 | 57:09.45 | 8:42.34 | 257220 | 296403
6 | 65:52.04 | 10:50.60 | 296404 | 345213
Характеристики диапазона извлечения и сообщения об ошибках
Выбранный диапазон
Имя файла C:\Users\Тарик\Music\Бетховен\Meisterwerke masterworks\CD4 Piano concertos 3&5\Ludwig van Beethoven - Meisterwerke masterworks Beethoven.wav
Пиковый уровень 94.6 %
Скорость извлечения 9.8 X
Качество диапазона 99.9 %
CRC теста 13CDF05B
CRC копии 13CDF05B
Копирование... OK
Ошибок не произошло
AccurateRip: сводка
Трек 1 : извлечено точно (доверие 6) [E8009B6A] (AR v2)
Трек 2 : извлечено точно (доверие 6) [5FAFD31B] (AR v2)
Трек 3 : извлечено точно (доверие 6) [154D7FEC] (AR v2)
Трек 4 : извлечено точно (доверие 6) [4C98A2C7] (AR v2)
Трек 5 : извлечено точно (доверие 6) [B5BDAEBB] (AR v2)
Трек 6 : извлечено точно (доверие 5) [F90305FE] (AR v2)
Все треки извлечены точно
Конец отчёта
==== Контрольная сумма отчёта FC99C0B51C1C6B70CC133794E8AB85A844D1762E7426EC287778F098CE5891CD ====

Содержание индексной карты (.CUE)

REM GENRE Classical
REM DISCID 4911F906
REM COMMENT "ExactAudioCopy v1.0b6"
PERFORMER "Ludwig van Beethoven"
TITLE "Meisterwerke masterworks Beethoven"
FILE "Ludwig van Beethoven - Meisterwerke masterworks Beethoven.flac" WAVE
TRACK 01 AUDIO
TITLE "Piano concerto No. 3 in C minor Op. 37 Allegro con brio"
PERFORMER "Ludwig van Beethoven"
FLAGS DCP
INDEX 00 00:00:00
INDEX 01 00:01:00
TRACK 02 AUDIO
TITLE "Piano concerto No. 3 in C minor Op. 37 Largo"
PERFORMER "Ludwig van Beethoven"
FLAGS DCP
INDEX 00 17:07:35
INDEX 01 17:10:05
TRACK 03 AUDIO
TITLE "Piano concerto No. 3 in C minor Op. 37 Rondo, allegro"
PERFORMER "Ludwig van Beethoven"
FLAGS DCP
INDEX 00 27:43:01
INDEX 01 27:43:62
TRACK 04 AUDIO
TITLE "Piano concerto No. 5 in E flat major Op. 73 Allegro"
PERFORMER "Ludwig van Beethoven"
FLAGS DCP
INDEX 00 36:50:38
INDEX 01 36:57:07
TRACK 05 AUDIO
TITLE "Piano concerto No. 5 in E flat major Op. 73 Adagio un poco mosso"
PERFORMER "Ludwig van Beethoven"
FLAGS DCP
INDEX 00 57:05:00
INDEX 01 57:09:45
TRACK 06 AUDIO
TITLE "Piano concerto No. 5 in E flat major Op. 73 Rondo, allegro ma non troppo"
PERFORMER "Ludwig van Beethoven"
FLAGS DCP
INDEX 01 65:52:04

CD5: Violin Concerto, Romances for Violin & Orchestra

Треклист:Violin concerto in D major Op. 611. Allegro ma non troppo2. Larghetto3. Rondo4. Romance for violin & orchestra No. 2 in F major Op. 505. Romance for violin & orchestra No. 1 in G major Op. 40
Исполнители:Emmy Verhey, violin
Utracht symphony orchestra,Hans Vonk (1-3)
Royal philarmonic orchestra,Hans Vonk (4)
Brabant orchestra,Eduardo Marturet (5)

Лог создания рипа

Exact Audio Copy V1.0 beta 6 from 9. April 2015
Отчёт EAC об извлечении, выполненном 11. июля 2015, 14:42
Ludwig van Beethoven / Meisterwerke masterworks Beethoven
Дисковод: ASUS DRW-24B5ST Adapter: 1 ID: 0
Режим чтения : Достоверность
Использование точного потока : Да
Отключение кэша аудио : Да
Использование указателей C2 : Нет
Коррекция смещения при чтении : 6
Способность читать области Lead-in и Lead-out : Нет
Заполнение пропущенных сэмплов тишиной : Да
Удаление блоков с тишиной в начале и конце : Нет
При вычислениях CRC использовались нулевые сэмплы : Да
Интерфейс : Встроенный Win32-интерфейс для Win NT/2000
Выходной формат : Пользовательский кодировщик
Выбранный битрейт : 128 kBit/s
Качество : Высокий
Добавление ID3-тега : Нет
Утилита сжатия : C:\Program Files (x86)\Exact Audio Copy\flac-1.3.1-win\win64\flac.exe
Дополнительные параметры : -V -8 -T "Date=%year%" -T "Genre=%genre%" %source%
TOC извлечённого CD
Трек | Старт | Длительность | Начальный сектор | Конечный сектор
---------------------------------------------------------------------
1 | 0:00.33 | 25:53.57 | 33 | 116564
2 | 25:54.15 | 9:49.30 | 116565 | 160769
3 | 35:43.45 | 10:49.23 | 160770 | 209467
4 | 46:32.68 | 9:12.05 | 209468 | 250872
5 | 55:44.73 | 7:34.32 | 250873 | 284954
Характеристики диапазона извлечения и сообщения об ошибках
Выбранный диапазон
Имя файла C:\Users\Тарик\Music\Бетховен\Meisterwerke masterworks\CD5\Ludwig van Beethoven - Meisterwerke masterworks Beethoven.wav
Пиковый уровень 93.3 %
Скорость извлечения 8.7 X
Качество диапазона 99.9 %
CRC теста 5D7C9DBB
CRC копии 5D7C9DBB
Копирование... OK
Ошибок не произошло
AccurateRip: сводка
Трек 1 : извлечено точно (доверие 6) [7778710D] (AR v2)
Трек 2 : извлечено точно (доверие 6) [3F3CB4EE] (AR v2)
Трек 3 : извлечено точно (доверие 6) [6BDF6DDA] (AR v2)
Трек 4 : извлечено точно (доверие 6) [8F070FBF] (AR v2)
Трек 5 : извлечено точно (доверие 6) [83203532] (AR v2)
Все треки извлечены точно
Конец отчёта
==== Контрольная сумма отчёта F0958A287F40446F12EC0E31D61A134B47DB41EDB15FDFB0ABD266DB53470652 ====

Содержание индексной карты (.CUE)

REM GENRE Classical
REM DISCID 450ED705
REM COMMENT "ExactAudioCopy v1.0b6"
PERFORMER "Ludwig van Beethoven"
TITLE "Meisterwerke masterworks Beethoven"
FILE "Ludwig van Beethoven - Meisterwerke masterworks Beethoven.flac" WAVE
TRACK 01 AUDIO
TITLE "Violin concerto in D major Op.61 Allegro ma non troppo"
PERFORMER "Ludwig van Beethoven"
INDEX 00 00:00:00
INDEX 01 00:00:33
TRACK 02 AUDIO
TITLE "Violin concerto in D major Op.61 Larghetto"
PERFORMER "Ludwig van Beethoven"
INDEX 00 25:49:33
INDEX 01 25:54:15
TRACK 03 AUDIO
TITLE "Violin concerto in D major Op.61 Rondo"
PERFORMER "Ludwig van Beethoven"
INDEX 01 35:43:45
TRACK 04 AUDIO
TITLE "Romance for violin & orchestra No.2 in F major Op.50"
PERFORMER "Ludwig van Beethoven"
INDEX 00 46:25:53
INDEX 01 46:32:68
TRACK 05 AUDIO
TITLE "Romance for Violin & orchestra No.1 in G major Op.40"
PERFORMER "Ludwig van Beethoven"
INDEX 00 55:38:09
INDEX 01 55:44:73

CD6: Violin Sonatas

Треклист:Violin sonata Op. 24 in F major "Fruhling" (Spring)1. Allegro2. Adagio molto espressivo3. Scherzo, allegro molto4. Rondo, allegro mo non troppoViolin sonata Op. 47 in A major "Kreutzer"5. Adagio sostenuto-presto6. Andante con variazioni7. Finale, presto
Исполнители:Emmy Verhey, violinCarlos Moerdijk, piano

Лог создания рипа

Exact Audio Copy V1.0 beta 6 from 9. April 2015
Отчёт EAC об извлечении, выполненном 16. июля 2015, 22:04
Ludwig van Beethoven / Meisterwerke masterworks Beethoven
Дисковод: ASUS DRW-24B5ST Adapter: 1 ID: 0
Режим чтения : Достоверность
Использование точного потока : Да
Отключение кэша аудио : Да
Использование указателей C2 : Нет
Коррекция смещения при чтении : 6
Способность читать области Lead-in и Lead-out : Нет
Заполнение пропущенных сэмплов тишиной : Да
Удаление блоков с тишиной в начале и конце : Нет
При вычислениях CRC использовались нулевые сэмплы : Да
Интерфейс : Встроенный Win32-интерфейс для Win NT/2000
Выходной формат : Пользовательский кодировщик
Выбранный битрейт : 128 kBit/s
Качество : Высокий
Добавление ID3-тега : Нет
Утилита сжатия : C:\Program Files (x86)\Exact Audio Copy\flac-1.3.1-win\win64\flac.exe
Дополнительные параметры : -V -8 -T "Date=%year%" -T "Genre=%genre%" %source%
TOC извлечённого CD
Трек | Старт | Длительность | Начальный сектор | Конечный сектор
---------------------------------------------------------------------
1 | 0:00.00 | 10:10.10 | 0 | 45759
2 | 10:10.10 | 6:07.55 | 45760 | 73339
3 | 16:17.65 | 1:20.13 | 73340 | 79352
4 | 17:38.03 | 7:07.22 | 79353 | 111399
5 | 24:45.25 | 12:13.43 | 111400 | 166417
6 | 36:58.68 | 16:59.35 | 166418 | 242877
7 | 53:58.28 | 8:17.10 | 242878 | 280162
Характеристики диапазона извлечения и сообщения об ошибках
Выбранный диапазон
Имя файла C:\Users\Тарик\Music\Бетховен\Meisterwerke masterworks\CD6 Violin Sonatas\Ludwig van Beethoven - Meisterwerke masterworks Beethoven.wav
Пиковый уровень 99.3 %
Скорость извлечения 9.3 X
Качество диапазона 100.0 %
CRC теста 6E99F4C8
CRC копии 6E99F4C8
Копирование... OK
Ошибок не произошло
AccurateRip: сводка
Трек 1 : извлечено точно (доверие 5) [269BE86A] (AR v2)
Трек 2 : извлечено точно (доверие 5) [2A5AD530] (AR v2)
Трек 3 : извлечено точно (доверие 5) [793DD707] (AR v2)
Трек 4 : извлечено точно (доверие 5) [FA84580D] (AR v2)
Трек 5 : извлечено точно (доверие 5) [DCC77172] (AR v2)
Трек 6 : извлечено точно (доверие 5) [8F19990E] (AR v2)
Трек 7 : извлечено точно (доверие 5) [B89159E6] (AR v2)
Все треки извлечены точно
Конец отчёта
==== Контрольная сумма отчёта F5FD3382A98D42F930ED178C8A033A1316C8AF719C38E5A0789BFB9755E1A253 ====

Содержание индексной карты (.CUE)

REM GENRE Classical
REM DISCID 4E0E9707
REM COMMENT "ExactAudioCopy v1.0b6"
PERFORMER "Ludwig van Beethoven"
TITLE "Meisterwerke masterworks Beethoven"
FILE "Ludwig van Beethoven - Meisterwerke masterworks Beethoven.flac" WAVE
TRACK 01 AUDIO
TITLE "Violin sonata Op.24 in F major Spring Allegro"
PERFORMER "Ludwig van Beethoven"
INDEX 01 00:00:00
TRACK 02 AUDIO
TITLE "Violin sonata Op.24 in F major Spring Adagio molto espressivo"
PERFORMER "Ludwig van Beethoven"
INDEX 00 10:04:70
INDEX 01 10:10:10
TRACK 03 AUDIO
TITLE "Violin sonata Op.24 in F major Spring Scherzo, allegro molto"
PERFORMER "Ludwig van Beethoven"
INDEX 00 16:14:10
INDEX 01 16:17:65
TRACK 04 AUDIO
TITLE "Violin sonata Op.24 in F major Spring Rondo, allegro ma non troppo"
PERFORMER "Ludwig van Beethoven"
INDEX 01 17:38:03
TRACK 05 AUDIO
TITLE "Violin sonata Op.47 in A major Kreutzer Adagio sostenuto-presto"
PERFORMER "Ludwig van Beethoven"
INDEX 00 24:43:20
INDEX 01 24:45:25
TRACK 06 AUDIO
TITLE "Violin sonata Op.47 in A major Kreutzer Andante con variazioni"
PERFORMER "Ludwig van Beethoven"
INDEX 00 36:52:08
INDEX 01 36:58:68
TRACK 07 AUDIO
TITLE "Violin sonata Op.47 in A major Kreutzer Finale, presto"
PERFORMER "Ludwig van Beethoven"
INDEX 00 53:54:03
INDEX 01 53:58:28

CD7: Violin Sonatas

Треклист:Violin sonata Op. 30 No. 1 in A major1. Allegro2. Adagio3. Allegretto con variazioniViolin sonata Op. 96 in G major4. Allegro moderato5. Adagio espressivo6. Scherzo, allegro7. Poco allegretto
Исполнители:Emmy Verhey, violinCarlos Moerdijk, piano

Лог создания рипа

Exact Audio Copy V1.0 beta 6 from 9. April 2015
Отчёт EAC об извлечении, выполненном 17. июля 2015, 21:30
Ludwig van Beethoven / Meisterwerke masterworks Beethoven
Дисковод: ASUS DRW-24B5ST Adapter: 1 ID: 0
Режим чтения : Достоверность
Использование точного потока : Да
Отключение кэша аудио : Да
Использование указателей C2 : Нет
Коррекция смещения при чтении : 6
Способность читать области Lead-in и Lead-out : Нет
Заполнение пропущенных сэмплов тишиной : Да
Удаление блоков с тишиной в начале и конце : Нет
При вычислениях CRC использовались нулевые сэмплы : Да
Интерфейс : Встроенный Win32-интерфейс для Win NT/2000
Выходной формат : Пользовательский кодировщик
Выбранный битрейт : 128 kBit/s
Качество : Высокий
Добавление ID3-тега : Нет
Утилита сжатия : C:\Program Files (x86)\Exact Audio Copy\flac-1.3.1-win\win64\flac.exe
Дополнительные параметры : -V -8 -T "Date=%year%" -T "Genre=%genre%" %source%
TOC извлечённого CD
Трек | Старт | Длительность | Начальный сектор | Конечный сектор
---------------------------------------------------------------------
1 | 0:00.00 | 7:48.23 | 0 | 35122
2 | 7:48.23 | 7:34.47 | 35123 | 69219
3 | 15:22.70 | 8:35.58 | 69220 | 107902
4 | 23:58.53 | 11:44.20 | 107903 | 160722
5 | 35:42.73 | 5:58.12 | 160723 | 187584
6 | 41:41.10 | 2:05.30 | 187585 | 196989
7 | 43:46.40 | 9:49.28 | 196990 | 241192
Характеристики диапазона извлечения и сообщения об ошибках
Выбранный диапазон
Имя файла C:\Users\Тарик\Music\Бетховен\Meisterwerke masterworks\CD7 Violin Sonatas\Ludwig van Beethoven - Meisterwerke masterworks Beethoven.wav
Пиковый уровень 96.9 %
Скорость извлечения 8.9 X
Качество диапазона 100.0 %
CRC теста FA562843
CRC копии FA562843
Копирование... OK
Ошибок не произошло
AccurateRip: сводка
Трек 1 : извлечено точно (доверие 5) [4E92BF4B] (AR v2)
Трек 2 : извлечено точно (доверие 5) [85EE579F] (AR v2)
Трек 3 : извлечено точно (доверие 5) [09F5870B] (AR v2)
Трек 4 : извлечено точно (доверие 5) [DA682705] (AR v2)
Трек 5 : извлечено точно (доверие 5) [39D18536] (AR v2)
Трек 6 : извлечено точно (доверие 5) [B9FC2378] (AR v2)
Трек 7 : извлечено точно (доверие 5) [5A14708B] (AR v2)
Все треки извлечены точно
Конец отчёта
==== Контрольная сумма отчёта 32AB012B4B19384FC9B517BA1A0404779F93D7649A62EE58C8D3165C5B7CCE38 ====

Содержание индексной карты (.CUE)

REM GENRE Classical
REM DISCID 4C0C8F07
REM COMMENT "ExactAudioCopy v1.0b6"
PERFORMER "Ludwig van Beethoven"
TITLE "Meisterwerke masterworks Beethoven"
FILE "Ludwig van Beethoven - Meisterwerke masterworks Beethoven.flac" WAVE
TRACK 01 AUDIO
TITLE "Violin sonata Op.30 No.1 in A major Allegro"
PERFORMER "Ludwig van Beethoven"
INDEX 01 00:00:00
TRACK 02 AUDIO
TITLE "Violin sonata Op.30 No.1 in A major Adagio"
PERFORMER "Ludwig van Beethoven"
INDEX 00 07:41:08
INDEX 01 07:48:23
TRACK 03 AUDIO
TITLE "Violin sonata Op.30 No.1 in A major Allegretto con variacioni"
PERFORMER "Ludwig van Beethoven"
INDEX 00 15:18:13
INDEX 01 15:22:70
TRACK 04 AUDIO
TITLE "Violin sonata Op.96 in G major Allegro moderato"
PERFORMER "Ludwig van Beethoven"
INDEX 00 23:58:25
INDEX 01 23:58:53
TRACK 05 AUDIO
TITLE "Violin sonata Op.96 in G major Adagio espressivo"
PERFORMER "Ludwig van Beethoven"
INDEX 00 35:38:53
INDEX 01 35:42:73
TRACK 06 AUDIO
TITLE "Violin sonata Op.96 in G major Scherzo, allegro"
PERFORMER "Ludwig van Beethoven"
INDEX 01 41:41:10
TRACK 07 AUDIO
TITLE "Violin sonata Op.96 in G major Poco allegretto"
PERFORMER "Ludwig van Beethoven"
INDEX 00 43:45:23
INDEX 01 43:46:40

CD8: Piano Sonatas

Треклист:Piano sonata in C minor Op. 13 "Pathetique"1. Allegro di molto e con brio2. Adagio cantabile3. Rondo, allegroPiano sonata in C sharp minor Op. 27 No. 2 "Moonlight"4. Adagio sostenuto5. Allegretto3. Presto agitatoPiano sonata in F minor Op. 57 "Appassionata"7. Allegro assai8. Andante con moto9. Allegro ma non troppo
Исполнители:John Lill, piano

Лог создания рипа

Exact Audio Copy V1.0 beta 6 from 9. April 2015
Отчёт EAC об извлечении, выполненном 11. июля 2015, 23:28
Ludwig van Beethoven / Meisterwerke masterworks Beethoven
Дисковод: ASUS DRW-24B5ST Adapter: 1 ID: 0
Режим чтения : Достоверность
Использование точного потока : Да
Отключение кэша аудио : Да
Использование указателей C2 : Нет
Коррекция смещения при чтении : 6
Способность читать области Lead-in и Lead-out : Нет
Заполнение пропущенных сэмплов тишиной : Да
Удаление блоков с тишиной в начале и конце : Нет
При вычислениях CRC использовались нулевые сэмплы : Да
Интерфейс : Встроенный Win32-интерфейс для Win NT/2000
Выходной формат : Пользовательский кодировщик
Выбранный битрейт : 128 kBit/s
Качество : Высокий
Добавление ID3-тега : Нет
Утилита сжатия : C:\Program Files (x86)\Exact Audio Copy\flac-1.3.1-win\win64\flac.exe
Дополнительные параметры : -V -8 -T "Date=%year%" -T "Genre=%genre%" %source%
TOC извлечённого CD
Трек | Старт | Длительность | Начальный сектор | Конечный сектор
---------------------------------------------------------------------
1 | 0:00.00 | 9:10.62 | 0 | 41311
2 | 9:10.62 | 6:01.31 | 41312 | 68417
3 | 15:12.18 | 4:56.07 | 68418 | 90624
4 | 20:08.25 | 6:47.51 | 90625 | 121200
5 | 26:56.01 | 2:20.42 | 121201 | 131742
6 | 29:16.43 | 7:09.13 | 131743 | 163930
7 | 36:25.56 | 10:42.50 | 163931 | 212130
8 | 47:08.31 | 6:42.10 | 212131 | 242290
9 | 53:50.41 | 7:56.05 | 242291 | 277995
Характеристики диапазона извлечения и сообщения об ошибках
Выбранный диапазон
Имя файла C:\Users\Тарик\Music\Бетховен\Meisterwerke masterworks\CD8\Ludwig van Beethoven - Meisterwerke masterworks Beethoven.wav
Пиковый уровень 100.0 %
Скорость извлечения 9.6 X
Качество диапазона 100.0 %
CRC теста EB152362
CRC копии EB152362
Копирование... OK
Ошибок не произошло
AccurateRip: сводка
Трек 1 : извлечено точно (доверие 2) [698DFEA2] (AR v2)
Трек 2 : извлечено точно (доверие 2) [FA617CF3] (AR v2)
Трек 3 : извлечено точно (доверие 2) [04A0538B] (AR v2)
Трек 4 : извлечено точно (доверие 2) [408544CD] (AR v2)
Трек 5 : извлечено точно (доверие 2) [9D35A2DC] (AR v2)
Трек 6 : извлечено точно (доверие 2) [05E838C9] (AR v2)
Трек 7 : извлечено точно (доверие 2) [ACF9C1D8] (AR v2)
Трек 8 : извлечено точно (доверие 2) [ABF05D06] (AR v2)
Трек 9 : извлечено точно (доверие 2) [31A6D388] (AR v2)
Все треки извлечены точно
Конец отчёта
==== Контрольная сумма отчёта 35C7B4F7160D1E0AC9EF09906901A95DC11450C37149BD30A80CA35A44EE0512 ====

Содержание индексной карты (.CUE)

REM GENRE Classical
REM DISCID 6E0E7A09
REM COMMENT "ExactAudioCopy v1.0b6"
PERFORMER "Ludwig van Beethoven"
TITLE "Meisterwerke masterworks Beethoven"
FILE "Ludwig van Beethoven - Meisterwerke masterworks Beethoven.flac" WAVE
TRACK 01 AUDIO
TITLE "Piano sonata in C minor Op.13 'Pathetique' Allegro di molto e con brio"
PERFORMER "Ludwig van Beethoven"
FLAGS DCP
INDEX 01 00:00:00
TRACK 02 AUDIO
TITLE "Piano sonata in C minor Op.13 'Pathetique' Adagio cantabile"
PERFORMER "Ludwig van Beethoven"
FLAGS DCP
INDEX 00 09:08:62
INDEX 01 09:10:62
TRACK 03 AUDIO
TITLE "Piano sonata in C minor Op.13 'Pathetique' Rondo allegro"
PERFORMER "Ludwig van Beethoven"
FLAGS DCP
INDEX 00 15:10:18
INDEX 01 15:12:18
TRACK 04 AUDIO
TITLE "Piano sonata in C sharp minor Op.27 No.2 'Moonlight' Adagio sostenuto"
PERFORMER "Ludwig van Beethoven"
FLAGS DCP
INDEX 00 20:06:25
INDEX 01 20:08:25
TRACK 05 AUDIO
TITLE "Piano sonata in C sharp minor Op.27 No.2 'Moonlight' Allegretto"
PERFORMER "Ludwig van Beethoven"
FLAGS DCP
INDEX 00 26:54:01
INDEX 01 26:56:01
TRACK 06 AUDIO
TITLE "Piano sonata in C sharp minor Op.27 No.2 'Moonlight' Presto agitato"
PERFORMER "Ludwig van Beethoven"
FLAGS DCP
INDEX 00 29:14:43
INDEX 01 29:16:43
TRACK 07 AUDIO
TITLE "Piano sonata in F minor Op.57 'Appassionata' Allegro assai"
PERFORMER "Ludwig van Beethoven"
FLAGS DCP
INDEX 00 36:23:56
INDEX 01 36:25:56
TRACK 08 AUDIO
TITLE "Piano sonata in F minor Op.57 'Appassionata' Andante con moto"
PERFORMER "Ludwig van Beethoven"
FLAGS DCP
INDEX 00 47:06:31
INDEX 01 47:08:31
TRACK 09 AUDIO
TITLE "Piano sonata in F minor Op.57 'Appassionata' Allegro ma non troppo"
PERFORMER "Ludwig van Beethoven"
FLAGS DCP
INDEX 01 53:50:41

CD9: Piano Trios

Треклист:Trio No.1 In B Major For Piano, Violin And Cello, Op. 81. Allegro2. Scherzo3. Adagio4. AllegroPiano Trio No.3 In C Minor, Op. 1015. Allegro Energico6. Presto Non Assai7. Andante Grazioso8. Allegro Molto

Лог создания рипа

Exact Audio Copy V1.0 beta 6 from 9. April 2015
Отчёт EAC об извлечении, выполненном 17. июля 2015, 22:02
Ludwig van Beethoven / Meisterwerke masterworks Beethoven
Дисковод: ASUS DRW-24B5ST Adapter: 1 ID: 0
Режим чтения : Достоверность
Использование точного потока : Да
Отключение кэша аудио : Да
Использование указателей C2 : Нет
Коррекция смещения при чтении : 6
Способность читать области Lead-in и Lead-out : Нет
Заполнение пропущенных сэмплов тишиной : Да
Удаление блоков с тишиной в начале и конце : Нет
При вычислениях CRC использовались нулевые сэмплы : Да
Интерфейс : Встроенный Win32-интерфейс для Win NT/2000
Выходной формат : Пользовательский кодировщик
Выбранный битрейт : 128 kBit/s
Качество : Высокий
Добавление ID3-тега : Нет
Утилита сжатия : C:\Program Files (x86)\Exact Audio Copy\flac-1.3.1-win\win64\flac.exe
Дополнительные параметры : -V -8 -T "Date=%year%" -T "Genre=%genre%" %source%
TOC извлечённого CD
Трек | Старт | Длительность | Начальный сектор | Конечный сектор
---------------------------------------------------------------------
1 | 0:00.00 | 11:00.35 | 0 | 49534
2 | 11:00.35 | 6:34.45 | 49535 | 79129
3 | 17:35.05 | 9:04.27 | 79130 | 119956
4 | 26:39.32 | 6:20.28 | 119957 | 148484
5 | 32:59.60 | 7:07.27 | 148485 | 180536
6 | 40:07.12 | 3:48.63 | 180537 | 197699
7 | 43:56.00 | 4:25.57 | 197700 | 217631
8 | 48:21.57 | 5:47.43 | 217632 | 243699
Характеристики диапазона извлечения и сообщения об ошибках
Выбранный диапазон
Имя файла C:\Users\Тарик\Music\Бетховен\Meisterwerke masterworks\CD9 Piano Sonatas Vol.2\Ludwig van Beethoven - Meisterwerke masterworks Beethoven.wav
Пиковый уровень 80.3 %
Скорость извлечения 8.4 X
Качество диапазона 100.0 %
CRC теста B3036CBA
CRC копии B3036CBA
Копирование... OK
Ошибок не произошло
AccurateRip: сводка
Трек 1 : извлечено точно (доверие 10) [B264B8FB] (AR v2)
Трек 2 : извлечено точно (доверие 10) [5F3D2EEA] (AR v2)
Трек 3 : извлечено точно (доверие 10) [42A7EB03] (AR v2)
Трек 4 : извлечено точно (доверие 10) [89685E52] (AR v2)
Трек 5 : извлечено точно (доверие 10) [A19BF6FD] (AR v2)
Трек 6 : извлечено точно (доверие 10) [528A209E] (AR v2)
Трек 7 : извлечено точно (доверие 10) [966F1044] (AR v2)
Трек 8 : извлечено точно (доверие 10) [FDCD768B] (AR v2)
Все треки извлечены точно
Конец отчёта
==== Контрольная сумма отчёта 2EC4875DBF6C17A29A70C8C2F3ADC537C2600D24A19354E352BFD0B893163461 ====

Содержание индексной карты (.CUE)

REM GENRE Classical
REM DISCID 680CB108
REM COMMENT "ExactAudioCopy v1.0b6"
PERFORMER "Ludwig van Beethoven"
TITLE "Meisterwerke masterworks Beethoven"
FILE "Ludwig van Beethoven - Meisterwerke masterworks Beethoven.flac" WAVE
TRACK 01 AUDIO
TITLE "Trio No.1 In B Major For Piano, Violin And Cello, Op. 8: 1.Allegro"
PERFORMER "Ludwig van Beethoven"
INDEX 01 00:00:00
TRACK 02 AUDIO
TITLE "Trio No.1 In B Major For Piano, Violin And Cello, Op. 8: 2.Scherzo"
PERFORMER "Ludwig van Beethoven"
INDEX 00 10:55:12
INDEX 01 11:00:35
TRACK 03 AUDIO
TITLE "Trio No.1 In B Major For Piano, Violin And Cello, Op. 8: 3.Adagio"
PERFORMER "Ludwig van Beethoven"
INDEX 00 17:30:17
INDEX 01 17:35:05
TRACK 04 AUDIO
TITLE "Trio No.1 In B Major For Piano, Violin And Cello, Op. 8: 4.Allegro"
PERFORMER "Ludwig van Beethoven"
INDEX 00 26:39:07
INDEX 01 26:39:32
TRACK 05 AUDIO
TITLE "Piano Trio No.3 In C Minor, Op.101: 1. Allegro Energico"
PERFORMER "Ludwig van Beethoven"
INDEX 00 32:51:72
INDEX 01 32:59:60
TRACK 06 AUDIO
TITLE "Piano Trio No.3 In C Minor, Op.101: 2. Presto Non Assai"
PERFORMER "Ludwig van Beethoven"
INDEX 00 40:03:52
INDEX 01 40:07:12
TRACK 07 AUDIO
TITLE "Piano Trio No.3 In C Minor, Op.101: 3. Andante Grazioso"
PERFORMER "Ludwig van Beethoven"
INDEX 00 43:50:12
INDEX 01 43:56:00
TRACK 08 AUDIO
TITLE "Piano Trio No.3 In C Minor, Op.101: 4. Allegro Molto"
PERFORMER "Ludwig van Beethoven"
INDEX 00 48:20:67
INDEX 01 48:21:57
Доп. инф.:Содержание диска не совпадает с треклистом на конверте.В тегах и оформлении правильные треклисты, на обложке - нет.

CD10: Diabelli Variations, Bagatelles

Треклист:33 variations on a waltz by diabelli in C major Op. 1201. Theme2. Alla Marcia3. Poco allegro4. L'istesso tempo5. Un poco piu vivace6. Allegro vivace7. Allegro ma non troppo8. Poco piu allegro9. Poco vivace10. Allegro pesante11. Presto12. Allegretto13. Poco piu mosso14. Vivace15. Grave16. Presto scherzando17. Allegro18. Variation19. Moderato20. Presto21. Andante22. Allegro con brio23. Molto allegro24. Assai allegro25. Fughetta26. Allegro27. Variation28. Vivace29. Allegro30. Adagio ma non troppo31. Andante sempre32. Largo33. Fuga, allegro34. Tempo di Menuetto11 Bagatelles Op. 11935. Allegretto in G major36. Andante con moto in C major37. Allemande in D major38. Andante contabile in A major39. Risoluto in C minor40. Andante in G major41. Allegro ma non troppo in C major42. Moderato cantabile in C major43. Vivace moderato in A minor44. Allegramente in A major45. Andante ma non troppo in B flat major
Испольнители:Alfred Brendel, piano

Лог создания рипа

Exact Audio Copy V1.0 beta 6 from 9. April 2015
Отчёт EAC об извлечении, выполненном 18. июля 2015, 17:43
Ludwig van Beethoven / Meisterwerke masterworks Beethoven
Дисковод: ASUS DRW-24B5ST Adapter: 1 ID: 0
Режим чтения : Достоверность
Использование точного потока : Да
Отключение кэша аудио : Да
Использование указателей C2 : Нет
Коррекция смещения при чтении : 6
Способность читать области Lead-in и Lead-out : Нет
Заполнение пропущенных сэмплов тишиной : Да
Удаление блоков с тишиной в начале и конце : Нет
При вычислениях CRC использовались нулевые сэмплы : Да
Интерфейс : Встроенный Win32-интерфейс для Win NT/2000
Выходной формат : Пользовательский кодировщик
Выбранный битрейт : 128 kBit/s
Качество : Высокий
Добавление ID3-тега : Нет
Утилита сжатия : C:\Program Files (x86)\Exact Audio Copy\flac-1.3.1-win\win64\flac.exe
Дополнительные параметры : -V -8 -T "Date=%year%" -T "Genre=%genre%" %source%
TOC извлечённого CD
Трек | Старт | Длительность | Начальный сектор | Конечный сектор
---------------------------------------------------------------------
1 | 0:00.00 | 0:51.60 | 0 | 3884
2 | 0:51.60 | 1:53.10 | 3885 | 12369
3 | 2:44.70 | 0:47.40 | 12370 | 15934
4 | 3:32.35 | 1:21.25 | 15935 | 22034
5 | 4:53.60 | 0:57.55 | 22035 | 26364
6 | 5:51.40 | 0:54.55 | 26365 | 30469
7 | 6:46.20 | 1:40.55 | 30470 | 38024
8 | 8:27.00 | 1:19.57 | 38025 | 44006
9 | 9:46.57 | 1:25.23 | 44007 | 50404
10 | 11:12.05 | 1:45.30 | 50405 | 58309
11 | 12:57.35 | 0:39.05 | 58310 | 61239
12 | 13:36.40 | 0:54.55 | 61240 | 65344
13 | 14:31.20 | 0:46.35 | 65345 | 68829
14 | 15:17.55 | 0:58.02 | 68830 | 73181
15 | 16:15.57 | 4:02.35 | 73182 | 91366
16 | 20:18.17 | 0:33.68 | 91367 | 93909
17 | 20:52.10 | 1:00.02 | 93910 | 98411
18 | 21:52.12 | 1:07.23 | 98412 | 103459
19 | 22:59.35 | 1:38.70 | 103460 | 110879
20 | 24:38.30 | 0:54.30 | 110880 | 114959
21 | 25:32.60 | 2:11.27 | 114960 | 124811
22 | 27:44.12 | 1:20.38 | 124812 | 130849
23 | 29:04.50 | 0:40.40 | 130850 | 133889
24 | 29:45.15 | 0:50.62 | 133890 | 137701
25 | 30:36.02 | 3:43.25 | 137702 | 154451
26 | 34:19.27 | 0:49.13 | 154452 | 158139
27 | 35:08.40 | 1:00.27 | 158140 | 162666
28 | 36:08.67 | 0:58.00 | 162667 | 167016
29 | 37:06.67 | 0:59.38 | 167017 | 171479
30 | 38:06.30 | 1:18.60 | 171480 | 177389
31 | 39:25.15 | 2:30.22 | 177390 | 188661
32 | 41:55.37 | 4:27.23 | 188662 | 208709
33 | 46:22.60 | 2:53.37 | 208710 | 221721
34 | 49:16.22 | 3:59.38 | 221722 | 239684
35 | 53:15.60 | 2:33.07 | 239685 | 251166
36 | 55:48.67 | 0:55.25 | 251167 | 255316
37 | 56:44.17 | 1:30.28 | 255317 | 262094
38 | 58:14.45 | 1:30.32 | 262095 | 268876
39 | 59:45.02 | 1:02.48 | 268877 | 273574
40 | 60:47.50 | 0:30.05 | 273575 | 275829
41 | 61:17.55 | 1:20.62 | 275830 | 281891
42 | 62:38.42 | 1:07.23 | 281892 | 286939
43 | 63:45.65 | 1:53.57 | 286940 | 295471
44 | 65:39.47 | 0:47.33 | 295472 | 299029
45 | 66:27.05 | 1:53.22 | 299030 | 307526
Характеристики диапазона извлечения и сообщения об ошибках
Выбранный диапазон
Имя файла C:\Users\Тарик\Music\Бетховен\Meisterwerke masterworks\CD10 Diabelli Variations, Bagatelles\Ludwig van Beethoven - Meisterwerke masterworks Beethoven.wav
Пиковый уровень 70.8 %
Скорость извлечения 8.9 X
Качество диапазона 100.0 %
CRC теста 9DB325FC
CRC копии 9DB325FC
Копирование... OK
Ошибок не произошло
AccurateRip: сводка
Трек 1 : извлечено точно (доверие 10) [6B5F2888] (AR v2)
Трек 2 : извлечено точно (доверие 10) [8B6A97E4] (AR v2)
Трек 3 : извлечено точно (доверие 10) [BE2893BA] (AR v2)
Трек 4 : извлечено точно (доверие 10) [7D9EB417] (AR v2)
Трек 5 : извлечено точно (доверие 10) [1D207676] (AR v2)
Трек 6 : извлечено точно (доверие 10) [8A621A52] (AR v2)
Трек 7 : извлечено точно (доверие 10) [5A820E88] (AR v2)
Трек 8 : извлечено точно (доверие 10) [80F15696] (AR v2)
Трек 9 : извлечено точно (доверие 10) [437DF716] (AR v2)
Трек 10 : извлечено точно (доверие 10) [52191324] (AR v2)
Трек 11 : извлечено точно (доверие 10) [703C44E4] (AR v2)
Трек 12 : извлечено точно (доверие 10) [C815687E] (AR v2)
Трек 13 : извлечено точно (доверие 10) [2BD49160] (AR v2)
Трек 14 : извлечено точно (доверие 10) [32136E85] (AR v2)
Трек 15 : извлечено точно (доверие 10) [38C8C3DF] (AR v2)
Трек 16 : извлечено точно (доверие 10) [E36F5A8C] (AR v2)
Трек 17 : извлечено точно (доверие 10) [00BA32EE] (AR v2)
Трек 18 : извлечено точно (доверие 10) [8DF9033A] (AR v2)
Трек 19 : извлечено точно (доверие 10) [496793DB] (AR v2)
Трек 20 : извлечено точно (доверие 10) [539D6DC8] (AR v2)
Трек 21 : извлечено точно (доверие 10) [630ED920] (AR v2)
Трек 22 : извлечено точно (доверие 10) [56CE5A23] (AR v2)
Трек 23 : извлечено точно (доверие 10) [5BFC2760] (AR v2)
Трек 24 : извлечено точно (доверие 10) [D675E1F9] (AR v2)
Трек 25 : извлечено точно (доверие 10) [EF3DF4AA] (AR v2)
Трек 26 : извлечено точно (доверие 10) [1BFFB5CC] (AR v2)
Трек 27 : извлечено точно (доверие 10) [795B77C2] (AR v2)
Трек 28 : извлечено точно (доверие 10) [FF4D9123] (AR v2)
Трек 29 : извлечено точно (доверие 10) [A5C384DF] (AR v2)
Трек 30 : извлечено точно (доверие 10) [0F88308A] (AR v2)
Трек 31 : извлечено точно (доверие 10) [1FE95507] (AR v2)
Трек 32 : извлечено точно (доверие 10) [8A46F0CF] (AR v2)
Трек 33 : извлечено точно (доверие 10) [7348233C] (AR v2)
Трек 34 : извлечено точно (доверие 9) [0C25ACBC] (AR v2)
Трек 35 : извлечено точно (доверие 10) [AC11F372] (AR v2)
Трек 36 : извлечено точно (доверие 10) [3629C0A8] (AR v2)
Трек 37 : извлечено точно (доверие 10) [F7174A65] (AR v2)
Трек 38 : извлечено точно (доверие 10) [D3019683] (AR v2)
Трек 39 : извлечено точно (доверие 10) [59ECC169] (AR v2)
Трек 40 : извлечено точно (доверие 10) [72D56610] (AR v2)
Трек 41 : извлечено точно (доверие 10) [626A1800] (AR v2)
Трек 42 : извлечено точно (доверие 10) [357AB76B] (AR v2)
Трек 43 : извлечено точно (доверие 10) [EC33EAD6] (AR v2)
Трек 44 : извлечено точно (доверие 10) [6D2D9490] (AR v2)
Трек 45 : извлечено точно (доверие 9) [83149288] (AR v2)
Все треки извлечены точно
Конец отчёта
==== Контрольная сумма отчёта 42D62F5CF23C83FBF258034462355E5467653299987423D0232E07BE730D26C2 ====

Содержание индексной карты (.CUE)

REM GENRE Classical
REM DISCID D110042D
REM COMMENT "ExactAudioCopy v1.0b6"
PERFORMER "Ludwig van Beethoven"
TITLE "Meisterwerke masterworks Beethoven"
FILE "Ludwig van Beethoven - Meisterwerke masterworks Beethoven.flac" WAVE
TRACK 01 AUDIO
TITLE "Variations on a waltz by diabelli in C major Op.120 Theme"
PERFORMER "Ludwig van Beethoven"
INDEX 01 00:00:00
TRACK 02 AUDIO
TITLE "Variations on a waltz by diabelli in C major Op.120 Alla Marcia"
PERFORMER "Ludwig van Beethoven"
INDEX 01 00:51:60
TRACK 03 AUDIO
TITLE "Variations on a waltz by diabelli in C major Op.120 Poco allegro"
PERFORMER "Ludwig van Beethoven"
INDEX 01 02:44:70
TRACK 04 AUDIO
TITLE "Variations on a waltz by diabelli in C major Op.120 L'istesso tempo"
PERFORMER "Ludwig van Beethoven"
INDEX 01 03:32:35
TRACK 05 AUDIO
TITLE "Variations on a waltz by diabelli in C major Op.120 Un poco piu vivace"
PERFORMER "Ludwig van Beethoven"
INDEX 01 04:53:60
TRACK 06 AUDIO
TITLE "Variations on a waltz by diabelli in C major Op.120 Allegro vivace"
PERFORMER "Ludwig van Beethoven"
INDEX 01 05:51:40
TRACK 07 AUDIO
TITLE "Variations on a waltz by diabelli in C major Op.120 Allegro ma non troppo"
PERFORMER "Ludwig van Beethoven"
INDEX 01 06:46:20
TRACK 08 AUDIO
TITLE "Variations on a waltz by diabelli in C major Op.120 Poco piu allegro"
PERFORMER "Ludwig van Beethoven"
INDEX 01 08:27:00
TRACK 09 AUDIO
TITLE "Variations on a waltz by diabelli in C major Op.120 Poco vivace"
PERFORMER "Ludwig van Beethoven"
INDEX 01 09:46:57
TRACK 10 AUDIO
TITLE "Variations on a waltz by diabelli in C major Op.120 Allegro pesante"
PERFORMER "Ludwig van Beethoven"
INDEX 01 11:12:05
TRACK 11 AUDIO
TITLE "Variations on a waltz by diabelli in C major Op.120 Presto"
PERFORMER "Ludwig van Beethoven"
INDEX 01 12:57:35
TRACK 12 AUDIO
TITLE "Variations on a waltz by diabelli in C major Op.120 Allegretto"
PERFORMER "Ludwig van Beethoven"
INDEX 01 13:36:40
TRACK 13 AUDIO
TITLE "Variations on a waltz by diabelli in C major Op.120 Poco piu mosso"
PERFORMER "Ludwig van Beethoven"
INDEX 01 14:31:20
TRACK 14 AUDIO
TITLE "Variations on a waltz by diabelli in C major Op.120 Vivace"
PERFORMER "Ludwig van Beethoven"
INDEX 01 15:17:55
TRACK 15 AUDIO
TITLE "Variations on a waltz by diabelli in C major Op.120 Grave"
PERFORMER "Ludwig van Beethoven"
INDEX 01 16:15:57
TRACK 16 AUDIO
TITLE "Variations on a waltz by diabelli in C major Op.120 Presto scherzando"
PERFORMER "Ludwig van Beethoven"
INDEX 01 20:18:17
TRACK 17 AUDIO
TITLE "Variations on a waltz by diabelli in C major Op.120 Allegro"
PERFORMER "Ludwig van Beethoven"
INDEX 01 20:52:10
TRACK 18 AUDIO
TITLE "Variations on a waltz by diabelli in C major Op.120 Variation"
PERFORMER "Ludwig van Beethoven"
INDEX 01 21:52:12
TRACK 19 AUDIO
TITLE "Variations on a waltz by diabelli in C major Op.120 Moderato"
PERFORMER "Ludwig van Beethoven"
INDEX 01 22:59:35
TRACK 20 AUDIO
TITLE "Variations on a waltz by diabelli in C major Op.120 Presto"
PERFORMER "Ludwig van Beethoven"
INDEX 01 24:38:30
TRACK 21 AUDIO
TITLE "Variations on a waltz by diabelli in C major Op.120 Andante"
PERFORMER "Ludwig van Beethoven"
INDEX 01 25:32:60
TRACK 22 AUDIO
TITLE "Variations on a waltz by diabelli in C major Op.120 Allegro con brio"
PERFORMER "Ludwig van Beethoven"
INDEX 01 27:44:12
TRACK 23 AUDIO
TITLE "Variations on a waltz by diabelli in C major Op.120 Molto allegro"
PERFORMER "Ludwig van Beethoven"
INDEX 01 29:04:50
TRACK 24 AUDIO
TITLE "Variations on a waltz by diabelli in C major Op.120 Assai allegro"
PERFORMER "Ludwig van Beethoven"
INDEX 01 29:45:15
TRACK 25 AUDIO
TITLE "Variations on a waltz by diabelli in C major Op.120 Fughetta"
PERFORMER "Ludwig van Beethoven"
INDEX 01 30:36:02
TRACK 26 AUDIO
TITLE "Variations on a waltz by diabelli in C major Op.120 Allegro"
PERFORMER "Ludwig van Beethoven"
INDEX 01 34:19:27
TRACK 27 AUDIO
TITLE "Variations on a waltz by diabelli in C major Op.120 Variation"
PERFORMER "Ludwig van Beethoven"
INDEX 01 35:08:40
TRACK 28 AUDIO
TITLE "Variations on a waltz by diabelli in C major Op.120 Vivace"
PERFORMER "Ludwig van Beethoven"
INDEX 01 36:08:67
TRACK 29 AUDIO
TITLE "Variations on a waltz by diabelli in C major Op.120 Allegro"
PERFORMER "Ludwig van Beethoven"
INDEX 01 37:06:67
TRACK 30 AUDIO
TITLE "Variations on a waltz by diabelli in C major Op.120 Adagio ma non troppo"
PERFORMER "Ludwig van Beethoven"
INDEX 01 38:06:30
TRACK 31 AUDIO
TITLE "Variations on a waltz by diabelli in C major Op.120 Andante sempre"
PERFORMER "Ludwig van Beethoven"
INDEX 01 39:25:15
TRACK 32 AUDIO
TITLE "Variations on a waltz by diabelli in C major Op.120 Largo"
PERFORMER "Ludwig van Beethoven"
INDEX 01 41:55:37
TRACK 33 AUDIO
TITLE "Variations on a waltz by diabelli in C major Op.120 Fuga, allegro"
PERFORMER "Ludwig van Beethoven"
INDEX 01 46:22:60
TRACK 34 AUDIO
TITLE "Variations on a waltz by diabelli in C major Op.120 Tempo di Menuetto"
PERFORMER "Ludwig van Beethoven"
INDEX 01 49:16:22
TRACK 35 AUDIO
TITLE "Bagatelles Op.119 Allegretto in G major"
PERFORMER "Ludwig van Beethoven"
INDEX 00 53:05:05
INDEX 01 53:15:60
TRACK 36 AUDIO
TITLE "Bagatelles Op.119 Andante con moto in C major"
PERFORMER "Ludwig van Beethoven"
INDEX 01 55:48:67
TRACK 37 AUDIO
TITLE "Bagatelles Op.119 Allemande in D major"
PERFORMER "Ludwig van Beethoven"
INDEX 01 56:44:17
TRACK 38 AUDIO
TITLE "Bagatelles Op.119 Andante cantabile in A major"
PERFORMER "Ludwig van Beethoven"
INDEX 01 58:14:45
TRACK 39 AUDIO
TITLE "Bagatelles Op.119 Risoluto in C minor"
PERFORMER "Ludwig van Beethoven"
INDEX 01 59:45:02
TRACK 40 AUDIO
TITLE "Bagatelles Op.119 Andante in G major"
PERFORMER "Ludwig van Beethoven"
INDEX 01 60:47:50
TRACK 41 AUDIO
TITLE "Bagatelles Op.119 Allegro ma non troppo in C major"
PERFORMER "Ludwig van Beethoven"
INDEX 01 61:17:55
TRACK 42 AUDIO
TITLE "Bagatelles Op.119 Moderato cantabile in C major"
PERFORMER "Ludwig van Beethoven"
INDEX 01 62:38:42
TRACK 43 AUDIO
TITLE "Bagatelles Op.119 Vivace moderato in A minor"
PERFORMER "Ludwig van Beethoven"
INDEX 01 63:45:65
TRACK 44 AUDIO
TITLE "Bagatelles Op.119 Allegremente in A major"
PERFORMER "Ludwig van Beethoven"
INDEX 01 65:39:47
TRACK 45 AUDIO
TITLE "Bagatelles Op.119 Andante ma non troppo in B flat major"
PERFORMER "Ludwig van Beethoven"
INDEX 01 66:27:05
[teatrix.ru].t9700.torrent 
Торрент: Зарегистрирован [ 2015-10-23 17:11 ] · 5525476B7C66C495D9FC624D8512E9AE2C42BC57

Скачать .torrent

Скачать

18 KB

Статус: проверено
Скачан: 0 раз
Размер: 2.55 GB
terms.php



Быстрый ответ

Имя:

      
Для отправки сообщений необходимо включить JavaScript
Показать сообщения:    

Текущее время: 04-Дек 02:54

Часовой пояс: UTC + 3


Вы можете начинать темы
Вы можете отвечать на сообщения
Вы не можете редактировать свои сообщения
Вы не можете удалять свои сообщения
Вы не можете голосовать в опросах
Вы не можете прикреплять файлы к сообщениям
Вы можете скачивать файлы