(Classical) The Millennium Classics, World's Famous Orchestra's & Soloists [10 CD Box] Limited Edition • Bach • Beethoven • Handel • Mozart • Chopin • Grieg (Ameling, Menuhin, Hendricks, Haitink, Rattle, Maazel) 1999, APE (image+.cue) l


Статистика раздачи [Обновить пиров]
Размер:  3.06 GB   |    Зарегистрирован:  1 год 1 месяц   |    Скачан:  1 раз

Полного источника не было: 6 дней

Личеров:  1  [  0 KB/s  ]   Подробная статистика пиров
 
   
 
 
 

[Цитировать]

The Millennium Classics, World's Famous Orchestra's & Soloists Limited Edition [10CD-box]
Жанр: Classical
Страна-производитель диска: EU
Год издания диска: 1999
Издатель (лейбл): EMI
Номер по каталогу: HR705302
Дата записи: 1957-1994
Аудиокодек: APE
Тип рипа: image+.cue
Битрейт аудио: lossless
Источник: собственный рип
Наличие сканов в содержимом раздачи: да
Треклист / Исполнители:

CD1 Baroque Treasures

Antonio Vivaldi
The Four Seasons - Concierto No.1 in E major 'Spring', RV 269 [Yehudi Menuhin]
1. I: Allegro
2. II: Largo
3. III: Allegro
Johann Pachelbel
4. Canon à 3 on a ground in D [Academy of St. Martin in the Fields, Marriner]
Johann Sebastian Bach
5. Orchestral Suite No.3 in D major, BWV 1068 II: Air [Yehudi Menuhin]
Tomaso Albioni
6. Adagio [Academy of St. Martin in the Fields, Marriner]
George Frideric Handel
7. Arrival of the Queen of Sheba (Sinfonia) (Solomon) [Academy of St. Martin in the Fields, Marriner]
Johann Sebastian Bach
8. Concerto for Two Violins in D minor BWV 1043 II: Largo ma non troppo [Yehudi Menuhin]
Luigi Boccherini
9. String Quintet in E major, Op.13, No.5-Minuet [Academy of St. Martin in the Fields, Marriner]
George Frideric Handel
Organ Concerto No.13 in F major 'Cuckoo and Nightingale' [Orchestre de Chambre de Toulouse, Armand]
10. I: Larghetto
11. II: Allegro-Kadenz-T...
12. IV: Allegro
Johann Sebastian Bach
Brandenburg Concerto No.2 in F major, BWV 1047 [London Philharmonic Orchestra, Boult]
14. I: Allegro
15. II: Andante
16. III: Allegro assai
George Frideric Handel
Water Music [Berliner Philharmoniker, von Karajan]
17. I: Allegro
18. II: Air
19. III: Bourree
20. IV: Hornpipe
Johann Sebastian Bach
21. Suite for Violoncello No.1 in G major, BWV 1007-Sarabande [Paul Tortelier]

CD2 Sacred Treasures

Johann Sebastian Bach
Mattheus Passion, BWV 244 [Consortium Musicum, Gönnenwein]
1. Kommt, ihr Töchter, helft mir klagen
2. Wir Setzen uns mit Tränen nieder
Giovanni Battista Pergolesi
3. Stabat Mater - I: Stabat mater dolorosa [Capella Agostino Steffani, Rovatkay]
Wolfgang Amadeus Mozart
4. Ave Verum Corpus, K.618 3.26 [Swedish Chamber Orchestra, Muti]
Charles Gounod
5. Ave Maria [Janet Baker]
Wolfgang Amadeus Mozart
Requiem, K.626 [Consortium Musicum, Gönnenwein]
6. I: Introitus 'Requiem Aeternam
7. Confutatis maledictis
8. Lacrimosa dies illa
Franz Schubert
9. Ave Maria, D.839 [Elly Ameling]
Gabriel Fauré
10. Requiem, Op.48 - Pie Jesu [Victoria de los Ángeles]
11. Cantique de Jean Racine - Verbe égal et très Haut [Barbara Hendricks, Jose van Dam]
Giuseppe Verdi[/b
Messa de Requiem [Philharmonia Orchestra, Muti]
12. Requiem Aeternam
13. Dies irae
14. Requiem - Ingemisco [Luciano Pavarotti]
Johann Sebastian Bach
15. Johannes Passion, BWV 245 - Ruht Wohl [Consortium Musicum, Gönnenwein]
George Frideric Handel
16. Messiah - Hallelujah [English Chamber Orchestra, Mackerras]

CD3 Mozart Magic

Wolfgang Amadeus Mozart
Serenata No.13 in G major, K.525 'Eine kleine Nachtmusik' [Berliner Philharmoniker, von Karajan]
1. I: Allegro
2. II: Romanze (Andante)
3. Piano Concerto No.21 in C major, K.467 - II: Andante [London Philharmonic Orchestra, Eschenbach]
4. Symphony No.40 in G minor, K.550 - Molto allegro [English Chamber Orchestra, Tate]
5. Horn Concerto No.4 in E flat major, K.495 - III: Rondo (Allegro vivace) [Academy of St. Martin in the Fields, Marriner
6. Concerto for Flute and Harp - Andantino [Berliner Philharmoniker, von Karajan]
7. Piano Concerto No.23 in A, K.488 - I: Allegro [Staatskapelle Dresden]
8. Clarinet Concerto in A major, K.622 - II: Adagio [Berliner Philharmoniker, Zinmann]
Franz Joseph Haydn
9. Trumpet Concerto in E flat major - I: Allegro [English Chamber Orchestra, Tate]
Franz Schubert
10. Piano Quintet, D.667 'The Trout'- Theme and Variatons [Amadeus Quartet]
11. Impromptu in As, Op.90 No.4 D.889 [Daniel Wayenberg]

CD4 Mighty Beethoven

Ludwig van Beethoven
1. Symphony No.5 in C minor, Op.67 - Allegro con brio [Philadelphia Orchestra, Muti]
2. Symphony No.5 in C minor, Op.67 - Bagatelle No. 25, G.173 'Für Elise' [Dame Moura Lympany]
3. Symphony No.6 in F major, Op. 68 'Pastoral' - I: Allegro ma non troppo [London Symphony Orchestra, Jochem]
4. Piano Concerto No.5 in E flat major Op.73 'Emperor' - II: Adagio un poco mosso [Philharmonia Orchestra, Kertesz]
5. Symphony No.7 in A major, Op.92 - III: Presto [Berliner Philharmoniker, Cluytens]
6. Symphony No.8 in F major, Op.93 - III: Tempo di menuetto [London Symphony Orchestra, Jochum]
7. Violin Concerto in D major, Op.61 - II: Larghetto, attacco [Royal Philharmonic Orchestra, Sargent]
8. Piano sonota No.14 in C sharp minor, Op.27 No.2 'Moonlight' - I: Adagio soste... [Andrea Lucchesini]
9. Symphony No.9 in D minor, Op.125 'Choral' - Hymn to joy [London Symphony Orchestra & Chorus, Giulini]

CD5 Classical Treasures I

Felix Mendelssohn
1. Symphony No.4 in A major, Op.90 'Italian' - Allegro vivace [Berliner Philharmoniker, Tennstedt]
Frederic Chopin
2. Prelude, Op.28 No.15 'Raindrop' [Rudolf Buchbinder]
Edvard Grieg
Gynt Suite No.1, Op.46 [Bournemouth Symphony Orchestra, Berglund]
3. Morning
4. Ase's Death
5. Anitra's Dance
6. In the Hall of the Mountain King
Frederic Chopin
7. Nocturne No.16 in E flat major, Op.55 No.2 [Garrick Ohlsson]
Bedrich Smetana
8. Ma Vlast - No.2: Vltava (Die Moldau) [Oslo Philharmonic Orchestra, Janssons]
Edvard Grieg
9. Piano Concerto in A minor, Op.16 - I: Allegro molto moderato [Royal Philharmonic Orchestra, Weldon]
Felix Mendelssohn
10. Midsummer Night's Dream, Op.21 - Scherzo [London Symphony Orchestra, Previn]
Antonin Dvorak
11. Symphony No.9 in E minor, Op.95 'From the New World' - II: Largo [Berliner Philharmoniker, Tennstedt]

CD6 Classical Treasures II

Johann Strauss
1. An der schönen blauen Donau, Op.314 [Wiener Johann Strauss Orchester, Boskovsky]
Pyotr Tchaikovsky
2. Piano concerto No.1 in B flat minor, Op. 23 - I: Allegro non troppo e molto m... [New Philharmonia Orchestra, Maazel]
Jules Massenet
3. Méditation de Thaïs [New Philharmonia Orchestra, Maazel]
Frederic Chopin
4. Waltz in D flat, Op.64 No.1 [Dmitri Alexeev]
Jean Sibelius
5. Finlandia, Op.26 - Tone Poem [Berliner Philharmoniker, von Karajan]
Pyotr Tchaikovsky
Swan Lake Suite [Philharmonia Orchestra, Sawallisch]
6. Scene 1, Act 2 'Swan Theme'
7. Waltz, Act 1
8. Dance of the Cygnets, Act 2
9. Introduction & Second Dance of the Queen, Act 2
10. Scene, Act 4
Sergei Rachmaninov
11. Piano Concerto No.2 in C minor, Op.18 - I: Moderato [City of Birmingham Symphony Orchestra, Rattle]

CD7 Classical Treasures III

Pyotr Tchaikovsky
1. Symphony No.6 in B minor, Op.74 'Pathetique' - I: Adagio - Allegro non troppo... [Philharmonia Orchestra, Giulini]
Sergei Rachmaninov
2. Piano Concerto No.3 in D minor, Op.30 - III: Finale (Alla breve) [Berliner Philharmoniker, Simonov]
Aram Khacharurian
3. Spartacus - Adagio (Spartacus & Phrygia) [Royal Philharmonic Orchestra, Temirkanov]
Pyotr Tchaikovsky
4. Violin Concerto in D minor, Op.35 - II: Canzonetta (Andante) [Berliner Philharmoniker, Maazel]
Johannes Brahms
5. Symphony No.3 in F major, Op.90 - I: Allegro con brio [Philharmonia Orchestra, Giulini]
Pyotr Tchaikovsky
6. The Nutcracker - Waltz of the Flowers Royal [Philharmonic Orchestra, Previn]
Richard Wagner
7. Die Walküre -The Ride of the Valkyries (Act III) [Berliner Philharmoniker, Tennstedt]

CD8 Classical Treasures IV

Camille Saint-Saens
1. Danse macabre, Op.40 [Orchestre National de France, Prêtre]
2. Carnaval des animaux - The Swan [Israel Philharmonic Orchestra, Mehta]
Max Bruch
Violin Concerto No.1 in G minor, Op. 26 [Japan Philharmonic Symphony Orchestra, Ozawa]
3. I: Allegro Moderato
4. II: Adagio
5. III: Finale (allegro energico)
Claude Debussy
6. Clair de lune [Daniel Adni]
Joaquin Rodrigo
7. Concierto de Aranjuez - II: Adagio [Angel Romero - London Symphony Orchestra, Previn]
Gustav Mahler
8. Symphony No.5 in C sharp minor - IV: Adagietto [Philharmonia Orchestra, Kletzki]
Maurice Ravel
9. Bolero [New Philharmonia Orchestra, Maazel]

CD9 Timeless Treasures

George Gershwin
1. Rhapsody in Blue [London Symphony Orchestra, Previn]
Samuel Barber
2. Adagio for Strings [London Symphony Orchestra, Previn]
Leonard Bernstein
West Side Story [Minnesota Orchestra, de Waart]
3. Prologue
4. Somewhere
5. Cha cha
6. Meeting scene
7. Cool
8. Finale
Eric Satie
Gymnopédie [Cécile Ousset]
9. I: Lent et douloureux
10. II: Lent et triste
11. III: Lent et grave
Dmitri Shostakovich
12. Suite for Jazz, No.2 - IV: Waltz [Philadelphia Orchestra, Janssons]
Carl Orff
Carmina Burana [New Philharmonia Orchestra, de Burgos]
13. Fortuna imperatrix mundi - I: O Fortuna
14. Uf dem anger - VI: Tanz"
15. Uf dem anger - VII: Floret silva nobilis"
16. Uf dem anger - VIII: Charmer, gip die varwe mir"
17. Uf dem anger - IX: a. Reie b. Swaz hie gat umbe c. Chume, ch..."
18. Uf dem anger - X: Were diu werlt alle min"
Lux Mundi
19. Masscapella, No.3

CD10 Opera Treasures

Giuseppe Verdi
Nabucco [Chorus & Orchestra of the Royal Opera House, Covent Garden, Haitink]
1. Va pensiero (Act III) (Chorus of the Hebrew Slaves)
Georges Bizet
Les pêcheurs de perles [Gedda, Blanc - Orchestra du Théâtre National de l'Opéra Comique, Dervaux]
2. Au fond du temple saint (Act I)
Leo Delibes
Lakmé [Mesplé, Millet - Orchestra du Théâtre National de l'Opéra Comique, Lombard]
3. Viens, Mallika (Flower duet) (Act I)
Georges Bizet
Carmen [Otelli, Gavarotti, Pantos - Württembergische Philharmonie Reutlingen, Paternostro]
4. Votre toast (Air du Toréador)
Wolfgang Amadeus Mozart
Die Zauberflöte
5. Der Vogelfänger bin ich ja (Akt I) [Hermann Prey - Staatskapelle Dresden, Suitner]
6. Der hölle Rache (Akt I) [Edda Moser - Bayerischen Staatsoper, Sawallisch]
Le Nozze di Figaro, K.492
7. Voi che sapete (Atto II) [Rise Stevens - Glyndebourne Festival Orchestra, Gui]
Pietro Mascagni
Cavalleria Rusticana
8. Regina coeli [Pisano, THezan - Budapest Opera Orchestra, Paternostro]
Gioachino Rossini
Il Barbiere di Siviglia
9. Largo al factotum (Atto I) [Sesto Bruscantini - Royal Philharmonic Orchestra, Gui]
Giacomo Puccini
Tosca
10. Vissi d'arte (Atto II) [Antonietta Stella -London Symphony Orchestra, Erede]
11. E lucevan le stelle (Atto III) [Franco Corelli]
Giuseppe Verdi
Rigoletto
12. La donna è mobile (Atto III) [Nicolai Gedda - Orchestra del Teatro dell'Opera di Roma, Pradelli]
La Traviata
13. Brindisi, Libiamo ne'liete calici (ActI) [del Monte, de los Angeles - Orchestra del Teatro dell'Opera di Roma, Serafin]
Vincenzo Bellini
Norma
14. Sediziose voci..Casta Diva (Atto I) [Edita Gruberova - Münchner Rundfunkorchester, Eichhorn]
Giacomo Puccini
Turandot
15. Nessun dorma (Atto III) [Wolfgang Schmidt - Württembergische Philharmonie Reutlingen, Paternostro]
Giuseppe Verdi
Aida
16. Gloria all' Egitto (Act II) [Opera in Ahoy Chorus - Württembergische Philharmonie Reutlingen, Paternostro]

Лог создания рипа

CD1

Exact Audio Copy V1.0 beta 3 from 29. August 2011
EAC extraction logfile from 23. May 2015, 19:43
The Millennium Classics / CD1 Baroque Treasures
Used drive : TSSTcorpCDDVDW SE-208AB Adapter: 1 ID: 0
Read mode : Secure
Utilize accurate stream : Yes
Defeat audio cache : Yes
Make use of C2 pointers : No
Read offset correction : 6
Overread into Lead-In and Lead-Out : No
Fill up missing offset samples with silence : Yes
Delete leading and trailing silent blocks : No
Null samples used in CRC calculations : Yes
Used interface : Native Win32 interface for Win NT & 2000
Used output format : Monkey's Audio Lossless Encoder
Selected bitrate : High Lossless Compression
Quality : High
Add ID3 tag : Yes
Command line compressor : C:\Program Files (x86)\Exact Audio Copy\MAC\MAC.exe
TOC of the extracted CD
Track | Start | Length | Start sector | End sector
---------------------------------------------------------
1 | 0:00.00 | 3:22.15 | 0 | 15164
2 | 3:22.15 | 2:24.27 | 15165 | 25991
3 | 5:46.42 | 4:24.38 | 25992 | 45829
4 | 10:11.05 | 4:57.53 | 45830 | 68157
5 | 15:08.58 | 4:22.27 | 68158 | 87834
6 | 19:31.10 | 7:45.05 | 87835 | 122714
7 | 27:16.15 | 2:48.00 | 122715 | 135314
8 | 30:04.15 | 7:41.18 | 135315 | 169907
9 | 37:45.33 | 3:55.26 | 169908 | 187558
10 | 41:40.59 | 2:12.17 | 187559 | 197475
11 | 43:53.01 | 3:46.40 | 197476 | 214465
12 | 47:39.41 | 2:54.40 | 214466 | 227555
13 | 50:34.06 | 3:15.55 | 227556 | 242235
14 | 53:49.61 | 5:27.49 | 242236 | 266809
15 | 59:17.35 | 4:14.69 | 266810 | 285928
16 | 63:32.29 | 3:04.59 | 285929 | 299787
17 | 66:37.13 | 2:38.31 | 299788 | 311668
18 | 69:15.44 | 5:18.48 | 311669 | 335566
19 | 74:34.17 | 0:46.37 | 335567 | 339053
20 | 75:20.54 | 0:51.30 | 339054 | 342908
21 | 76:12.09 | 3:11.46 | 342909 | 357279
Range status and errors
Selected range
Filename D:\EAC\The Millennium Classics - CD1 Baroque Treasures.wav
Peak level 89.8 %
Extraction speed 5.3 X
Range quality 100.0 %
Test CRC 89833E8C
Copy CRC 89833E8C
Copy OK
No errors occurred
AccurateRip summary
Track 1 accurately ripped (confidence 4) [8C6B508B] (AR v2)
Track 2 accurately ripped (confidence 4) [F7B44091] (AR v2)
Track 3 accurately ripped (confidence 4) [BE504926] (AR v2)
Track 4 accurately ripped (confidence 4) [DEAFA98C] (AR v2)
Track 5 accurately ripped (confidence 4) [83C9A3D1] (AR v2)
Track 6 accurately ripped (confidence 4) [F0DEEEC8] (AR v2)
Track 7 accurately ripped (confidence 4) [B8035E2B] (AR v2)
Track 8 accurately ripped (confidence 4) [BDBAA61A] (AR v2)
Track 9 accurately ripped (confidence 4) [2D0F51E1] (AR v2)
Track 10 accurately ripped (confidence 4) [27731409] (AR v2)
Track 11 accurately ripped (confidence 4) [D26A34DD] (AR v2)
Track 12 accurately ripped (confidence 4) [00883FF1] (AR v2)
Track 13 accurately ripped (confidence 4) [C19877BC] (AR v2)
Track 14 accurately ripped (confidence 4) [DE8C3AF4] (AR v2)
Track 15 accurately ripped (confidence 4) [CDA76165] (AR v2)
Track 16 accurately ripped (confidence 4) [32EDAE51] (AR v2)
Track 17 accurately ripped (confidence 4) [A4BAE50D] (AR v2)
Track 18 accurately ripped (confidence 4) [10FE8B05] (AR v2)
Track 19 accurately ripped (confidence 4) [110DD9B2] (AR v2)
Track 20 accurately ripped (confidence 4) [360C5017] (AR v2)
Track 21 accurately ripped (confidence 4) [1A86376B] (AR v2)
All tracks accurately ripped
End of status report
---- CUETools DB Plugin V2.1.3
[CTDB TOCID: dqkAynIsEB.KpBOrX.AK33R0Fl8-] found, Submit result: dqkAynIsEB.KpBOrX.AK33R0Fl8- has been confirmed
[730ef62a] (2/2) Accurately ripped
==== Log checksum E553F9802A5F4856FAFB56531329A49AF4AACC17C2FB0604D443ACBCD2F0F584 ====

CD2

Exact Audio Copy V1.0 beta 3 from 29. August 2011
EAC extraction logfile from 23. May 2015, 20:27
The Millennium Classics / CD2 Sacred Treasures
Used drive : HL-DT-STDVDRAM GH22NS50 Adapter: 0 ID: 2
Read mode : Secure
Utilize accurate stream : Yes
Defeat audio cache : Yes
Make use of C2 pointers : No
Read offset correction : 667
Overread into Lead-In and Lead-Out : No
Fill up missing offset samples with silence : Yes
Delete leading and trailing silent blocks : No
Null samples used in CRC calculations : Yes
Used interface : Native Win32 interface for Win NT & 2000
Used output format : Monkey's Audio Lossless Encoder
Selected bitrate : High Lossless Compression
Quality : High
Add ID3 tag : Yes
Command line compressor : C:\Program Files (x86)\Exact Audio Copy\MAC\MAC.exe
TOC of the extracted CD
Track | Start | Length | Start sector | End sector
---------------------------------------------------------
1 | 0:00.00 | 9:05.13 | 0 | 40887
2 | 9:05.13 | 7:19.32 | 40888 | 73844
3 | 16:24.45 | 3:42.17 | 73845 | 90511
4 | 20:06.62 | 3:26.28 | 90512 | 105989
5 | 23:33.15 | 3:11.08 | 105990 | 120322
6 | 26:44.23 | 5:12.53 | 120323 | 143775
7 | 31:57.01 | 2:27.15 | 143776 | 154815
8 | 34:24.16 | 3:06.05 | 154816 | 168770
9 | 37:30.21 | 5:39.20 | 168771 | 194215
10 | 43:09.41 | 3:19.55 | 194216 | 209195
11 | 46:29.21 | 5:46.11 | 209196 | 235156
12 | 52:15.32 | 5:15.42 | 235157 | 258823
13 | 57:30.74 | 2:09.40 | 258824 | 268538
14 | 59:40.39 | 3:41.26 | 268539 | 285139
15 | 63:21.65 | 7:55.66 | 285140 | 320830
16 | 71:17.56 | 3:59.42 | 320831 | 338797
Range status and errors
Selected range
Filename D:\EAC\The Millennium Classics - CD2 Sacred Treasures.wav
Peak level 92.8 %
Extraction speed 2.0 X
Range quality 99.9 %
Test CRC FCA7F232
Copy CRC FCA7F232
Copy OK
No errors occurred
AccurateRip summary
Track 1 accurately ripped (confidence 4) [1E8E763A] (AR v2)
Track 2 accurately ripped (confidence 4) [B52BF882] (AR v2)
Track 3 accurately ripped (confidence 3) [2FC95A5D] (AR v2)
Track 4 accurately ripped (confidence 4) [902BD697] (AR v2)
Track 5 accurately ripped (confidence 4) [4C26B17D] (AR v2)
Track 6 accurately ripped (confidence 4) [22B33D38] (AR v2)
Track 7 accurately ripped (confidence 4) [E3B6561C] (AR v2)
Track 8 accurately ripped (confidence 4) [6DA62BCF] (AR v2)
Track 9 accurately ripped (confidence 4) [1BF1C292] (AR v2)
Track 10 accurately ripped (confidence 4) [3716336F] (AR v2)
Track 11 accurately ripped (confidence 4) [655D16A3] (AR v2)
Track 12 accurately ripped (confidence 4) [47A13975] (AR v2)
Track 13 accurately ripped (confidence 4) [268C0D83] (AR v2)
Track 14 accurately ripped (confidence 4) [E947F374] (AR v2)
Track 15 accurately ripped (confidence 4) [97A86692] (AR v2)
Track 16 accurately ripped (confidence 4) [F95CADEF] (AR v2)
All tracks accurately ripped
End of status report
---- CUETools DB Plugin V2.1.3
[CTDB TOCID: rtaY38HtOt6c6FdZbKke0F8sTpw-] found, Submit result: rtaY38HtOt6c6FdZbKke0F8sTpw- has been confirmed
[33867896] (3/3) Accurately ripped
==== Log checksum 679A767E75B44933DB7C140239A0C5D9A28EA34A5BA7802D3BBF63AF07AF1E63 ====

CD3

Exact Audio Copy V1.0 beta 3 from 29. August 2011
EAC extraction logfile from 23. May 2015, 19:58
The Millennium Classics / CD3 Mozart Magic
Used drive : TS8XDVDSTRANSCEND Adapter: 1 ID: 1
Read mode : Secure
Utilize accurate stream : Yes
Defeat audio cache : Yes
Make use of C2 pointers : No
Read offset correction : 6
Overread into Lead-In and Lead-Out : No
Fill up missing offset samples with silence : Yes
Delete leading and trailing silent blocks : No
Null samples used in CRC calculations : Yes
Used interface : Native Win32 interface for Win NT & 2000
Used output format : Monkey's Audio Lossless Encoder
Selected bitrate : High Lossless Compression
Quality : High
Add ID3 tag : Yes
Command line compressor : C:\Program Files (x86)\Exact Audio Copy\MAC\MAC.exe
TOC of the extracted CD
Track | Start | Length | Start sector | End sector
---------------------------------------------------------
1 | 0:00.00 | 5:44.51 | 0 | 25850
2 | 5:44.51 | 5:53.46 | 25851 | 52371
3 | 11:38.22 | 7:45.53 | 52372 | 87299
4 | 19:24.00 | 7:48.45 | 87300 | 122444
5 | 27:12.45 | 3:33.52 | 122445 | 138471
6 | 30:46.22 | 8:14.62 | 138472 | 175583
7 | 39:01.09 | 10:47.03 | 175584 | 224111
8 | 49:48.12 | 7:35.60 | 224112 | 258296
9 | 57:23.72 | 6:27.60 | 258297 | 287381
10 | 63:51.57 | 8:05.60 | 287382 | 323816
11 | 71:57.42 | 7:26.20 | 323817 | 357286
Range status and errors
Selected range
Filename D:\EAC\The Millennium Classics - CD3 Mozart Magic.wav
Peak level 97.0 %
Extraction speed 3.5 X
Range quality 100.0 %
Test CRC 53A79644
Copy CRC 53A79644
Copy OK
No errors occurred
AccurateRip summary
Track 1 accurately ripped (confidence 4) [45763DEC] (AR v2)
Track 2 accurately ripped (confidence 4) [0F59C6C5] (AR v2)
Track 3 accurately ripped (confidence 4) [40CC5D52] (AR v2)
Track 4 accurately ripped (confidence 3) [A6963B4E] (AR v2)
Track 5 accurately ripped (confidence 4) [FCF64C09] (AR v2)
Track 6 accurately ripped (confidence 4) [9E04C06A] (AR v2)
Track 7 accurately ripped (confidence 4) [C9EA6FEA] (AR v2)
Track 8 accurately ripped (confidence 4) [2EDA676C] (AR v2)
Track 9 accurately ripped (confidence 4) [B2997848] (AR v2)
Track 10 accurately ripped (confidence 4) [2638D734] (AR v2)
Track 11 accurately ripped (confidence 4) [1BB514E9] (AR v2)
All tracks accurately ripped
End of status report
---- CUETools DB Plugin V2.1.3
[CTDB TOCID: H7y31lIoC8GIIvBZc1f9CzDAEfU-] found, Submit result: unrecognized or virtual drive
[11fdb03c] (2/2) Accurately ripped
==== Log checksum AAEEBC148698FED2AB664F47A8AACBA8931B6AB0C664104EF0154A4613B2000A ====

CD4

Exact Audio Copy V1.0 beta 3 from 29. August 2011
EAC extraction logfile from 23. May 2015, 20:39
The Millenium Classics / CD4 Mighty Beethoven
Used drive : TSSTcorpCDDVDW SE-208AB Adapter: 1 ID: 0
Read mode : Secure
Utilize accurate stream : Yes
Defeat audio cache : Yes
Make use of C2 pointers : No
Read offset correction : 6
Overread into Lead-In and Lead-Out : No
Fill up missing offset samples with silence : Yes
Delete leading and trailing silent blocks : No
Null samples used in CRC calculations : Yes
Used interface : Native Win32 interface for Win NT & 2000
Used output format : Monkey's Audio Lossless Encoder
Selected bitrate : High Lossless Compression
Quality : High
Add ID3 tag : Yes
Command line compressor : C:\Program Files (x86)\Exact Audio Copy\MAC\MAC.exe
TOC of the extracted CD
Track | Start | Length | Start sector | End sector
---------------------------------------------------------
1 | 0:00.00 | 7:19.57 | 0 | 32981
2 | 7:19.57 | 3:21.43 | 32982 | 48099
3 | 10:41.25 | 11:00.62 | 48100 | 97661
4 | 21:42.12 | 7:28.60 | 97662 | 131321
5 | 29:10.72 | 8:24.20 | 131322 | 169141
6 | 37:35.17 | 5:31.53 | 169142 | 194019
7 | 43:06.70 | 9:50.07 | 194020 | 238276
8 | 52:57.02 | 5:57.65 | 238277 | 265116
9 | 58:54.67 | 18:49.43 | 265117 | 349834
Range status and errors
Selected range
Filename D:\EAC\The Millenium Classics - CD4 Mighty Beethoven.wav
Peak level 100.0 %
Extraction speed 2.2 X
Range quality 100.0 %
Test CRC 147B0C21
Copy CRC 147B0C21
Copy OK
No errors occurred
AccurateRip summary
Track 1 accurately ripped (confidence 4) [B25A2683] (AR v2)
Track 2 accurately ripped (confidence 4) [622C9F56] (AR v2)
Track 3 accurately ripped (confidence 4) [A4DD9AB6] (AR v2)
Track 4 accurately ripped (confidence 4) [96740C55] (AR v2)
Track 5 accurately ripped (confidence 4) [105FBF03] (AR v2)
Track 6 accurately ripped (confidence 4) [5CC7797C] (AR v2)
Track 7 accurately ripped (confidence 4) [FA1678DC] (AR v2)
Track 8 accurately ripped (confidence 4) [FA55E212] (AR v2)
Track 9 accurately ripped (confidence 4) [1157463D] (AR v2)
All tracks accurately ripped
End of status report
---- CUETools DB Plugin V2.1.3
[CTDB TOCID: q.EI_BSbSn3H8J2XIJEIoKQZBYk-] found, Submit result: q.EI_BSbSn3H8J2XIJEIoKQZBYk- has been confirmed
[684d115f] (3/3) Accurately ripped
==== Log checksum 4F0C2882E09B5B9EF186B751F0691796EF25B5D4D2362CD2F1ED3B38CAA14741 ====

CD5

Exact Audio Copy V1.0 beta 3 from 29. August 2011
EAC extraction logfile from 23. May 2015, 20:47
The Millennium Classics / CD5 Classical Treasures I
Used drive : TS8XDVDSTRANSCEND Adapter: 1 ID: 1
Read mode : Secure
Utilize accurate stream : Yes
Defeat audio cache : Yes
Make use of C2 pointers : No
Read offset correction : 6
Overread into Lead-In and Lead-Out : No
Fill up missing offset samples with silence : Yes
Delete leading and trailing silent blocks : No
Null samples used in CRC calculations : Yes
Used interface : Native Win32 interface for Win NT & 2000
Used output format : Monkey's Audio Lossless Encoder
Selected bitrate : High Lossless Compression
Quality : High
Add ID3 tag : Yes
Command line compressor : C:\Program Files (x86)\Exact Audio Copy\MAC\MAC.exe
TOC of the extracted CD
Track | Start | Length | Start sector | End sector
---------------------------------------------------------
1 | 0:00.00 | 7:44.62 | 0 | 34861
2 | 7:44.62 | 7:26.58 | 34862 | 68369
3 | 15:11.45 | 4:14.49 | 68370 | 87468
4 | 19:26.19 | 4:46.13 | 87469 | 108931
5 | 24:12.32 | 3:59.50 | 108932 | 126906
6 | 28:12.07 | 2:42.47 | 126907 | 139103
7 | 30:54.54 | 4:46.54 | 139104 | 160607
8 | 35:41.33 | 12:06.10 | 160608 | 215067
9 | 47:47.43 | 12:45.47 | 215068 | 272489
10 | 60:33.15 | 4:55.47 | 272490 | 294661
11 | 65:28.62 | 13:29.08 | 294662 | 355344
Range status and errors
Selected range
Filename D:\EAC\The Millennium Classics - CD5 Classical Treasures I.wav
Peak level 93.7 %
Extraction speed 3.5 X
Range quality 100.0 %
Test CRC 1D3B7DCA
Copy CRC 1D3B7DCA
Copy OK
No errors occurred
AccurateRip summary
Track 1 accurately ripped (confidence 4) [54AE05B4] (AR v2)
Track 2 accurately ripped (confidence 4) [94BD9860] (AR v2)
Track 3 accurately ripped (confidence 4) [2F5BF662] (AR v2)
Track 4 accurately ripped (confidence 4) [B4AC76C5] (AR v2)
Track 5 accurately ripped (confidence 4) [9615E9C4] (AR v2)
Track 6 accurately ripped (confidence 4) [ED59EF7C] (AR v2)
Track 7 accurately ripped (confidence 4) [AA31B162] (AR v2)
Track 8 accurately ripped (confidence 4) [87ACC3C6] (AR v2)
Track 9 accurately ripped (confidence 4) [9B985B82] (AR v2)
Track 10 accurately ripped (confidence 4) [E58850CD] (AR v2)
Track 11 accurately ripped (confidence 4) [7A93FB7F] (AR v2)
All tracks accurately ripped
End of status report
---- CUETools DB Plugin V2.1.3
[CTDB TOCID: 0eriie24JbgGHj.BmBZlcQ9F_aM-] found, Submit result: unrecognized or virtual drive
[8ab452b5] (2/2) Accurately ripped
==== Log checksum A5871D3D67B57D9B20D035F213CED95F5AFD90BEA8DBFD3373449AE5970F1EFB ====

CD6

Exact Audio Copy V1.0 beta 3 from 29. August 2011
EAC extraction logfile from 23. May 2015, 23:27
The Millennium Classics / CD6 Classical Treasures II
Used drive : TS8XDVDSTRANSCEND Adapter: 1 ID: 1
Read mode : Secure
Utilize accurate stream : Yes
Defeat audio cache : Yes
Make use of C2 pointers : No
Read offset correction : 6
Overread into Lead-In and Lead-Out : No
Fill up missing offset samples with silence : Yes
Delete leading and trailing silent blocks : No
Null samples used in CRC calculations : Yes
Used interface : Native Win32 interface for Win NT & 2000
Used output format : Monkey's Audio Lossless Encoder
Selected bitrate : High Lossless Compression
Quality : High
Add ID3 tag : Yes
Command line compressor : C:\Program Files (x86)\Exact Audio Copy\MAC\MAC.exe
TOC of the extracted CD
Track | Start | Length | Start sector | End sector
---------------------------------------------------------
1 | 0:00.00 | 9:38.43 | 0 | 43392
2 | 9:38.43 | 20:03.45 | 43393 | 133662
3 | 29:42.13 | 5:04.72 | 133663 | 156534
4 | 34:47.10 | 1:52.34 | 156535 | 164968
5 | 36:39.44 | 9:36.47 | 164969 | 208215
6 | 46:16.16 | 2:29.20 | 208216 | 219410
7 | 48:45.36 | 5:36.09 | 219411 | 244619
8 | 54:21.45 | 1:28.51 | 244620 | 251270
9 | 55:50.21 | 6:20.18 | 251271 | 279788
10 | 62:10.39 | 4:20.15 | 279789 | 299303
11 | 66:30.54 | 10:46.69 | 299304 | 347822
Range status and errors
Selected range
Filename D:\EAC\The Millennium Classics - CD6 Classical Treasures II.wav
Peak level 91.6 %
Extraction speed 3.5 X
Range quality 100.0 %
Test CRC 700E1917
Copy CRC 700E1917
Copy OK
No errors occurred
AccurateRip summary
Track 1 accurately ripped (confidence 4) [658F3486] (AR v2)
Track 2 accurately ripped (confidence 4) [C97CFF2B] (AR v2)
Track 3 accurately ripped (confidence 4) [D19D72B5] (AR v2)
Track 4 accurately ripped (confidence 4) [4A2A1FD2] (AR v2)
Track 5 accurately ripped (confidence 4) [6A1EC144] (AR v2)
Track 6 accurately ripped (confidence 4) [429A08C7] (AR v2)
Track 7 accurately ripped (confidence 4) [BB33B531] (AR v2)
Track 8 accurately ripped (confidence 4) [99376961] (AR v2)
Track 9 accurately ripped (confidence 4) [44368E6E] (AR v2)
Track 10 accurately ripped (confidence 4) [4BBAE64A] (AR v2)
Track 11 accurately ripped (confidence 4) [34E63997] (AR v2)
All tracks accurately ripped
End of status report
---- CUETools DB Plugin V2.1.3
[CTDB TOCID: I_7ep65TY68G.e6TjDqxCDC1dRY-] found, Submit result: unrecognized or virtual drive
[11385e42] (2/2) Accurately ripped
==== Log checksum 0658E60ADFFA2BC9857F03878EB236D5867BBCD5295F7EBCF11F1D9527CE43E0 ====

CD7

Exact Audio Copy V1.0 beta 3 from 29. August 2011
EAC extraction logfile from 23. May 2015, 21:49
The Millennium Classics / CD7 Classical Treasures III
Used drive : TSSTcorpCDDVDW SE-208AB Adapter: 1 ID: 0
Read mode : Secure
Utilize accurate stream : Yes
Defeat audio cache : Yes
Make use of C2 pointers : No
Read offset correction : 6
Overread into Lead-In and Lead-Out : No
Fill up missing offset samples with silence : Yes
Delete leading and trailing silent blocks : No
Null samples used in CRC calculations : Yes
Used interface : Native Win32 interface for Win NT & 2000
Used output format : Monkey's Audio Lossless Encoder
Selected bitrate : High Lossless Compression
Quality : High
Add ID3 tag : Yes
Command line compressor : C:\Program Files (x86)\Exact Audio Copy\MAC\MAC.exe
TOC of the extracted CD
Track | Start | Length | Start sector | End sector
---------------------------------------------------------
1 | 0:00.00 | 20:33.06 | 0 | 92480
2 | 20:33.06 | 13:25.14 | 92481 | 152869
3 | 33:58.20 | 10:24.28 | 152870 | 199697
4 | 44:22.48 | 6:41.17 | 199698 | 229789
5 | 51:03.65 | 10:26.24 | 229790 | 276763
6 | 61:30.14 | 6:52.56 | 276764 | 307719
7 | 68:22.70 | 5:08.58 | 307720 | 330877
Range status and errors
Selected range
Filename D:\EAC\The Millennium Classics - CD7 Classical Treasures III.wav
Peak level 93.7 %
Extraction speed 2.2 X
Range quality 100.0 %
Test CRC 54E5D3FF
Copy CRC 54E5D3FF
Copy OK
No errors occurred
AccurateRip summary
Track 1 accurately ripped (confidence 4) [B4F67F04] (AR v2)
Track 2 accurately ripped (confidence 4) [8ED3BF2B] (AR v2)
Track 3 accurately ripped (confidence 4) [50CC3D3D] (AR v2)
Track 4 accurately ripped (confidence 4) [15312311] (AR v2)
Track 5 accurately ripped (confidence 4) [40517D8A] (AR v2)
Track 6 accurately ripped (confidence 4) [3D8F25DC] (AR v2)
Track 7 accurately ripped (confidence 4) [A88A2FB0] (AR v2)
All tracks accurately ripped
End of status report
---- CUETools DB Plugin V2.1.3
[CTDB TOCID: 8u0mUL89INdLBvVRCVmnqYHKAmc-] found, Submit result: 8u0mUL89INdLBvVRCVmnqYHKAmc- has been confirmed
[0d48772b] (3/3) Accurately ripped
==== Log checksum 4CAB9730D52463C6304069412C9BBF80E4FC004DF2B3A18F817438C9828121E3 ====

CD8

Exact Audio Copy V1.0 beta 3 from 29. August 2011
EAC extraction logfile from 23. May 2015, 21:47
The Millennium Classics / CD8 Classical Treasures IV
Used drive : TS8XDVDSTRANSCEND Adapter: 1 ID: 1
Read mode : Secure
Utilize accurate stream : Yes
Defeat audio cache : Yes
Make use of C2 pointers : No
Read offset correction : 6
Overread into Lead-In and Lead-Out : No
Fill up missing offset samples with silence : Yes
Delete leading and trailing silent blocks : No
Null samples used in CRC calculations : Yes
Used interface : Native Win32 interface for Win NT & 2000
Used output format : Monkey's Audio Lossless Encoder
Selected bitrate : High Lossless Compression
Quality : High
Add ID3 tag : Yes
Command line compressor : C:\Program Files (x86)\Exact Audio Copy\MAC\MAC.exe
TOC of the extracted CD
Track | Start | Length | Start sector | End sector
---------------------------------------------------------
1 | 0:00.00 | 7:07.38 | 0 | 32062
2 | 7:07.38 | 3:12.50 | 32063 | 46512
3 | 10:20.13 | 8:13.43 | 46513 | 83530
4 | 18:33.56 | 8:41.62 | 83531 | 122667
5 | 27:15.43 | 7:04.26 | 122668 | 154493
6 | 34:19.69 | 4:47.49 | 154494 | 176067
7 | 39:07.43 | 10:51.37 | 176068 | 224929
8 | 49:59.05 | 10:00.57 | 224930 | 269986
9 | 59:59.62 | 13:03.32 | 269987 | 328743
Range status and errors
Selected range
Filename D:\EAC\The Millennium Classics - CD8 Classical Treasures IV.wav
Peak level 97.9 %
Extraction speed 2.2 X
Range quality 100.0 %
Test CRC CAB320AF
Copy CRC CAB320AF
Copy OK
No errors occurred
AccurateRip summary
Track 1 accurately ripped (confidence 4) [A6BC062B] (AR v2)
Track 2 accurately ripped (confidence 4) [4EDAEBD4] (AR v2)
Track 3 accurately ripped (confidence 4) [20C096BE] (AR v2)
Track 4 accurately ripped (confidence 4) [2E0F5569] (AR v2)
Track 5 accurately ripped (confidence 4) [A9991167] (AR v2)
Track 6 accurately ripped (confidence 4) [BCEDB21B] (AR v2)
Track 7 accurately ripped (confidence 4) [B18969E1] (AR v2)
Track 8 accurately ripped (confidence 4) [F50B3400] (AR v2)
Track 9 accurately ripped (confidence 4) [F26D7DF4] (AR v2)
All tracks accurately ripped
End of status report
---- CUETools DB Plugin V2.1.3
[CTDB TOCID: REgd_QercC0l_zss85bB2OdbBCY-] found, Submit result: unrecognized or virtual drive
[d4d2396c] (2/2) Accurately ripped
==== Log checksum DF3D4420D360D5928FC57DBB80EA15A2CB47DA02DD7A8A3C8A2A8B18A8089ABF ====

CD9

Exact Audio Copy V1.0 beta 3 from 29. August 2011
EAC extraction logfile from 23. May 2015, 22:40
The Millennium Classics / CD9 Timeless Treasures
Used drive : TS8XDVDSTRANSCEND Adapter: 1 ID: 1
Read mode : Secure
Utilize accurate stream : Yes
Defeat audio cache : Yes
Make use of C2 pointers : No
Read offset correction : 6
Overread into Lead-In and Lead-Out : No
Fill up missing offset samples with silence : Yes
Delete leading and trailing silent blocks : No
Null samples used in CRC calculations : Yes
Used interface : Native Win32 interface for Win NT & 2000
Used output format : Monkey's Audio Lossless Encoder
Selected bitrate : High Lossless Compression
Quality : High
Add ID3 tag : Yes
Command line compressor : C:\Program Files (x86)\Exact Audio Copy\MAC\MAC.exe
TOC of the extracted CD
Track | Start | Length | Start sector | End sector
---------------------------------------------------------
1 | 0:00.00 | 14:47.53 | 0 | 66577
2 | 14:47.53 | 8:36.21 | 66578 | 105298
3 | 23:23.74 | 4:23.67 | 105299 | 125090
4 | 27:47.66 | 3:48.36 | 125091 | 142226
5 | 31:36.27 | 1:00.18 | 142227 | 146744
6 | 32:36.45 | 0:56.28 | 146745 | 150972
7 | 33:32.73 | 3:57.65 | 150973 | 168812
8 | 37:30.63 | 3:45.02 | 168813 | 185689
9 | 41:15.65 | 3:50.69 | 185690 | 203008
10 | 45:06.59 | 3:21.32 | 203009 | 218115
11 | 48:28.16 | 3:04.22 | 218116 | 231937
12 | 51:32.38 | 3:46.73 | 231938 | 248960
13 | 55:19.36 | 2:55.48 | 248961 | 262133
14 | 58:15.09 | 2:00.20 | 262134 | 271153
15 | 60:15.29 | 3:31.17 | 271154 | 286995
16 | 63:46.46 | 3:35.39 | 286996 | 303159
17 | 67:22.10 | 5:12.24 | 303160 | 326583
18 | 72:34.34 | 0:57.20 | 326584 | 330878
19 | 73:31.54 | 4:59.05 | 330879 | 353308
Range status and errors
Selected range
Filename D:\EAC\The Millennium Classics - CD9 Timeless Treasures.wav
Peak level 99.3 %
Extraction speed 3.5 X
Range quality 100.0 %
Test CRC F9C501F5
Copy CRC F9C501F5
Copy OK
No errors occurred
AccurateRip summary
Track 1 accurately ripped (confidence 4) [55A17659] (AR v2)
Track 2 accurately ripped (confidence 4) [3CCBA888] (AR v2)
Track 3 accurately ripped (confidence 4) [001B9CE0] (AR v2)
Track 4 accurately ripped (confidence 4) [40CC4A42] (AR v2)
Track 5 accurately ripped (confidence 4) [771B19E0] (AR v2)
Track 6 accurately ripped (confidence 4) [0A74C10D] (AR v2)
Track 7 accurately ripped (confidence 4) [A2EAF079] (AR v2)
Track 8 accurately ripped (confidence 4) [03BBCF60] (AR v2)
Track 9 accurately ripped (confidence 4) [CB54ED20] (AR v2)
Track 10 accurately ripped (confidence 4) [215794C5] (AR v2)
Track 11 accurately ripped (confidence 4) [7E0CCC49] (AR v2)
Track 12 accurately ripped (confidence 4) [9B195302] (AR v2)
Track 13 accurately ripped (confidence 4) [C5D9FEFE] (AR v2)
Track 14 accurately ripped (confidence 4) [DEA90ADC] (AR v2)
Track 15 accurately ripped (confidence 4) [F2A7F8D5] (AR v2)
Track 16 accurately ripped (confidence 4) [772E9B73] (AR v2)
Track 17 accurately ripped (confidence 4) [91A7CF22] (AR v2)
Track 18 accurately ripped (confidence 4) [AD1DF80F] (AR v2)
Track 19 accurately ripped (confidence 4) [3D8FF241] (AR v2)
All tracks accurately ripped
End of status report
---- CUETools DB Plugin V2.1.3
[CTDB TOCID: ORS4hyBW44lTTHCsINqm2GpH3HQ-] found, Submit result: unrecognized or virtual drive
[58ae1cc5] (2/2) Accurately ripped
==== Log checksum 5C3812916E11AAF35DC0FA98996BA461D26FA539712E6320B996FD14417289A4 ====

CD10

Exact Audio Copy V1.0 beta 3 from 29. August 2011
EAC extraction logfile from 23. May 2015, 23:03
The Millennium Classics / CD 10 Opera Treasures
Used drive : TSSTcorpCDDVDW SE-208AB Adapter: 1 ID: 0
Read mode : Secure
Utilize accurate stream : Yes
Defeat audio cache : Yes
Make use of C2 pointers : No
Read offset correction : 6
Overread into Lead-In and Lead-Out : No
Fill up missing offset samples with silence : Yes
Delete leading and trailing silent blocks : No
Null samples used in CRC calculations : Yes
Used interface : Native Win32 interface for Win NT & 2000
Used output format : Monkey's Audio Lossless Encoder
Selected bitrate : High Lossless Compression
Quality : High
Add ID3 tag : Yes
Command line compressor : C:\Program Files (x86)\Exact Audio Copy\MAC\MAC.exe
TOC of the extracted CD
Track | Start | Length | Start sector | End sector
---------------------------------------------------------
1 | 0:00.00 | 5:28.48 | 0 | 24647
2 | 5:28.48 | 5:25.36 | 24648 | 49058
3 | 10:54.09 | 5:56.59 | 49059 | 75817
4 | 16:50.68 | 5:25.61 | 75818 | 100253
5 | 22:16.54 | 2:53.35 | 100254 | 113263
6 | 25:10.14 | 2:59.15 | 113264 | 126703
7 | 28:09.29 | 2:58.13 | 126704 | 140066
8 | 31:07.42 | 7:07.54 | 140067 | 172145
9 | 38:15.21 | 4:50.36 | 172146 | 193931
10 | 43:05.57 | 3:06.23 | 193932 | 207904
11 | 46:12.05 | 3:23.70 | 207905 | 223199
12 | 49:36.00 | 2:23.29 | 223200 | 233953
13 | 51:59.29 | 3:08.49 | 233954 | 248102
14 | 55:08.03 | 9:56.69 | 248103 | 292871
15 | 65:04.72 | 3:22.55 | 292872 | 308076
16 | 68:27.52 | 7:34.38 | 308077 | 342164
Range status and errors
Selected range
Filename D:\EAC\The Millennium Classics - CD 10 Opera Treasures.wav
Peak level 100.0 %
Extraction speed 2.2 X
Range quality 100.0 %
Test CRC 86C5C099
Copy CRC 86C5C099
Copy OK
No errors occurred
AccurateRip summary
Track 1 accurately ripped (confidence 4) [0BEFF537] (AR v2)
Track 2 accurately ripped (confidence 4) [6F1E6E50] (AR v2)
Track 3 accurately ripped (confidence 4) [14ECF361] (AR v2)
Track 4 accurately ripped (confidence 4) [0EC0DDF2] (AR v2)
Track 5 accurately ripped (confidence 4) [A18794BD] (AR v2)
Track 6 accurately ripped (confidence 4) [A7785922] (AR v2)
Track 7 accurately ripped (confidence 4) [2AFDDE5A] (AR v2)
Track 8 accurately ripped (confidence 4) [731D223A] (AR v2)
Track 9 accurately ripped (confidence 4) [16D70ADB] (AR v2)
Track 10 accurately ripped (confidence 4) [145A2252] (AR v2)
Track 11 accurately ripped (confidence 4) [75F83766] (AR v2)
Track 12 accurately ripped (confidence 4) [D2A30F84] (AR v2)
Track 13 accurately ripped (confidence 4) [859450E4] (AR v2)
Track 14 accurately ripped (confidence 4) [8322884A] (AR v2)
Track 15 accurately ripped (confidence 4) [A1EF8CFF] (AR v2)
Track 16 accurately ripped (confidence 4) [3DA6385C] (AR v2)
All tracks accurately ripped
End of status report
---- CUETools DB Plugin V2.1.3
[CTDB TOCID: IbYKIcVmlO5ol3AKT2bCBh1_dSc-] found, Submit result: IbYKIcVmlO5ol3AKT2bCBh1_dSc- has been confirmed
[8de9d654] (3/3) Accurately ripped
==== Log checksum 528AA89F88B16EA64F370A6BD184AEA6891CE73FD0746FE989B7CCA329C90299 ====

Содержание индексной карты (.CUE)

CD1

REM GENRE Classical
REM DATE 1999
REM DISCID 34129B15
REM COMMENT "ExactAudioCopy v1.0b3"
PERFORMER "The Millennium Classics"
TITLE " CD1 Baroque Treasures"
FILE "The Millennium Classics - CD1 Baroque Treasures.ape" WAVE
TRACK 01 AUDIO
TITLE "The Four Seasons - Concierto No.1 in E major 'Spring', RV 269 I: Allegro"
PERFORMER "Yehudi Menuhin"
FLAGS DCP
INDEX 01 00:00:00
TRACK 02 AUDIO
TITLE "The Four Seasons - Concierto No.1 in E major 'Spring', RV 269 II: Largo"
PERFORMER "Yehudi Menuhin"
FLAGS DCP
INDEX 01 03:22:15
TRACK 03 AUDIO
TITLE "The Four Seasons - Concierto No.1 in E major 'Spring', RV 269 III: Allegro"
PERFORMER "Yehudi Menuhin"
FLAGS DCP
INDEX 01 05:46:42
TRACK 04 AUDIO
TITLE "Canon à 3 on a ground in D"
PERFORMER "Academy of St. Martin in the Fields"
FLAGS DCP
INDEX 01 10:11:05
TRACK 05 AUDIO
TITLE "Orchestral Suite No.3 in D major, BWV 1068 II: Air"
PERFORMER "Yehudi Menuhin"
FLAGS DCP
INDEX 01 15:08:58
TRACK 06 AUDIO
TITLE "Adagio"
PERFORMER "Academy of St. Martin in the Fields"
FLAGS DCP
INDEX 01 19:31:10
TRACK 07 AUDIO
TITLE "Arrival of the Queen of Sheba (Sinfonia) (Solomon)"
PERFORMER "Academy of St. Martin in the Fields"
FLAGS DCP
INDEX 01 27:16:15
TRACK 08 AUDIO
TITLE "Concerto for Two Violins in D minor BWV 1043 II: Largo ma non troppo"
PERFORMER "Yehudi Menuhin"
FLAGS DCP
INDEX 01 30:04:15
TRACK 09 AUDIO
TITLE "String Quintet in E major, Op.13, No.5-Minuet"
PERFORMER "Academy of St. Martin in the Fields"
FLAGS DCP
INDEX 01 37:45:33
TRACK 10 AUDIO
TITLE "Organ Concerto No.13 in F major 'Cuckoo and Nightingale' I: Larghetto"
PERFORMER "Orchestre de Chambre de Toulouse"
FLAGS DCP
INDEX 01 41:40:59
TRACK 11 AUDIO
TITLE "Organ Concerto No.13 in F major 'Cuckoo and Nightingale' II: Allegro-Kadenz-T..."
PERFORMER "Orchestre de Chambre de Toulouse"
FLAGS DCP
INDEX 01 43:53:01
TRACK 12 AUDIO
TITLE "Organ Concerto No.13 in F major 'Cuckoo and Nightingale' III: Larghetto"
PERFORMER "Orchestre de Chambre de Toulouse"
FLAGS DCP
INDEX 01 47:39:41
TRACK 13 AUDIO
TITLE "Organ Concerto No.13 in F major 'Cuckoo and Nightingale' IV: Allegro"
PERFORMER "Orchestre de Chambre de Toulouse"
FLAGS DCP
INDEX 01 50:34:06
TRACK 14 AUDIO
TITLE "Brandenburg Concerto No.2 in F major, BWV 1047 I: Allegro"
PERFORMER "London Philharmonic Orchestra"
FLAGS DCP
INDEX 01 53:49:61
TRACK 15 AUDIO
TITLE "Brandenburg Concerto No.2 in F major, BWV 1047 II: Andante"
PERFORMER "London Philharmonic Orchestra"
FLAGS DCP
INDEX 00 59:16:22
INDEX 01 59:17:35
TRACK 16 AUDIO
TITLE "Brandenburg Concerto No.2 in F major, BWV 1047 III: Allegro assai"
PERFORMER "London Philharmonic Orchestra"
FLAGS DCP
INDEX 00 63:31:63
INDEX 01 63:32:29
TRACK 17 AUDIO
TITLE "Water Music I: Allegro"
PERFORMER "Berliner Philharmoniker"
FLAGS DCP
INDEX 00 66:36:35
INDEX 01 66:37:13
TRACK 18 AUDIO
TITLE "Water Music II: Air"
PERFORMER "Berliner Philharmoniker"
FLAGS DCP
INDEX 00 69:14:72
INDEX 01 69:15:44
TRACK 19 AUDIO
TITLE "Water Music III: Bourree"
PERFORMER "Berliner Philharmoniker"
FLAGS DCP
INDEX 00 74:34:00
INDEX 01 74:34:17
TRACK 20 AUDIO
TITLE "Water Music IV: Hornpipe"
PERFORMER "Berliner Philharmoniker"
FLAGS DCP
INDEX 01 75:20:54
TRACK 21 AUDIO
TITLE "Suite for Violoncello No.1 in G major, BWV 1007-Sarabande"
PERFORMER "Paul Tortelier"
FLAGS DCP
INDEX 01 76:12:09

CD2

REM GENRE classical
REM DATE 1999
REM DISCID EF11A510
REM COMMENT "ExactAudioCopy v1.0b3"
PERFORMER "The Millennium Classics"
TITLE " CD2 Sacred Treasures"
FILE "The Millennium Classics - CD2 Sacred Treasures.ape" WAVE
TRACK 01 AUDIO
TITLE "Mattheus Passion, BWV 244 - Kommt, ihr Töchter, helft mir klagen"
PERFORMER "Consortium Musicum"
FLAGS DCP
INDEX 01 00:00:00
TRACK 02 AUDIO
TITLE "Mattheus Passion, BWV 244 - Wir Setzen uns mit Tränen nieder"
PERFORMER "Consortium Musicum"
FLAGS DCP
INDEX 00 09:02:25
INDEX 01 09:05:13
TRACK 03 AUDIO
TITLE "Stabat Mater - I: Stabat mater dolorosa"
PERFORMER "Capella Agostino Steffani"
FLAGS DCP
INDEX 00 16:21:57
INDEX 01 16:24:45
TRACK 04 AUDIO
TITLE "Ave Verum Corpus, K.618 3.26"
PERFORMER "Swedish Chamber Orchestra"
FLAGS DCP
INDEX 00 20:03:74
INDEX 01 20:06:62
TRACK 05 AUDIO
TITLE "Ave Maria"
PERFORMER "Janet Baker"
FLAGS DCP
INDEX 00 23:30:26
INDEX 01 23:33:15
TRACK 06 AUDIO
TITLE "Requiem, K.626 - I: Introitus 'Requiem Aeternam'"
PERFORMER "Consortium Musicum"
FLAGS DCP
INDEX 00 26:41:35
INDEX 01 26:44:23
TRACK 07 AUDIO
TITLE "Requiem, K.626 - Confutatis maledictis"
PERFORMER "Consortium Musicum"
FLAGS DCP
INDEX 00 31:54:13
INDEX 01 31:57:01
TRACK 08 AUDIO
TITLE "Requiem, K.626 - Lacrimosa dies illa"
PERFORMER "Consortium Musicum"
FLAGS DCP
INDEX 00 34:21:28
INDEX 01 34:24:16
TRACK 09 AUDIO
TITLE "Ave Maria, D.839"
PERFORMER "Elly Ameling"
FLAGS DCP
INDEX 00 37:27:33
INDEX 01 37:30:21
TRACK 10 AUDIO
TITLE "Requiem, Op.48 - Pie Jesu"
PERFORMER "Victoria de los Ángeles"
FLAGS DCP
INDEX 00 43:06:53
INDEX 01 43:09:41
TRACK 11 AUDIO
TITLE "Cantique de Jean Racine - Verbe égal et très Haut"
PERFORMER "Barbara Hendricks"
FLAGS DCP
INDEX 00 46:26:33
INDEX 01 46:29:21
TRACK 12 AUDIO
TITLE "Messa de Requiem - Requiem Aeternam"
PERFORMER "Philharmonia Orchestra"
FLAGS DCP
INDEX 00 52:12:44
INDEX 01 52:15:32
TRACK 13 AUDIO
TITLE "Messa de Requiem - Dies irae"
PERFORMER "Philharmonia Orchestra"
FLAGS DCP
INDEX 00 57:28:11
INDEX 01 57:30:74
TRACK 14 AUDIO
TITLE "Requiem - Ingemisco"
PERFORMER "Luciano Pavarotti"
FLAGS DCP
INDEX 00 59:37:51
INDEX 01 59:40:39
TRACK 15 AUDIO
TITLE "Johannes Passion, BWV 245 - Ruht Wohl"
PERFORMER "Consortium Musicum"
FLAGS DCP
INDEX 00 63:19:02
INDEX 01 63:21:65
TRACK 16 AUDIO
TITLE "Messiah - Hallelujah"
PERFORMER "English Chamber Orchestra"
FLAGS DCP
INDEX 00 71:14:68
INDEX 01 71:17:56

CD3

REM GENRE Classical
REM DATE 1999
REM DISCID 99129B0B
REM COMMENT "ExactAudioCopy v1.0b3"
CATALOG 0724357029025
PERFORMER "The Millennium Classics"
TITLE "CD3 Mozart Magic"
FILE "The Millennium Classics - CD3 Mozart Magic.ape" WAVE
TRACK 01 AUDIO
TITLE "Serenata No.13 in G major, K.525 'Eine kleine Nachtmusik' - I: Allegro"
PERFORMER "Berliner Philharmoniker"
INDEX 01 00:00:00
TRACK 02 AUDIO
TITLE "Serenata No.13 in G major, K.525 'Eine kleine Nachtmusik' - II: Romanze (Anda..."
PERFORMER "Berliner Philharmoniker"
INDEX 00 05:42:69
INDEX 01 05:44:51
TRACK 03 AUDIO
TITLE "Piano Concerto No.21 in C major, K.467 - II: Andante"
PERFORMER "London Philharmonic Orchestra"
INDEX 00 11:36:40
INDEX 01 11:38:22
TRACK 04 AUDIO
TITLE "Symphony No.40 in G minor, K.550 - Molto allegro"
PERFORMER "English Chamber Orchestra"
INDEX 00 19:22:18
INDEX 01 19:24:00
TRACK 05 AUDIO
TITLE "Horn Concerto No.4 in E flat major, K.495 - III: Rondo (Allegro vivace)"
PERFORMER "Academy of St. Martin in the Fields"
INDEX 00 27:10:63
INDEX 01 27:12:45
TRACK 06 AUDIO
TITLE "Concerto for Flute and Harp - Andantino"
PERFORMER "Berliner Philharmoniker"
INDEX 00 30:44:40
INDEX 01 30:46:22
TRACK 07 AUDIO
TITLE "Piano Concerto No.23 in A, K.488 - I: Allegro"
PERFORMER "Staatskapelle Dresden"
INDEX 00 38:59:27
INDEX 01 39:01:09
TRACK 08 AUDIO
TITLE "Clarinet Concerto in A major, K.622 - II: Adagio"
PERFORMER "Berliner Philharmoniker"
INDEX 00 49:46:30
INDEX 01 49:48:12
TRACK 09 AUDIO
TITLE "Trumpet Concerto in E flat major - I: Allegro"
PERFORMER "English Chamber Orchestra"
INDEX 00 57:22:15
INDEX 01 57:23:72
TRACK 10 AUDIO
TITLE "Piano Quintet, D.667 'The Trout'- Theme and Variatons"
PERFORMER "Amadeus Quartet"
INDEX 00 63:50:00
INDEX 01 63:51:57
TRACK 11 AUDIO
TITLE "Impromptu in As, Op.90 No.4 D.889"
PERFORMER "Daniel Wayenberg"
INDEX 00 71:55:60
INDEX 01 71:57:42

CD4

REM GENRE Classical
REM DATE 1999
REM DISCID 7B123809
REM COMMENT "ExactAudioCopy v1.0b3"
PERFORMER "The Millenium Classics"
TITLE "CD4 Mighty Beethoven"
FILE "The Millenium Classics - CD4 Mighty Beethoven.ape" WAVE
TRACK 01 AUDIO
TITLE "Symphony No.5 in C minor, Op.67 - Allegro con brio"
PERFORMER "Philadelphia Orchestra"
INDEX 01 00:00:00
TRACK 02 AUDIO
TITLE "Symphony No.5 in C minor, Op.67 - Bagatelle No. 25, G.173 'Für Elise'"
PERFORMER "Dame Moura Lympany"
INDEX 00 07:14:70
INDEX 01 07:19:57
TRACK 03 AUDIO
TITLE "Symphony No.6 in F major, Op. 68 'Pastoral' - I: Allegro ma non troppo"
PERFORMER "London Symphony Orchestra"
INDEX 00 10:36:45
INDEX 01 10:41:25
TRACK 04 AUDIO
TITLE "Piano Concerto No.5 in E flat major Op.73 'Emperor' - II: Adagio un poco mosso"
PERFORMER "Philharmonia Orchestra"
INDEX 00 21:37:47
INDEX 01 21:42:12
TRACK 05 AUDIO
TITLE "Symphony No.7 in A major, Op.92 - III: Presto"
PERFORMER "Berliner Philharmoniker"
INDEX 00 29:06:15
INDEX 01 29:10:72
TRACK 06 AUDIO
TITLE "Symphony No.8 in F major, Op.93 - III: Tempo di menuetto"
PERFORMER "London Symphony Orchestra"
INDEX 00 37:30:57
INDEX 01 37:35:17
TRACK 07 AUDIO
TITLE "Violin Concerto in D major, Op.61 - II: Larghetto, attacco"
PERFORMER "Royal Philharmonic Orchestra"
INDEX 00 43:02:32
INDEX 01 43:06:70
TRACK 08 AUDIO
TITLE "Piano sonota No.14 in C sharp minor, Op.27 No.2 'Moonlight' - I: Adagio soste..."
PERFORMER "Andrea Lucchesini"
INDEX 00 52:54:07
INDEX 01 52:57:02
TRACK 09 AUDIO
TITLE "Symphony No.9 in D minor, Op.125 'Choral' - Hymn to joy"
PERFORMER "Robert Tear"
INDEX 00 58:50:60
INDEX 01 58:54:67

CD5

REM GENRE Classical
REM DATE 1999
REM DISCID A812810B
REM COMMENT "ExactAudioCopy v1.0b3"
PERFORMER "The Millennium Classics"
TITLE "CD5 Classical Treasures I"
FILE "The Millennium Classics - CD5 Classical Treasures I.ape" WAVE
TRACK 01 AUDIO
TITLE "Symphone No.4 in A major, Op.90 'Italian' - Allegro vivace"
PERFORMER "Berliner Philharmoniker"
FLAGS DCP
INDEX 01 00:00:00
TRACK 02 AUDIO
TITLE "Prelude, Op.28 No.15 'Raindrop'"
PERFORMER "Rudolf Buchbinder"
FLAGS DCP
INDEX 00 07:43:54
INDEX 01 07:44:62
TRACK 03 AUDIO
TITLE "Peer Gynt Suite No.1, Op.46 - Morning"
PERFORMER "Bournemouth Symphony Orchestra"
FLAGS DCP
INDEX 00 15:09:69
INDEX 01 15:11:45
TRACK 04 AUDIO
TITLE "Peer Gynt Suite No.1, Op.46 - Ase's Death"
PERFORMER "Bournemouth Symphony Orchestra"
FLAGS DCP
INDEX 00 19:25:00
INDEX 01 19:26:19
TRACK 05 AUDIO
TITLE "Peer Gynt Suite No.1, Op.46 - Anitra's Dance"
PERFORMER "Bournemouth Symphony Orchestra"
FLAGS DCP
INDEX 00 24:10:47
INDEX 01 24:12:32
TRACK 06 AUDIO
TITLE "Peer Gynt Suite No.1, Op.46 - In the Hall of the Mountain King"
PERFORMER "Bournemouth Symphony Orchestra"
FLAGS DCP
INDEX 00 28:10:59
INDEX 01 28:12:07
TRACK 07 AUDIO
TITLE "Nocturne No.16 in E flat major, Op.55 No.2"
PERFORMER "Garrick Ohlsson"
FLAGS DCP
INDEX 00 30:53:67
INDEX 01 30:54:54
TRACK 08 AUDIO
TITLE "Ma Vlast - No.2: Vltava (Die Moldau)"
PERFORMER "Oslo Philharmonic Orchestra"
FLAGS DCP
INDEX 00 35:41:06
INDEX 01 35:41:33
TRACK 09 AUDIO
TITLE "Piano Concerto in A minor, Op.16 - I: Allegro molto moderato"
PERFORMER "Royal Philharmonic Orchestra"
FLAGS DCP
INDEX 00 47:47:17
INDEX 01 47:47:43
TRACK 10 AUDIO
TITLE "Midsummer Night's Dream, Op.21 - Scherzo"
PERFORMER "London Symphony Orchestra"
FLAGS DCP
INDEX 00 60:32:52
INDEX 01 60:33:15
TRACK 11 AUDIO
TITLE "Symphony No.9 in E minor, Op.95 'From the New World' - II: Largo"
PERFORMER "Berliner Philharmoniker"
FLAGS DCP
INDEX 00 65:27:43
INDEX 01 65:28:62

CD6

REM GENRE Classical
REM DATE 1999
REM DISCID A8121D0B
REM COMMENT "ExactAudioCopy v1.0b3"
PERFORMER "The Millennium Classics"
TITLE "CD6 Classical Treasures II"
FILE "The Millennium Classics - CD6 Classical Treasures II.ape" WAVE
TRACK 01 AUDIO
TITLE "An der schönen blauen Donau, Op.314"
PERFORMER "Wiener Johann Strauss Orchester"
FLAGS DCP
INDEX 01 00:00:00
TRACK 02 AUDIO
TITLE "Piano concerto No.1 in B flat minor, Op. 23 - I: Allegro non troppo e molto m..."
PERFORMER "New Philharmonia Orchestra"
FLAGS DCP
INDEX 00 09:35:55
INDEX 01 09:38:43
TRACK 03 AUDIO
TITLE "Méditation de Thaïs"
PERFORMER "New Philharmonia Orchestra"
FLAGS DCP
INDEX 00 29:39:25
INDEX 01 29:42:13
TRACK 04 AUDIO
TITLE "Waltz in D flat, Op.64 No.1"
PERFORMER "Dmitri Alexeev"
FLAGS DCP
INDEX 00 34:44:22
INDEX 01 34:47:10
TRACK 05 AUDIO
TITLE "Finlandia, Op.26 - Tone Poem"
PERFORMER "Berliner Philharmoniker"
FLAGS DCP
INDEX 00 36:36:55
INDEX 01 36:39:44
TRACK 06 AUDIO
TITLE "Swan Lake Suite - Scene 1, Act 2 'Swan Theme'"
PERFORMER "Philharmonia Orchestra"
FLAGS DCP
INDEX 00 46:13:28
INDEX 01 46:16:16
TRACK 07 AUDIO
TITLE "Swan Lake Suite - Waltz, Act 1"
PERFORMER "Philharmonia Orchestra"
FLAGS DCP
INDEX 01 48:45:36
TRACK 08 AUDIO
TITLE "Swan Lake Suite - Dance of the Cygnets, Act 2"
PERFORMER "Philharmonia Orchestra"
FLAGS DCP
INDEX 01 54:21:45
TRACK 09 AUDIO
TITLE "Swan Lake Suite - Introduction & Second Dance of the Queen, Act 2"
PERFORMER "Philharmonia Orchestra"
FLAGS DCP
INDEX 01 55:50:21
TRACK 10 AUDIO
TITLE "Swan Lake Suite - Scene, Act 4"
PERFORMER "Philharmonia Orchestra"
FLAGS DCP
INDEX 01 62:10:39
TRACK 11 AUDIO
TITLE "Piano Concerto No.2 in C minor, Op.18 - I: Moderato"
PERFORMER "City of Birmingham Symphony Orchestra"
FLAGS DCP
INDEX 00 66:27:66
INDEX 01 66:30:54

CD7

REM GENRE Classical
REM DATE 1999
REM DISCID 50113B07
REM COMMENT "ExactAudioCopy v1.0b3"
PERFORMER "The Millennium Classics"
TITLE "CD7 Classical Treasures III"
FILE "The Millennium Classics - CD7 Classical Treasures III.ape" WAVE
TRACK 01 AUDIO
TITLE "Symphony No.6 in B minor, Op.74 'Pathetique' - I: Adagio - Allegro non troppo..."
PERFORMER "Philharmonia Orchestra"
FLAGS DCP
INDEX 01 00:00:00
TRACK 02 AUDIO
TITLE "Piano Concerto No.3 in D minor, Op.30 - III: Finale (Alla breve)"
PERFORMER "Berliner Philharmoniker"
FLAGS DCP
INDEX 00 20:30:18
INDEX 01 20:33:06
TRACK 03 AUDIO
TITLE "Spartacus - Adagio (Spartacus & Phrygia)"
PERFORMER "Royal Philharmonic Orchestra"
FLAGS DCP
INDEX 00 33:55:32
INDEX 01 33:58:20
TRACK 04 AUDIO
TITLE "Violin Concerto in D minor, Op.35 - II: Canzonetta (Andante)"
PERFORMER "Berliner Philharmoniker"
FLAGS DCP
INDEX 00 44:19:60
INDEX 01 44:22:48
TRACK 05 AUDIO
TITLE "Symphony No.3 in F major, Op.90 - I: Allegro con brio"
PERFORMER "Philharmonia Orchestra"
FLAGS DCP
INDEX 00 51:01:02
INDEX 01 51:03:65
TRACK 06 AUDIO
TITLE "The Nutcracker - Waltz of the Flowers"
PERFORMER "Royal Philharmonic Orchestra"
FLAGS DCP
INDEX 00 61:27:26
INDEX 01 61:30:14
TRACK 07 AUDIO
TITLE "Die Walküre -The Ride of the Valkyries (Act III)"
PERFORMER "Berliner Philharmoniker"
FLAGS DCP
INDEX 00 68:20:07
INDEX 01 68:22:70

CD8

REM GENRE Classical
REM DATE 1999
REM DISCID 5D111F09
REM COMMENT "ExactAudioCopy v1.0b3"
CATALOG 0724357030724
PERFORMER "The Millennium Classics"
TITLE "CD8 Classical Treasures IV"
FILE "The Millennium Classics - CD8 Classical Treasures IV.ape" WAVE
TRACK 01 AUDIO
TITLE "Danse macabre, Op.40"
PERFORMER "Orchestre National de France"
FLAGS DCP
INDEX 01 00:00:00
TRACK 02 AUDIO
TITLE "Carnaval des animaux - The Swan"
PERFORMER "Israel Philharmonic Orchestra"
FLAGS DCP
INDEX 00 07:04:50
INDEX 01 07:07:38
TRACK 03 AUDIO
TITLE "Violin Concerto No.1 in G minor, Op. 26 - I: Allegro Moderato"
PERFORMER "Japan Philharmonic Symphony Orchestra"
FLAGS DCP
INDEX 00 10:17:25
INDEX 01 10:20:13
TRACK 04 AUDIO
TITLE "Violin Concerto No.1 in G minor, Op. 26 - II: Adagio"
PERFORMER "Japan Philharmonic Symphony Orchestra"
FLAGS DCP
INDEX 01 18:33:56
TRACK 05 AUDIO
TITLE "Violin Concerto No.1 in G minor, Op. 26 - III: Finale (allegro energico)"
PERFORMER "Japan Philharmonic Symphony Orchestra"
FLAGS DCP
INDEX 00 27:14:01
INDEX 01 27:15:43
TRACK 06 AUDIO
TITLE "Clair de lune"
PERFORMER "Daniel Adni"
FLAGS DCP
INDEX 00 34:17:06
INDEX 01 34:19:69
TRACK 07 AUDIO
TITLE "Concierto de Aranjuez - II: Adagio"
PERFORMER "London Symphony Orchestra ft. Angel Romero"
FLAGS DCP
INDEX 00 39:04:54
INDEX 01 39:07:43
TRACK 08 AUDIO
TITLE "Symphony No.5 in C sharp minor - IV: Adagietto"
PERFORMER "Philharmonia Orchestra"
FLAGS DCP
INDEX 00 49:56:16
INDEX 01 49:59:05
TRACK 09 AUDIO
TITLE "Bolero"
PERFORMER "New Philharmonia Orchestra"
FLAGS DCP
INDEX 00 59:56:74
INDEX 01 59:59:62

CD9

REM GENRE Classical
REM DATE 1999
REM DISCID 30126613
REM COMMENT "ExactAudioCopy v1.0b3"
PERFORMER "The Millennium Classics"
TITLE "CD9 Timeless Treasures"
FILE "The Millennium Classics - CD9 Timeless Treasures.ape" WAVE
TRACK 01 AUDIO
TITLE "Rhapsody in Blue"
PERFORMER "London Symphony Orchestra"
FLAGS DCP
INDEX 01 00:00:00
TRACK 02 AUDIO
TITLE "Adagio for Strings"
PERFORMER "London Symphony Orchestra"
FLAGS DCP
INDEX 00 14:44:65
INDEX 01 14:47:53
TRACK 03 AUDIO
TITLE "West Side Story - Prologue"
PERFORMER "Minnesota Orchestra"
FLAGS DCP
INDEX 00 23:21:11
INDEX 01 23:23:74
TRACK 04 AUDIO
TITLE "West Side Story - Somewhere"
PERFORMER "Minnesota Orchestra"
FLAGS DCP
INDEX 01 27:47:66
TRACK 05 AUDIO
TITLE "West Side Story - Cha cha"
PERFORMER "Minnesota Orchestra"
FLAGS DCP
INDEX 00 31:33:39
INDEX 01 31:36:27
TRACK 06 AUDIO
TITLE "West Side Story - Meeting scene"
PERFORMER "Minnesota Orchestra"
FLAGS DCP
INDEX 01 32:36:45
TRACK 07 AUDIO
TITLE "West Side Story - Cool"
PERFORMER "Minnesota Orchestra"
FLAGS DCP
INDEX 01 33:32:73
TRACK 08 AUDIO
TITLE "West Side Story - Finale"
PERFORMER "Minnesota Orchestra"
FLAGS DCP
INDEX 00 37:28:00
INDEX 01 37:30:63
TRACK 09 AUDIO
TITLE "Gymnopédie - I: Lent et douloureux"
PERFORMER "Cécile Ousset"
FLAGS DCP
INDEX 00 41:13:02
INDEX 01 41:15:65
TRACK 10 AUDIO
TITLE "Gymnopédie - II: Lent et triste"
PERFORMER "Cécile Ousset"
FLAGS DCP
INDEX 01 45:06:59
TRACK 11 AUDIO
TITLE "Gymnopédie - III: Lent et grave"
PERFORMER "Cécile Ousset"
FLAGS DCP
INDEX 00 48:26:14
INDEX 01 48:28:16
TRACK 12 AUDIO
TITLE "Suite for Jazz, No.2 - IV: Waltz"
PERFORMER "Philadelphia Orchestra"
FLAGS DCP
INDEX 00 51:28:10
INDEX 01 51:32:38
TRACK 13 AUDIO
TITLE "Carmina Burana - Fortuna imperatrix mundi - I: O Fortuna"
PERFORMER "New Philharmonia Orchestra"
FLAGS DCP
INDEX 00 55:17:42
INDEX 01 55:19:36
TRACK 14 AUDIO
TITLE "Carmina Burana - Uf dem anger - VI: Tanz"
PERFORMER "New Philharmonia Orchestra"
FLAGS DCP
INDEX 00 58:10:42
INDEX 01 58:15:09
TRACK 15 AUDIO
TITLE "Carmina Burana - Uf dem anger - VII: Floret silva nobilis"
PERFORMER "New Philharmonia Orchestra"
FLAGS DCP
INDEX 01 60:15:29
TRACK 16 AUDIO
TITLE "Carmina Burana - Uf dem anger - VIII: Charmer, gip die varwe mir"
PERFORMER "New Philharmonia Orchestra"
FLAGS DCP
INDEX 01 63:46:46
TRACK 17 AUDIO
TITLE "Carmina Burana - Uf dem anger - IX: a. Reie b. Swaz hie gat umbe c. Chume, ch..."
PERFORMER "New Philharmonia Orchestra"
FLAGS DCP
INDEX 01 67:22:10
TRACK 18 AUDIO
TITLE "Carmina Burana - Uf dem anger - X: Were diu werlt alle min"
PERFORMER "New Philharmonia Orchestra"
FLAGS DCP
INDEX 01 72:34:34
TRACK 19 AUDIO
TITLE "Masscapella, No.3"
PERFORMER "Lux Mundi"
FLAGS DCP
INDEX 00 73:31:32
INDEX 01 73:31:54

CD10

REM GENRE Classical
REM DATE 1999
REM DISCID E411D210
REM COMMENT "ExactAudioCopy v1.0b3"
PERFORMER "The Millennium Classics"
TITLE "CD 10 Opera Treasures"
FILE "The Millennium Classics - CD 10 Opera Treasures.ape" WAVE
TRACK 01 AUDIO
TITLE "Nabucco - Va pensiero (Act III) (Chorus of the Hebrew Slaves)"
PERFORMER "Orchestra of the Royal Opera House, Covent Garden"
FLAGS DCP
INDEX 01 00:00:00
TRACK 02 AUDIO
TITLE "Les pêcheurs de perles - Au fond du temple saint (Act I)"
PERFORMER "Orchestra du Théâtre National de l'Opéra Comique"
FLAGS DCP
INDEX 00 05:25:60
INDEX 01 05:28:48
TRACK 03 AUDIO
TITLE "Lakmé - Viens, Mallika (Flower duet) (Act I)"
PERFORMER "Orchestra du Théâtre National de l'Opéra Comique"
FLAGS DCP
INDEX 00 10:51:21
INDEX 01 10:54:09
TRACK 04 AUDIO
TITLE "Carmen - Votre toast (Air du Toréador)"
PERFORMER "Württembergische Philharmonie Reutlingen"
FLAGS DCP
INDEX 00 16:48:05
INDEX 01 16:50:68
TRACK 05 AUDIO
TITLE "Die Zauberflöte - Der Vogelfänger bin ich ja (Akt I)"
PERFORMER "Staatskapelle Dresden"
FLAGS DCP
INDEX 00 22:13:66
INDEX 01 22:16:54
TRACK 06 AUDIO
TITLE "Die Zauberflöte - Der hölle Rache (Akt I)"
PERFORMER "Bayerischen Staatsoper"
FLAGS DCP
INDEX 00 25:07:26
INDEX 01 25:10:14
TRACK 07 AUDIO
TITLE "Le Nozze di Figaro, K.492 - Voi che sapete (Atto II)"
PERFORMER "Glyndebourne Festival Orchestra"
FLAGS DCP
INDEX 00 28:06:41
INDEX 01 28:09:29
TRACK 08 AUDIO
TITLE "Cavalleria Rusticana - Regina coeli"
PERFORMER "Budapest Opera Orchestra"
FLAGS DCP
INDEX 00 31:04:54
INDEX 01 31:07:42
TRACK 09 AUDIO
TITLE "II Barbiere di Siviglia - Largo al factotum (Atto I)"
PERFORMER "Royal Philharmonic Orchestra"
FLAGS DCP
INDEX 00 38:12:33
INDEX 01 38:15:21
TRACK 10 AUDIO
TITLE "Tosca - Vissi d'arte (Atto II)"
PERFORMER "London Symphony Orchestra"
FLAGS DCP
INDEX 00 43:02:69
INDEX 01 43:05:57
TRACK 11 AUDIO
TITLE "Tosca - E lucevan le stelle (Atto III)"
PERFORMER "Franco Corelli"
FLAGS DCP
INDEX 00 46:09:16
INDEX 01 46:12:05
TRACK 12 AUDIO
TITLE "Rigoletto - La donna è mobile (Atto III)"
PERFORMER "Orchestra del Teatro dell'Opera di Roma"
FLAGS DCP
INDEX 00 49:33:12
INDEX 01 49:36:00
TRACK 13 AUDIO
TITLE "La Traviata - Brindisi: Libiamo ne'liete calici (Atto I)"
PERFORMER "Orchestra del Teatro dell'Opera di Roma"
FLAGS DCP
INDEX 00 51:56:41
INDEX 01 51:59:29
TRACK 14 AUDIO
TITLE "Norma - Sediziose voci..Casta Diva (Atto I)"
PERFORMER "Münchner Rundfunkorchester"
FLAGS DCP
INDEX 00 55:05:15
INDEX 01 55:08:03
TRACK 15 AUDIO
TITLE "Turandot - Nessun dorma (Atto III)"
PERFORMER "Württembergische Philharmonie Reutlingen"
FLAGS DCP
INDEX 00 65:02:09
INDEX 01 65:04:72
TRACK 16 AUDIO
TITLE "Aida - Gloria all' Egitto (Atto II)"
PERFORMER "Württembergische Philharmonie Reutlingen"
FLAGS DCP
INDEX 00 68:24:64
INDEX 01 68:27:52
[teatrix.ru].t9701.torrent 
Торрент: Зарегистрирован [ 2015-10-23 17:11 ] · E11358B0B23EDB5FEA0EB6BE8787C6648FB4F219

Скачать .torrent

Скачать

19 KB

Статус: проверено
Скачан: 1 раз
Размер: 3.06 GB
terms.php



Быстрый ответ

Имя:

      
Для отправки сообщений необходимо включить JavaScript
Показать сообщения:    

Текущее время: 05-Дек 11:32

Часовой пояс: UTC + 3


Вы можете начинать темы
Вы можете отвечать на сообщения
Вы не можете редактировать свои сообщения
Вы не можете удалять свои сообщения
Вы не можете голосовать в опросах
Вы не можете прикреплять файлы к сообщениям
Вы можете скачивать файлы