(Classical, Piano, Concerto) Gulda spielt Beethoven - Klaviersonaten Nr. 1-32, Klavierkonzerte Nr. 1-5 (Friedrich Gulda, Wiener Philharmoniker, Horst Stein) - 2005, FLAC (image+.cue), lossless


Статистика раздачи [Обновить пиров]
Размер:  2.67 GB   |    Зарегистрирован:  1 год 1 месяц   |    Скачан:  0 раз

Полного источника не было: Никогда

Личеров:  1  [  0 KB/s  ]   Подробная статистика пиров
 
   
 
 
 

[Цитировать]

Gulda spielt Ludwig van Beethoven
Жанр: Classical, Piano, Concerto
Страна-производитель диска: Germany
Год издания диска: 2005
Издатель (лейбл): Decca & Amadeo
Номер по каталогу: 476 8761
Дата записи: 1968-1971
Аудиокодек: FLAC
Тип рипа: image+.cue
Битрейт аудио: lossless
Продолжительность: 766.47
Источник: собственный рип
Наличие сканов в содержимом раздачи: да
Исполнители: Friedrich Gulda, klavier (Klaviersonaten Nr. 1-32)
Wiener Philharmoniker, Horst Stein (Klavierkonzerte Nr. 1-5)

CD1:Треклист:

Klaviersonate Nr. 1 f-moll op. 2,1
01. I. Allegro
02. II. Adagio
03. III. Menuetto: Allegretto
04. IV. Prestissimo
Klaviersonate Nr. 2 A-dur op. 2,2
05. I. Allegro vivace
06. II. Largo appassionato
07. III. Scherzo: Allegretto
08. IV. Rondo: Grazioso
Klaviersonate Nr. 3 C-dur op. 2,3
09. I. Allegro con brio
10. II. Adagio
11. III. Scherzo: Allegro
12. IV. Allegro assai
Total 60.00

Лог создания рипа:

Exact Audio Copy V1.0 beta 3 from 29. August 2011
Отчёт EAC об извлечении, выполненном 12. февраля 2015, 20:20
Ludwig van Beethoven / Gulda spielt Beethoven - Klaviersonaten Nr. 1, 2 & 3 - CD1
Дисковод: Optiarc DVD RW AD-7260S Adapter: 0 ID: 1
Режим чтения : Достоверность
Использование точного потока : Да
Отключение кэша аудио : Да
Использование указателей C2 : Нет
Коррекция смещения при чтении : 48
Способность читать области Lead-in и Lead-out : Нет
Заполнение пропущенных сэмплов тишиной : Да
Удаление блоков с тишиной в начале и конце : Нет
При вычислениях CRC использовались нулевые сэмплы : Да
Интерфейс : Встроенный Win32-интерфейс для Win NT/2000
Выходной формат : Пользовательский кодировщик
Выбранный битрейт : 896 kBit/s
Качество : Высокий
Добавление ID3-тега : Нет
Утилита сжатия : C:\Program Files\FLAC Frontend\tools\flac.exe
Дополнительные параметры : -V -8 -T "Date=%year%" -T "Genre=%genre%" %source%
TOC извлечённого CD
Трек | Старт | Длительность | Начальный сектор | Конечный сектор
---------------------------------------------------------------------
1 | 0:00.00 | 3:32.40 | 0 | 15939
2 | 3:32.40 | 4:35.40 | 15940 | 36604
3 | 8:08.05 | 2:34.08 | 36605 | 48162
4 | 10:42.13 | 4:38.70 | 48163 | 69082
5 | 15:21.08 | 6:23.69 | 69083 | 97876
6 | 21:45.02 | 6:32.16 | 97877 | 127292
7 | 28:17.18 | 2:39.55 | 127293 | 139272
8 | 30:56.73 | 5:56.04 | 139273 | 165976
9 | 36:53.02 | 9:49.42 | 165977 | 210193
10 | 46:42.44 | 5:50.36 | 210194 | 236479
11 | 52:33.05 | 2:43.11 | 236480 | 248715
12 | 55:16.16 | 4:43.12 | 248716 | 269952
Характеристики диапазона извлечения и сообщения об ошибках
Выбранный диапазон
Имя файла N:\Gulda spielt Beethoven\CD1\Ludwig van Beethoven - Gulda spielt Beethoven - Klaviersonaten Nr. 1, 2 & 3 - CD1.wav
Пиковый уровень 94.6 %
Скорость извлечения 4.1 X
Качество диапазона 100.0 %
CRC теста A7457914
CRC копии A7457914
Копирование... OK
Ошибок не произошло
AccurateRip: сводка
Трек 1 : извлечено точно (доверие 60) [F398E39A] (AR v2)
Трек 2 : извлечено точно (доверие 60) [BA2BAC83] (AR v2)
Трек 3 : извлечено точно (доверие 60) [9110C292] (AR v2)
Трек 4 : извлечено точно (доверие 59) [1ADF9F8E] (AR v2)
Трек 5 : извлечено точно (доверие 60) [C557D8E8] (AR v2)
Трек 6 : извлечено точно (доверие 60) [4843C1A7] (AR v2)
Трек 7 : извлечено точно (доверие 60) [466DE06C] (AR v2)
Трек 8 : извлечено точно (доверие 60) [5B894089] (AR v2)
Трек 9 : извлечено точно (доверие 60) [8A469218] (AR v2)
Трек 10 : извлечено точно (доверие 60) [FC2DD7C2] (AR v2)
Трек 11 : извлечено точно (доверие 60) [8B87BB2E] (AR v2)
Трек 12 : извлечено точно (доверие 59) [D035D3CE] (AR v2)
Все треки извлечены точно
Конец отчёта
==== Контрольная сумма отчёта C2461D32505B5D3728E1FA8E3393CF5889ACF7B4A45EB853852DEC7F75645955 ====

CD2:Треклист:

Klaviersonate Nr. 4 Es-dur op. 7
01. I. Allegro molto e con brio
02. II. Largo, con gran espressione
03. III. Allegro
04. IV. Rondo: Poco allegretto e grazioso
Klaviersonate Nr. 5 c-moll op. 10,1
05. I. Allegro molto e con brio
06. II. Adagio molto
07. III. Finaie: Prestissimo
Klaviersonate Nr. 6 F-dur op. 10,2
08. I. Allegro
09. II. Allegretto
10. III. Presto
Total 53.29

Лог создания рипа:

Exact Audio Copy V1.0 beta 3 from 29. August 2011
Отчёт EAC об извлечении, выполненном 12. февраля 2015, 21:33
Ludwig van Beethoven / Gulda spielt Beethoven - Klaviersonaten Nr. 4, 5 & 6 - CD2
Дисковод: Optiarc DVD RW AD-7260S Adapter: 0 ID: 1
Режим чтения : Достоверность
Использование точного потока : Да
Отключение кэша аудио : Да
Использование указателей C2 : Нет
Коррекция смещения при чтении : 48
Способность читать области Lead-in и Lead-out : Нет
Заполнение пропущенных сэмплов тишиной : Да
Удаление блоков с тишиной в начале и конце : Нет
При вычислениях CRC использовались нулевые сэмплы : Да
Интерфейс : Встроенный Win32-интерфейс для Win NT/2000
Выходной формат : Пользовательский кодировщик
Выбранный битрейт : 896 kBit/s
Качество : Высокий
Добавление ID3-тега : Нет
Утилита сжатия : C:\Program Files\FLAC Frontend\tools\flac.exe
Дополнительные параметры : -V -8 -T "Date=%year%" -T "Genre=%genre%" %source%
TOC извлечённого CD
Трек | Старт | Длительность | Начальный сектор | Конечный сектор
---------------------------------------------------------------------
1 | 0:00.00 | 7:28.41 | 0 | 33640
2 | 7:28.41 | 7:02.41 | 33641 | 65331
3 | 14:31.07 | 4:50.43 | 65332 | 87124
4 | 19:21.50 | 5:56.27 | 87125 | 113851
5 | 25:18.02 | 4:59.27 | 113852 | 136303
6 | 30:17.29 | 7:18.48 | 136304 | 169201
7 | 37:36.02 | 3:55.01 | 169202 | 186827
8 | 41:31.03 | 5:03.12 | 186828 | 209564
9 | 46:34.15 | 3:14.64 | 209565 | 224178
10 | 49:49.04 | 3:37.24 | 224179 | 240477
Характеристики диапазона извлечения и сообщения об ошибках
Выбранный диапазон
Имя файла N:\Gulda spielt Beethoven\CD2\Ludwig van Beethoven - Gulda spielt Beethoven - Klaviersonaten Nr. 4, 5 & 6 - CD2.wav
Пиковый уровень 83.2 %
Скорость извлечения 3.9 X
Качество диапазона 100.0 %
CRC теста 35BFB8E0
CRC копии 35BFB8E0
Копирование... OK
Ошибок не произошло
AccurateRip: сводка
Трек 1 : извлечено точно (доверие 60) [76F5DC1A] (AR v2)
Трек 2 : извлечено точно (доверие 61) [424D54A2] (AR v2)
Трек 3 : извлечено точно (доверие 61) [7AF494E0] (AR v2)
Трек 4 : извлечено точно (доверие 61) [9CF60863] (AR v2)
Трек 5 : извлечено точно (доверие 61) [7BE49276] (AR v2)
Трек 6 : извлечено точно (доверие 61) [F048B06C] (AR v2)
Трек 7 : извлечено точно (доверие 61) [E0C4AF81] (AR v2)
Трек 8 : извлечено точно (доверие 61) [9CC1C28F] (AR v2)
Трек 9 : извлечено точно (доверие 61) [1A14F57F] (AR v2)
Трек 10 : извлечено точно (доверие 61) [8A060384] (AR v2)
Все треки извлечены точно
Конец отчёта
==== Контрольная сумма отчёта D19E93168802EB906F69C83BB91258DAFE9280CE207D810DC816908A187A2D6C ====

CD3:Треклист:

Klaviersonate Nr. 7 D-dur op. 10,3
01. I. Presto
02. II. Largo e mesto
03. III. Menuetto: Allegro
04. IV. Rondo: Allegro
Klaviersonate Nr. 8 c-moll op. 13 „Pathétique"
05. I. Grave - Allegro di molto e con brio
06. II. Adagio cantabile
07. III. Rondo: Allegro
Klaviersonate Nr. 9 E-dur op. 14,1
08. I. Allegro
09. II. Allegretto
10. III. Rondo: Allegro commodo
Klaviersonate Nr. 10 G-dur op. 14,2
11. I. Allegro
12. II. Andante
13. III. Scherzo: Allegro assai
Total 66.14

Лог создания рипа:

Exact Audio Copy V1.0 beta 3 from 29. August 2011
Отчёт EAC об извлечении, выполненном 16. февраля 2015, 18:03
Ludwig van Beethoven / Gulda spielt Beethoven - Klaviersonaten Nr. 7, 8, 9 & 10 - CD3
Дисковод: Optiarc DVD RW AD-7260S Adapter: 0 ID: 1
Режим чтения : Достоверность
Использование точного потока : Да
Отключение кэша аудио : Да
Использование указателей C2 : Нет
Коррекция смещения при чтении : 48
Способность читать области Lead-in и Lead-out : Нет
Заполнение пропущенных сэмплов тишиной : Да
Удаление блоков с тишиной в начале и конце : Нет
При вычислениях CRC использовались нулевые сэмплы : Да
Интерфейс : Встроенный Win32-интерфейс для Win NT/2000
Выходной формат : Пользовательский кодировщик
Выбранный битрейт : 896 kBit/s
Качество : Высокий
Добавление ID3-тега : Нет
Утилита сжатия : C:\Program Files\FLAC Frontend\tools\flac.exe
Дополнительные параметры : -V -8 -T "Date=%year%" -T "Genre=%genre%" %source%
TOC извлечённого CD
Трек | Старт | Длительность | Начальный сектор | Конечный сектор
---------------------------------------------------------------------
1 | 0:00.00 | 6:26.50 | 0 | 28999
2 | 6:26.50 | 8:01.67 | 29000 | 65141
3 | 14:28.42 | 2:53.44 | 65142 | 78160
4 | 17:22.11 | 3:35.65 | 78161 | 94350
5 | 20:58.01 | 8:19.04 | 94351 | 131779
6 | 29:17.05 | 5:17.49 | 131780 | 155603
7 | 34:34.54 | 4:20.20 | 155604 | 175123
8 | 38:54.74 | 6:18.42 | 175124 | 203515
9 | 45:13.41 | 3:04.42 | 203516 | 217357
10 | 48:18.08 | 3:11.42 | 217358 | 231724
11 | 51:29.50 | 7:00.28 | 231725 | 263252
12 | 58:30.03 | 4:51.69 | 263253 | 285146
13 | 63:21.72 | 2:49.53 | 285147 | 297874
Характеристики диапазона извлечения и сообщения об ошибках
Выбранный диапазон
Имя файла N:\Gulda spielt Beethoven\CD3\Ludwig van Beethoven - Gulda spielt Beethoven - Klaviersonaten Nr. 7, 8, 9 & 10 - CD3.wav
Пиковый уровень 91.0 %
Скорость извлечения 4.2 X
Качество диапазона 100.0 %
CRC теста 33B69418
CRC копии 33B69418
Копирование... OK
Ошибок не произошло
AccurateRip: сводка
Трек 1 : извлечено точно (доверие 59) [4C1F5AE1] (AR v2)
Трек 2 : извлечено точно (доверие 59) [E7F9B6E2] (AR v2)
Трек 3 : извлечено точно (доверие 59) [B8962B52] (AR v2)
Трек 4 : извлечено точно (доверие 59) [CD7E59B2] (AR v2)
Трек 5 : извлечено точно (доверие 59) [9905CF83] (AR v2)
Трек 6 : извлечено точно (доверие 59) [69F21128] (AR v2)
Трек 7 : извлечено точно (доверие 59) [D643F939] (AR v2)
Трек 8 : извлечено точно (доверие 59) [B89C79BD] (AR v2)
Трек 9 : извлечено точно (доверие 59) [583E70AB] (AR v2)
Трек 10 : извлечено точно (доверие 59) [A3A6506E] (AR v2)
Трек 11 : извлечено точно (доверие 59) [F88BE7FC] (AR v2)
Трек 12 : извлечено точно (доверие 59) [AB2AF729] (AR v2)
Трек 13 : извлечено точно (доверие 59) [0A35B973] (AR v2)
Все треки извлечены точно
Конец отчёта
==== Контрольная сумма отчёта A4969E9C2F122FD978A2DFC3324B18E7943326EDAB50ACF6F7F810AF78FE5FE9 ====

CD4:Треклист:

Klaviersonate Nr. 11 B-dur op. 22
01. I. Allegro con brio
02. II. Adagio con molto espressione
03. III. Menuetto
04. IV. Rondo: Allegretto
Klaviersonate Nr. 12 As-dur op. 26
05. I. Andante con varlazioni
06. II. Scherzo: Allegro molto
07. III. Marcla funebre
08. IV. Allegro
Klaviersonate Nr. 13 Es-dur op. 27,1 (Sonata quasi una fantasia)
09. I. Andante - Allegro
10. II. Allegro molto e vivace
11. III. Adagio con espressione
12. IV. Allegro vivace - Presto
Klaviersonate Nr. 14 cis-moll op. 27,2 "Mondscheinsonate"
(Sonata quasi una fantasia)
13. I. Adagio sostenuto
14. II. Allegretto - Trio
15. III. Presto agitato
Total 70.07

Лог создания рипа:

Exact Audio Copy V1.0 beta 3 from 29. August 2011
Отчёт EAC об извлечении, выполненном 16. февраля 2015, 22:08
Ludwig van Beethoven / Gulda spielt Beethoven - Klaviersonaten Nr. 11, 12, 13 & 14 - CD4
Дисковод: Optiarc DVD RW AD-7260S Adapter: 0 ID: 1
Режим чтения : Достоверность
Использование точного потока : Да
Отключение кэша аудио : Да
Использование указателей C2 : Нет
Коррекция смещения при чтении : 48
Способность читать области Lead-in и Lead-out : Нет
Заполнение пропущенных сэмплов тишиной : Да
Удаление блоков с тишиной в начале и конце : Нет
При вычислениях CRC использовались нулевые сэмплы : Да
Интерфейс : Встроенный Win32-интерфейс для Win NT/2000
Выходной формат : Пользовательский кодировщик
Выбранный битрейт : 896 kBit/s
Качество : Высокий
Добавление ID3-тега : Нет
Утилита сжатия : C:\Program Files\FLAC Frontend\tools\flac.exe
Дополнительные параметры : -V -8 -T "Date=%year%" -T "Genre=%genre%" %source%
TOC извлечённого CD
Трек | Старт | Длительность | Начальный сектор | Конечный сектор
---------------------------------------------------------------------
1 | 0:00.00 | 6:50.05 | 0 | 30754
2 | 6:50.05 | 5:38.01 | 30755 | 56105
3 | 12:28.06 | 3:05.46 | 56106 | 70026
4 | 15:33.52 | 5:09.27 | 70027 | 93228
5 | 20:43.04 | 6:51.41 | 93229 | 124094
6 | 27:34.45 | 2:25.34 | 124095 | 135003
7 | 30:00.04 | 7:04.00 | 135004 | 166803
8 | 37:04.04 | 2:37.01 | 166804 | 178579
9 | 39:41.05 | 5:03.04 | 178580 | 201308
10 | 44:44.09 | 1:50.07 | 201309 | 209565
11 | 46:34.16 | 2:29.64 | 209566 | 220804
12 | 49:04.05 | 5:07.11 | 220805 | 243840
13 | 54:11.16 | 6:29.65 | 243841 | 273080
14 | 60:41.06 | 2:31.13 | 273081 | 284418
15 | 63:12.19 | 6:53.67 | 284419 | 315460
Характеристики диапазона извлечения и сообщения об ошибках
Выбранный диапазон
Имя файла N:\Gulda spielt Beethoven\CD4\Ludwig van Beethoven - Gulda spielt Beethoven - Klaviersonaten Nr. 11, 12, 13 & 14 - CD4.wav
Пиковый уровень 94.6 %
Скорость извлечения 4.4 X
Качество диапазона 100.0 %
CRC теста 60DE0DD3
CRC копии 60DE0DD3
Копирование... OK
Ошибок не произошло
AccurateRip: сводка
Трек 1 : извлечено точно (доверие 59) [CCE8434F] (AR v2)
Трек 2 : извлечено точно (доверие 58) [61882FE3] (AR v2)
Трек 3 : извлечено точно (доверие 59) [950B80BE] (AR v2)
Трек 4 : извлечено точно (доверие 58) [47A377FC] (AR v2)
Трек 5 : извлечено точно (доверие 58) [80CCCBFB] (AR v2)
Трек 6 : извлечено точно (доверие 59) [8B6C2A4E] (AR v2)
Трек 7 : извлечено точно (доверие 59) [5E23495D] (AR v2)
Трек 8 : извлечено точно (доверие 59) [86962B0C] (AR v2)
Трек 9 : извлечено точно (доверие 59) [26FA1344] (AR v2)
Трек 10 : извлечено точно (доверие 59) [4E90B895] (AR v2)
Трек 11 : извлечено точно (доверие 59) [6C318CD7] (AR v2)
Трек 12 : извлечено точно (доверие 59) [5D280068] (AR v2)
Трек 13 : извлечено точно (доверие 59) [576B9ED1] (AR v2)
Трек 14 : извлечено точно (доверие 58) [9C7F7AAE] (AR v2)
Трек 15 : извлечено точно (доверие 58) [959ABB93] (AR v2)
Все треки извлечены точно
Конец отчёта
==== Контрольная сумма отчёта 7C12D328EC7CC2797EE0EC85EA13B1EDA9DCB5B806E384056D561A965FA00DF6 ====

CD5:Треклист:

Klaviersonate Nr. 15 D-dur op. 28 "Pastorale"
01. I. Allegro
02. II. Andante
03. III. Scherzo: Allegro vivace
04. IV. Rondo: Allegro ma non troppo
Klaviersonate Nr. 16 G-dur op. 31,1
05. I. Allegro vivace
06. II. Adagio grazioso
07. III. Rondo: Allegretto - Adagio - Presto
Klaviersonate Nr. 17 d-moll op. 31,2 „Der Sturm“
08. I. Largo - Allegro
09. II. Adagio
10. III. Allegretto
Total 63.06

Лог создания рипа:

Exact Audio Copy V1.0 beta 3 from 29. August 2011
Отчёт EAC об извлечении, выполненном 17. февраля 2015, 8:35
Ludwig van Beethoven / Gulda spielt Beethoven - Klaviersonaten Nr. 15, 16, & 17 - CD5
Дисковод: Optiarc DVD RW AD-7260S Adapter: 0 ID: 1
Режим чтения : Достоверность
Использование точного потока : Да
Отключение кэша аудио : Да
Использование указателей C2 : Нет
Коррекция смещения при чтении : 48
Способность читать области Lead-in и Lead-out : Нет
Заполнение пропущенных сэмплов тишиной : Да
Удаление блоков с тишиной в начале и конце : Нет
При вычислениях CRC использовались нулевые сэмплы : Да
Интерфейс : Встроенный Win32-интерфейс для Win NT/2000
Выходной формат : Пользовательский кодировщик
Выбранный битрейт : 896 kBit/s
Качество : Высокий
Добавление ID3-тега : Нет
Утилита сжатия : C:\Program Files\FLAC Frontend\tools\flac.exe
Дополнительные параметры : -V -8 -T "Date=%year%" -T "Genre=%genre%" %source%
TOC извлечённого CD
Трек | Старт | Длительность | Начальный сектор | Конечный сектор
---------------------------------------------------------------------
1 | 0:00.00 | 9:03.55 | 0 | 40779
2 | 9:03.55 | 6:11.02 | 40780 | 68606
3 | 15:14.57 | 2:01.36 | 68607 | 77717
4 | 17:16.18 | 4:55.03 | 77718 | 99845
5 | 22:11.21 | 5:58.00 | 99846 | 126695
6 | 28:09.21 | 7:56.06 | 126696 | 162401
7 | 36:05.27 | 6:00.73 | 162402 | 189474
8 | 42:06.25 | 7:09.33 | 189475 | 221682
9 | 49:15.58 | 7:55.02 | 221683 | 257309
10 | 57:10.60 | 5:54.15 | 257310 | 283874
Характеристики диапазона извлечения и сообщения об ошибках
Выбранный диапазон
Имя файла N:\Gulda spielt Beethoven\CD5\Ludwig van Beethoven - Gulda spielt Beethoven - Klaviersonaten Nr. 15, 16, & 17 - CD5.wav
Копирование прервано
Конец отчёта
==== Контрольная сумма отчёта 52A9EA6A9DC7B239EB150E18982000CB15AB83910A5A32E667CE7E62352691A8 ====
------------------------------------------------------------
Exact Audio Copy V1.0 beta 3 from 29. August 2011
Отчёт EAC об извлечении, выполненном 17. февраля 2015, 9:54
Ludwig van Beethoven / Gulda spielt Beethoven - Klaviersonaten Nr. 15, 16, & 17 - CD5
Дисковод: _NEC DVD_RW ND-3570A Adapter: 2 ID: 0
Режим чтения : Скоростной
Коррекция смещения при чтении : 48
Способность читать области Lead-in и Lead-out : Нет
Заполнение пропущенных сэмплов тишиной : Да
Удаление блоков с тишиной в начале и конце : Нет
При вычислениях CRC использовались нулевые сэмплы : Да
Интерфейс : Встроенный Win32-интерфейс для Win NT/2000
Выходной формат : Пользовательский кодировщик
Выбранный битрейт : 896 kBit/s
Качество : Высокий
Добавление ID3-тега : Нет
Утилита сжатия : C:\Program Files\FLAC Frontend\tools\flac.exe
Дополнительные параметры : -V -8 -T "Date=%year%" -T "Genre=%genre%" %source%
TOC извлечённого CD
Трек | Старт | Длительность | Начальный сектор | Конечный сектор
---------------------------------------------------------------------
1 | 0:00.00 | 9:03.55 | 0 | 40779
2 | 9:03.55 | 6:11.02 | 40780 | 68606
3 | 15:14.57 | 2:01.36 | 68607 | 77717
4 | 17:16.18 | 4:55.03 | 77718 | 99845
5 | 22:11.21 | 5:58.00 | 99846 | 126695
6 | 28:09.21 | 7:56.06 | 126696 | 162401
7 | 36:05.27 | 6:00.73 | 162402 | 189474
8 | 42:06.25 | 7:09.33 | 189475 | 221682
9 | 49:15.58 | 7:55.02 | 221683 | 257309
10 | 57:10.60 | 5:54.15 | 257310 | 283874
Характеристики диапазона извлечения и сообщения об ошибках
Выбранный диапазон
Имя файла N:\Gulda spielt Beethoven\CD5\Ludwig van Beethoven - Gulda spielt Beethoven - Klaviersonaten Nr. 15, 16, & 17 - CD5.wav
Проблемы синхронизации 0:00:02
Пиковый уровень 94.6 %
Скорость извлечения 6.8 X
CRC теста 9EBCC9CA
CRC копии 66996DEF
Копирование завершено
Ошибок не произошло
AccurateRip: сводка
Трек 1 точность не определена (достоверность 58) [5881C18A], AccurateRip вернул [AF4FA5ED] (AR v2)
Трек 2 : извлечено точно (доверие 60) [47729C13] (AR v2)
Трек 3 : извлечено точно (доверие 60) [67B49790] (AR v2)
Трек 4 : извлечено точно (доверие 60) [E7808B50] (AR v2)
Трек 5 : извлечено точно (доверие 60) [6AC99254] (AR v2)
Трек 6 : извлечено точно (доверие 60) [2A5BF672] (AR v2)
Трек 7 : извлечено точно (доверие 60) [5DF3AF66] (AR v2)
Трек 8 : извлечено точно (доверие 59) [9F2B0F31] (AR v2)
Трек 9 : извлечено точно (доверие 60) [649E30C7] (AR v2)
Трек 10 : извлечено точно (доверие 60) [E12E77AC] (AR v2)
9 трек(и) скопированы точно
1 трек(и) не удалось проверить на точность
Некоторые треки не прошли проверку на точность
Конец отчёта
==== Контрольная сумма отчёта 4932BDCF0F780F3052367D709A0B8737783792B6313E374914D76D1C82046C5A ====

CD6:Треклист:

Klaviersonate Nr. 18 Es-dur op. 31,3
01. I. Allegro
02. II. Scherzo: Allegretto vivace
03. III. Menuetto: Moderato e grazioso
04. IV. Presto con fuoco
Klaviersonate Nr. 19 g-moll op. 49,1
05. I. Andante
06. II. Rondo: Allegro
Klaviersonate Nr. 20 G-dur op. 49,2
07. I. Allegro ma non troppo
08. II. Tempo di Menuetto
Klaviersonate Nr. 21 C-dur op. 53 „Waldstein“
09. I. Allegro con brio
10. II. Introduzione: Adagio molto
11. III. Rondo: Allegro moderato - Prestissimo
Klaviersonate Nr. 22 F-dur op. 54
12. I. In tempo d’un Menuetto
13. II. Allegretto
Total 67.25

Лог создания рипа:

Exact Audio Copy V1.0 beta 3 from 29. August 2011
Отчёт EAC об извлечении, выполненном 17. февраля 2015, 11:05
Ludwig van Beethoven / Gulda spielt Beethoven - Klaviersonaten Nr. 18 - 22 - CD6
Дисковод: _NEC DVD_RW ND-3570A Adapter: 2 ID: 0
Режим чтения : Скоростной
Коррекция смещения при чтении : 48
Способность читать области Lead-in и Lead-out : Нет
Заполнение пропущенных сэмплов тишиной : Да
Удаление блоков с тишиной в начале и конце : Нет
При вычислениях CRC использовались нулевые сэмплы : Да
Интерфейс : Встроенный Win32-интерфейс для Win NT/2000
Выходной формат : Пользовательский кодировщик
Выбранный битрейт : 896 kBit/s
Качество : Высокий
Добавление ID3-тега : Нет
Утилита сжатия : C:\Program Files\FLAC Frontend\tools\flac.exe
Дополнительные параметры : -V -8 -T "Date=%year%" -T "Genre=%genre%" %source%
TOC извлечённого CD
Трек | Старт | Длительность | Начальный сектор | Конечный сектор
---------------------------------------------------------------------
1 | 0:00.00 | 7:53.59 | 0 | 35533
2 | 7:53.59 | 4:19.69 | 35534 | 55027
3 | 12:13.53 | 3:48.72 | 55028 | 72199
4 | 16:02.50 | 4:19.06 | 72200 | 91630
5 | 20:21.56 | 5:01.70 | 91631 | 114275
6 | 25:23.51 | 3:04.09 | 114276 | 128084
7 | 28:27.60 | 4:25.15 | 128085 | 147974
8 | 32:53.00 | 3:15.59 | 147975 | 162658
9 | 36:08.59 | 9:25.64 | 162659 | 205097
10 | 45:34.48 | 2:45.06 | 205098 | 217478
11 | 48:19.54 | 8:26.03 | 217479 | 255431
12 | 56:45.57 | 5:15.53 | 255432 | 279109
13 | 62:01.35 | 5:23.38 | 279110 | 303372
Характеристики диапазона извлечения и сообщения об ошибках
Выбранный диапазон
Имя файла N:\Gulda spielt Beethoven\CD6\Ludwig van Beethoven - Gulda spielt Beethoven - Klaviersonaten Nr. 18 - 22 - CD6.wav
Пиковый уровень 89.0 %
Скорость извлечения 7.4 X
CRC теста CED77D6B
CRC копии 462DE1CB
Копирование... OK
Ошибок не произошло
AccurateRip: сводка
Трек 1 точность не определена (достоверность 60) [A0EFB2FA], AccurateRip вернул [DB72F449] (AR v2)
Трек 2 : извлечено точно (доверие 60) [B5314EA9] (AR v2)
Трек 3 : извлечено точно (доверие 60) [C92CA001] (AR v2)
Трек 4 : извлечено точно (доверие 60) [1F1BB96A] (AR v2)
Трек 5 : извлечено точно (доверие 60) [44B33CAC] (AR v2)
Трек 6 : извлечено точно (доверие 60) [6238D69C] (AR v2)
Трек 7 : извлечено точно (доверие 60) [57780494] (AR v2)
Трек 8 : извлечено точно (доверие 60) [D122292D] (AR v2)
Трек 9 : извлечено точно (доверие 60) [716D4CFD] (AR v2)
Трек 10 : извлечено точно (доверие 59) [6528C310] (AR v2)
Трек 11 : извлечено точно (доверие 60) [09A74669] (AR v2)
Трек 12 : извлечено точно (доверие 60) [51B60A47] (AR v2)
Трек 13 : извлечено точно (доверие 60) [B8BB7FFF] (AR v2)
12 трек(и) скопированы точно
1 трек(и) не удалось проверить на точность
Некоторые треки не прошли проверку на точность
Конец отчёта
==== Контрольная сумма отчёта 3354D2D41C01D997FD6151A267B2B1172839995B42EC6F1B64BCFA509A9BE962 ====

CD7:Треклист:

Klaviersonate Nr. 23 f-moll op. 57 „Appassionata“
01. I. Allegro assai
02. II. Andante con moto
03. III. Allegro ma non troppo - Presto
Klaviersonate Nr. 24 Fis-dur op. 78 „A Therese“
04. I. Adagio cantabile - Allegro ma non troppo
05. II. Allegro vivace
Klaviersonate Nr. 25 G-dur op. 79
06. I. Presto alla tedesca
07. II. Andante
08. III. Vivace
Klaviersonate Nr. 26 Es-dur op. 81a „Les Adieux“
09. I. Lebewohl (Les Adieux): Adagio - Allegro
10. II. Abwesenheit (L’Absence): Andante espressivo
11. III. Wiedersehen (Le Retour): Vivacissimamente - Poco andante
Klaviersonate Nr. 27 e-moll op. 90
12. I. Mit Lebhaftigkeit und durchaus mit Empfindung und Ausdruck
13. II. Nicht zu geschwind und sehr singbar vorzutragen
Total 63.53

Лог создания рипа:

Exact Audio Copy V1.0 beta 3 from 29. August 2011
Отчёт EAC об извлечении, выполненном 17. февраля 2015, 11:38
Ludwig van Beethoven / Gulda spielt Beethoven - Klaviersonaten Nr. 23 - 27 - CD7
Дисковод: _NEC DVD_RW ND-3570A Adapter: 2 ID: 0
Режим чтения : Скоростной
Коррекция смещения при чтении : 48
Способность читать области Lead-in и Lead-out : Нет
Заполнение пропущенных сэмплов тишиной : Да
Удаление блоков с тишиной в начале и конце : Нет
При вычислениях CRC использовались нулевые сэмплы : Да
Интерфейс : Встроенный Win32-интерфейс для Win NT/2000
Выходной формат : Пользовательский кодировщик
Выбранный битрейт : 896 kBit/s
Качество : Высокий
Добавление ID3-тега : Нет
Утилита сжатия : C:\Program Files\FLAC Frontend\tools\flac.exe
Дополнительные параметры : -V -8 -T "Date=%year%" -T "Genre=%genre%" %source%
TOC извлечённого CD
Трек | Старт | Длительность | Начальный сектор | Конечный сектор
---------------------------------------------------------------------
1 | 0:00.00 | 7:35.18 | 0 | 34142
2 | 7:35.18 | 5:32.53 | 34143 | 59095
3 | 13:07.71 | 7:24.24 | 59096 | 92419
4 | 20:32.20 | 6:20.37 | 92420 | 120956
5 | 26:52.57 | 2:55.43 | 120957 | 134124
6 | 29:48.25 | 4:29.74 | 134125 | 154373
7 | 34:18.24 | 2:35.72 | 154374 | 166070
8 | 36:54.21 | 1:51.03 | 166071 | 174398
9 | 38:45.24 | 6:00.00 | 174399 | 201398
10 | 44:45.24 | 3:17.70 | 201399 | 216243
11 | 48:03.19 | 5:12.13 | 216244 | 239656
12 | 53:15.32 | 4:34.73 | 239657 | 260279
13 | 57:50.30 | 6:01.10 | 260280 | 287364
Характеристики диапазона извлечения и сообщения об ошибках
Выбранный диапазон
Имя файла N:\Gulda spielt Beethoven\CD7\Ludwig van Beethoven - Gulda spielt Beethoven - Klaviersonaten Nr. 23 - 27 - CD7.wav
Проблемы синхронизации 1:02:01
Пиковый уровень 86.8 %
Скорость извлечения 6.8 X
CRC теста 84569152
CRC копии 84569152
Копирование завершено
Ошибок не произошло
AccurateRip: сводка
Трек 1 : извлечено точно (доверие 61) [24ADEB3C] (AR v2)
Трек 2 : извлечено точно (доверие 60) [05C816FD] (AR v2)
Трек 3 : извлечено точно (доверие 61) [B3E765C7] (AR v2)
Трек 4 : извлечено точно (доверие 60) [8E5893D5] (AR v2)
Трек 5 : извлечено точно (доверие 60) [3019D03F] (AR v2)
Трек 6 : извлечено точно (доверие 59) [A7558BDC] (AR v2)
Трек 7 : извлечено точно (доверие 59) [EBD1845D] (AR v2)
Трек 8 : извлечено точно (доверие 60) [757B731B] (AR v2)
Трек 9 : извлечено точно (доверие 58) [0D0E64EE] (AR v2)
Трек 10 : извлечено точно (доверие 60) [56396E09] (AR v2)
Трек 11 : извлечено точно (доверие 60) [DA47C1AC] (AR v2)
Трек 12 : извлечено точно (доверие 60) [471521ED] (AR v2)
Трек 13 : извлечено точно (доверие 60) [AD4E8ECC] (AR v2)
Все треки извлечены точно
Конец отчёта
==== Контрольная сумма отчёта 2AE2D201205C6D33D94A60FAB35FC3F31AD618ABFBC3A6FD1A81344DAC54A992 ====

CD8:Треклист:

Klaviersonate Nr. 28 A-dur op. 101
01. I. Etwas lebhaft und mit der innigsten Empfindung (Allegretto ma non troppo)
02. II. Lebhaft. Marschmäßig (Vivace alia Marcia)
03. III. Langsam und sehnsuchtsvoll (Adagio ma non troppo, con affetto - presto) Geschwinde, doch nicht zu sehr und mit Entschlossenheit (Allegro)
Klaviersonate Nr. 29 B-dur op. 106 „Hammerklavier“
04. I. Allegro
05. II. Scherzo: Assai vivace - Presto
06. III. Adagio sostenuto
07. IV. Largo - Allegro risoluto
Total 57.03

Лог создания рипа:

Exact Audio Copy V1.0 beta 3 from 29. August 2011
Отчёт EAC об извлечении, выполненном 17. февраля 2015, 12:09
Ludwig van Beethoven / Gulda spielt Beethoven - Klaviersonaten 28 & 29 - CD8
Дисковод: _NEC DVD_RW ND-3570A Adapter: 2 ID: 0
Режим чтения : Скоростной
Коррекция смещения при чтении : 48
Способность читать области Lead-in и Lead-out : Нет
Заполнение пропущенных сэмплов тишиной : Да
Удаление блоков с тишиной в начале и конце : Нет
При вычислениях CRC использовались нулевые сэмплы : Да
Интерфейс : Встроенный Win32-интерфейс для Win NT/2000
Выходной формат : Пользовательский кодировщик
Выбранный битрейт : 896 kBit/s
Качество : Высокий
Добавление ID3-тега : Нет
Утилита сжатия : C:\Program Files\FLAC Frontend\tools\flac.exe
Дополнительные параметры : -V -8 -T "Date=%year%" -T "Genre=%genre%" %source%
TOC извлечённого CD
Трек | Старт | Длительность | Начальный сектор | Конечный сектор
---------------------------------------------------------------------
1 | 0:00.00 | 3:40.73 | 0 | 16572
2 | 3:40.73 | 6:26.53 | 16573 | 45575
3 | 10:07.51 | 9:57.54 | 45576 | 90404
4 | 20:05.30 | 9:29.18 | 90405 | 133097
5 | 29:34.48 | 2:19.39 | 133098 | 143561
6 | 31:54.12 | 13:42.33 | 143562 | 205244
7 | 45:36.45 | 11:25.30 | 205245 | 256649
Характеристики диапазона извлечения и сообщения об ошибках
Выбранный диапазон
Имя файла N:\Gulda spielt Beethoven\CD8\Ludwig van Beethoven - Gulda spielt Beethoven - Klaviersonaten 28 & 29 - CD8.wav
Проблемы синхронизации 0:00:14
Пиковый уровень 94.0 %
Скорость извлечения 6.6 X
CRC теста C91F286A
CRC копии C91F286A
Копирование завершено
Ошибок не произошло
AccurateRip: сводка
Трек 1 : извлечено точно (доверие 60) [88D33924] (AR v2)
Трек 2 : извлечено точно (доверие 60) [E7E55C56] (AR v2)
Трек 3 : извлечено точно (доверие 60) [9A5394D8] (AR v2)
Трек 4 : извлечено точно (доверие 59) [4CFEA189] (AR v2)
Трек 5 : извлечено точно (доверие 60) [63271C51] (AR v2)
Трек 6 : извлечено точно (доверие 60) [5EA6B514] (AR v2)
Трек 7 : извлечено точно (доверие 57) [81A22E9D] (AR v2)
Все треки извлечены точно
Конец отчёта
==== Контрольная сумма отчёта 840368B52F72990DEE7BF5F02A7EE0033F89E691C3561DF68A26BE1F0B5D1B14 ====

CD9:Треклист:

Klaviersonate Nr. 30 E-dur op. 109
01. I. Vivace ma non troppo - Adagio espressivo / Prestissimo
02. II. Gesangvoll, mit innigster Empfindung
Andante, molto cantabile ed espressivo
Klaviersonate Nr. 31 As-dur op. 110
03. I. Moderato cantabile, molto espressivo
04. II. Allegro molto
05. III. Adagio ma non troppo - Fuga: Allegro ma non troppo
Klaviersonate Nr. 32 c-moll op. 111
06. I. Maestoso - Allegro con brio ed appassionato
07. II. Arietta: Adagio molto semplice e cantabile
Total 58.13

Лог создания рипа:

Exact Audio Copy V1.0 beta 3 from 29. August 2011
Отчёт EAC об извлечении, выполненном 17. февраля 2015, 13:08
Ludwig van Beethoven / Gulda spielt Beethoven - Klaviersonaten Nr. 30, 31 & 32 - CD9
Дисковод: _NEC DVD_RW ND-3570A Adapter: 2 ID: 0
Режим чтения : Скоростной
Коррекция смещения при чтении : 48
Способность читать области Lead-in и Lead-out : Нет
Заполнение пропущенных сэмплов тишиной : Да
Удаление блоков с тишиной в начале и конце : Нет
При вычислениях CRC использовались нулевые сэмплы : Да
Интерфейс : Встроенный Win32-интерфейс для Win NT/2000
Выходной формат : Пользовательский кодировщик
Выбранный битрейт : 896 kBit/s
Качество : Высокий
Добавление ID3-тега : Нет
Утилита сжатия : C:\Program Files\FLAC Frontend\tools\flac.exe
Дополнительные параметры : -V -8 -T "Date=%year%" -T "Genre=%genre%" %source%
TOC извлечённого CD
Трек | Старт | Длительность | Начальный сектор | Конечный сектор
---------------------------------------------------------------------
1 | 0:00.00 | 5:46.62 | 0 | 26011
2 | 5:46.62 | 11:05.24 | 26012 | 75910
3 | 16:52.11 | 6:05.13 | 75911 | 103298
4 | 22:57.24 | 1:53.12 | 103299 | 111785
5 | 24:50.36 | 9:10.54 | 111786 | 153089
6 | 34:01.15 | 8:38.26 | 153090 | 191965
7 | 42:39.41 | 15:32.23 | 191966 | 261888
Характеристики диапазона извлечения и сообщения об ошибках
Выбранный диапазон
Имя файла N:\Gulda spielt Beethoven\CD9\Ludwig van Beethoven - Gulda spielt Beethoven - Klaviersonaten Nr. 30, 31 & 32 - CD9.wav
Проблемы синхронизации 0:01:50
Пиковый уровень 77.3 %
Скорость извлечения 6.7 X
CRC теста 2D620FEA
CRC копии 45034DF0
Копирование завершено
Ошибок не произошло
AccurateRip: сводка
Трек 1 : извлечено точно (доверие 60) [080EB156] (AR v2)
Трек 2 : извлечено точно (доверие 60) [2646A24C] (AR v2)
Трек 3 точность не определена (достоверность 60) [3E49CCF0], AccurateRip вернул [6D7337F2] (AR v2)
Трек 4 : извлечено точно (доверие 60) [7582733A] (AR v2)
Трек 5 : извлечено точно (доверие 60) [28DF363B] (AR v2)
Трек 6 : извлечено точно (доверие 60) [3A999C8A] (AR v2)
Трек 7 : извлечено точно (доверие 60) [D91B7302] (AR v2)
6 трек(и) скопированы точно
1 трек(и) не удалось проверить на точность
Некоторые треки не прошли проверку на точность
Конец отчёта
==== Контрольная сумма отчёта 94A984C0CD26E887532B75EC7303C373EDFD66F293455CF62986A9112AF6875A ====

CD10:Треклист:

Konzert für Klavier und Orchester Nr. 1 C-dur op. 15
01. I. Allegro con brio
02. II. Largo
03. III. Rondo. Allegro scherzando
Klaviersonate Nr. 23 f-moll op. 57 „Appassionata“
04. I. Allegro assai
05. II. Andante con moto – attacca
06. III. Allegro ma non troppo - Presto
Klaviersonate Nr. 24 Fis-dur op. 78 „Á Thérèse“
07. I. Adagio cantabile - Allegro ma non troppo
08. II. Allegro vivace
Total 67.14

Лог создания рипа:

Exact Audio Copy V1.0 beta 3 from 29. August 2011
Отчёт EAC об извлечении, выполненном 17. февраля 2015, 14:12
Ludwig van Beethoven / Gulda spielt Beethoven - Klavierkonzert Nr. 1, Klaviersonaten Nr. 23 & 24 - CD10
Дисковод: _NEC DVD_RW ND-3570A Adapter: 2 ID: 0
Режим чтения : Скоростной
Коррекция смещения при чтении : 48
Способность читать области Lead-in и Lead-out : Нет
Заполнение пропущенных сэмплов тишиной : Да
Удаление блоков с тишиной в начале и конце : Нет
При вычислениях CRC использовались нулевые сэмплы : Да
Интерфейс : Встроенный Win32-интерфейс для Win NT/2000
Выходной формат : Пользовательский кодировщик
Выбранный битрейт : 896 kBit/s
Качество : Высокий
Добавление ID3-тега : Нет
Утилита сжатия : C:\Program Files\FLAC Frontend\tools\flac.exe
Дополнительные параметры : -V -8 -T "Date=%year%" -T "Genre=%genre%" %source%
TOC извлечённого CD
Трек | Старт | Длительность | Начальный сектор | Конечный сектор
---------------------------------------------------------------------
1 | 0:00.00 | 18:00.67 | 0 | 81066
2 | 18:00.67 | 11:23.30 | 81067 | 132321
3 | 29:24.22 | 8:58.33 | 132322 | 172704
4 | 38:22.55 | 8:42.01 | 172705 | 211855
5 | 47:04.56 | 5:52.14 | 211856 | 238269
6 | 52:56.70 | 5:02.71 | 238270 | 260990
7 | 57:59.66 | 6:18.60 | 260991 | 289400
8 | 64:18.51 | 2:52.40 | 289401 | 302340
Характеристики диапазона извлечения и сообщения об ошибках
Выбранный диапазон
Имя файла N:\Gulda spielt Beethoven\CD10\Ludwig van Beethoven - Gulda spielt Beethoven - Klavierkonzert Nr. 1, Klaviersonaten Nr. 23 & 24 - CD10.wav
Пиковый уровень 94.4 %
Скорость извлечения 7.4 X
CRC теста C96AC016
CRC копии C96AC016
Копирование... OK
Ошибок не произошло
AccurateRip: сводка
Трек 1 : извлечено точно (доверие 59) [096BF043] (AR v2)
Трек 2 : извлечено точно (доверие 60) [47AA3ADB] (AR v2)
Трек 3 : извлечено точно (доверие 60) [1E4E18D9] (AR v2)
Трек 4 : извлечено точно (доверие 55) [5282DB87] (AR v2)
Трек 5 : извлечено точно (доверие 55) [072C5D27] (AR v2)
Трек 6 : извлечено точно (доверие 55) [FB1BA3D8] (AR v2)
Трек 7 : извлечено точно (доверие 53) [18D39D9D] (AR v2)
Трек 8 : извлечено точно (доверие 54) [AA9860D1] (AR v2)
Все треки извлечены точно
Конец отчёта
==== Контрольная сумма отчёта E3BE67ADB87F12AED775BF764D2895E29F2900566F78AEBE75CE068CEB5AEE06 ====

CD11:Треклист:

Konzert für Klavier und Orchester Nr. 2 B-dur op. 19
01. I. Allegro con brio
02. II. Adagio
03. III. Rondo. Molto allegro
Konzert fur Klavier und Orchester Nr. 3 c-moll op. 37
04. I. Allegro con brio
05. II. Largo
06. III. Rondo. Allegro
Total 64.00

Лог создания рипа:

Exact Audio Copy V1.0 beta 3 from 29. August 2011
Отчёт EAC об извлечении, выполненном 17. февраля 2015, 15:01
Ludwig van Beethoven / Gulda spielt Beethoven - Klavierkonzerte Nr. 2 & 3 - CD11
Дисковод: _NEC DVD_RW ND-3570A Adapter: 2 ID: 0
Режим чтения : Скоростной
Коррекция смещения при чтении : 48
Способность читать области Lead-in и Lead-out : Нет
Заполнение пропущенных сэмплов тишиной : Да
Удаление блоков с тишиной в начале и конце : Нет
При вычислениях CRC использовались нулевые сэмплы : Да
Интерфейс : Встроенный Win32-интерфейс для Win NT/2000
Выходной формат : Пользовательский кодировщик
Выбранный битрейт : 896 kBit/s
Качество : Высокий
Добавление ID3-тега : Нет
Утилита сжатия : C:\Program Files\FLAC Frontend\tools\flac.exe
Дополнительные параметры : -V -8 -T "Date=%year%" -T "Genre=%genre%" %source%
TOC извлечённого CD
Трек | Старт | Длительность | Начальный сектор | Конечный сектор
---------------------------------------------------------------------
1 | 0:00.00 | 13:47.09 | 0 | 62033
2 | 13:47.09 | 8:24.45 | 62034 | 99878
3 | 22:11.54 | 6:43.02 | 99879 | 130105
4 | 28:54.56 | 15:59.56 | 130106 | 202086
5 | 44:54.37 | 9:56.32 | 202087 | 246818
6 | 54:50.69 | 9:03.45 | 246819 | 287588
Характеристики диапазона извлечения и сообщения об ошибках
Выбранный диапазон
Имя файла N:\Gulda spielt Beethoven\CD11\Ludwig van Beethoven - Gulda spielt Beethoven - Klavierkonzerte Nr. 2 & 3 - CD11.wav
Пиковый уровень 94.3 %
Скорость извлечения 6.9 X
CRC теста CEDAD92B
CRC копии CEDAD92B
Копирование... OK
Ошибок не произошло
AccurateRip: сводка
Трек 1 : извлечено точно (доверие 59) [6FD7BEC7] (AR v2)
Трек 2 : извлечено точно (доверие 60) [B5F75438] (AR v2)
Трек 3 : извлечено точно (доверие 60) [3889B681] (AR v2)
Трек 4 : извлечено точно (доверие 60) [40F206F0] (AR v2)
Трек 5 : извлечено точно (доверие 59) [BE2113E4] (AR v2)
Трек 6 : извлечено точно (доверие 59) [D44630EF] (AR v2)
Все треки извлечены точно
Конец отчёта
==== Контрольная сумма отчёта DC0974E425F0ED93F13A5E3822D68296B6C106852E86E0C0BA94DA06934751DF ====

CD12:Треклист:

Konzert für Klavier und Orchester Nr. 4 G-dur op. 58
01. I. Allegro moderate
02. II. Andante con moto
03. III. Rondo. Vivace
Konzert für Klavier und Orchester Nr. 5 Es-dur op. 73
04. I. Allegro
05. II. Adagio un poco moto - attacca:
06. III. Rondo. Allegro
Total 76.03

Лог создания рипа:

Exact Audio Copy V1.0 beta 3 from 29. August 2011
Отчёт EAC об извлечении, выполненном 17. февраля 2015, 15:28
Ludwig van Beethoven / Gulda spielt Beethoven - Klavierkonzerte 4 & 5 - CD12
Дисковод: _NEC DVD_RW ND-3570A Adapter: 2 ID: 0
Режим чтения : Скоростной
Коррекция смещения при чтении : 48
Способность читать области Lead-in и Lead-out : Нет
Заполнение пропущенных сэмплов тишиной : Да
Удаление блоков с тишиной в начале и конце : Нет
При вычислениях CRC использовались нулевые сэмплы : Да
Интерфейс : Встроенный Win32-интерфейс для Win NT/2000
Выходной формат : Пользовательский кодировщик
Выбранный битрейт : 896 kBit/s
Качество : Высокий
Добавление ID3-тега : Нет
Утилита сжатия : C:\Program Files\FLAC Frontend\tools\flac.exe
Дополнительные параметры : -V -8 -T "Date=%year%" -T "Genre=%genre%" %source%
TOC извлечённого CD
Трек | Старт | Длительность | Начальный сектор | Конечный сектор
---------------------------------------------------------------------
1 | 0:00.00 | 19:11.37 | 0 | 86361
2 | 19:11.37 | 5:55.43 | 86362 | 113029
3 | 25:07.05 | 10:09.08 | 113030 | 158712
4 | 35:16.13 | 21:12.18 | 158713 | 254130
5 | 56:28.31 | 8:51.23 | 254131 | 293978
6 | 65:19.54 | 10:38.71 | 293979 | 341899
Характеристики диапазона извлечения и сообщения об ошибках
Выбранный диапазон
Имя файла N:\Gulda spielt Beethoven\CD12\Ludwig van Beethoven - Gulda spielt Beethoven - Klavierkonzerte 4 & 5 - CD12.wav
Проблемы синхронизации 0:12:52
Проблемы синхронизации 0:15:56
Проблемы синхронизации 0:32:21
Проблемы синхронизации 0:32:41
Проблемы синхронизации 1:14:10
Пиковый уровень 94.6 %
Скорость извлечения 7.7 X
CRC теста 94543A3B
CRC копии 94543A3B
Копирование завершено
Ошибок не произошло
AccurateRip: сводка
Трек 1 : извлечено точно (доверие 59) [61F55181] (AR v2)
Трек 2 : извлечено точно (доверие 61) [51937F72] (AR v2)
Трек 3 : извлечено точно (доверие 61) [E1845C3F] (AR v2)
Трек 4 : извлечено точно (доверие 61) [D05C5175] (AR v2)
Трек 5 : извлечено точно (доверие 61) [F5B96721] (AR v2)
Трек 6 : извлечено точно (доверие 58) [E6E5430D] (AR v2)
Все треки извлечены точно
Конец отчёта
==== Контрольная сумма отчёта 7FEB2654222DC0F8B2671674FEC9ED3E178D1092063E6A5313D33866CA4A9758 ====
[teatrix.ru].t9702.torrent 
Торрент: Зарегистрирован [ 2015-10-23 17:11 ] · DEB172B186DAD3743673DA7407BB37F915AFEA7F

Скачать .torrent

Скачать

19 KB

Статус: проверено
Скачан: 0 раз
Размер: 2.67 GB
terms.php



Быстрый ответ

Имя:

      
Для отправки сообщений необходимо включить JavaScript
Показать сообщения:    

Текущее время: 04-Дек 11:15

Часовой пояс: UTC + 3


Вы можете начинать темы
Вы можете отвечать на сообщения
Вы не можете редактировать свои сообщения
Вы не можете удалять свои сообщения
Вы не можете голосовать в опросах
Вы не можете прикреплять файлы к сообщениям
Вы можете скачивать файлы