(Classical / Piano Concerto) Frederic Chopin - Die Klavierkonzerte und Klavierwerke solo (Adam Harasiewicz / Адам Гарасевич, Wiener Symphoniker, Heinrich Hollreiser, 1958-1972) - 2007 [10 CD], FLAC (tracks+.cue) lossless


Статистика раздачи [Обновить пиров]
Размер:  2.93 GB   |    Зарегистрирован:  1 год 1 месяц   |    Скачан:  0 раз

Полного источника не было: Никогда

Личеров:  1  [  0 KB/s  ]   Подробная статистика пиров
 
   
 
 
 

[Цитировать]

Frédéric Chopin | Фредерик Шопен
(1810–1849)



Die Klavierkonzerte und Klavierwerke solo
Фортепианные концерты и произведения для фортепиано соло


Adam Harasiewicz piano
Wiener Symphoniker
Heinrich Hollreiser conductor


Жанр: Classical / Piano Concerto
Даты записи: 1958–1972
Формат записи: ADD/AAD, Stereo
Год издания диска: 2007
Издатель (лейбл): Decca
Номер по каталогу: 442 8746
Аудиокодек: FLAC
Тип рипа: tracks+.cue
Битрейт аудио: lossless
Продолжительность: 12:15:46
Наличие сканов в содержимом раздачи: да
Источник: What.CD
Релизёр: club706


-
Tracklist / ТреклистCD 1: Concertos
Concerto n° 1 en mi mineur, Op. 11 - 39:39
I. Allegro maestoso - 19:56
  • II. Romance: Larghetto - 9:33
  • III. Rondo: Vivace - 10:10Concerto n° 2 en fa mineur, Op. 21 - 32:21
    I. Maestoso - 14:08
  • II. Larghetto - 9:39
  • III. Allegro vivace - 8:33
    _____
    Recorded: October 1958
    CD 2: Sonates • Barcarolle
    Sonate n° 1 en ut mineur, Op. 4 - 22:20
    I. Allegro maestoso - 6:52
  • II. Minuetto: Allegretto - 4:49
  • III. Larghetto - 3:38
  • IV. Finale: Presto - 7:01
    Recorded: April 1968Sonate n° 2 en si bémol mineur, Op. 35 - 22:03
    I. Grave. — Doppio movimento - 5:26
  • II. Scherzo - 6:37
  • III. Marche funèbre: Lento - 8:33
  • IV. Finale: Presto - 1:27
    Recorded: June 1958Sonate n° 3 en si mineur, Op. 58 - 25:07
    I. Allegro maestoso - 8:53
  • II. Scherzo: Molto vivace - 2:28
  • III. Largo - 8:35
  • IV. Finale: Presto non tanto - 5:11
    Recorded: September 1960Barcarolle en fa dièse majeur, Op. 60 - 8:27
    Recorded: April 1965CD 3: Scherzos • Fantaisie • Ballades
    Scherzo n° 1 en si mineur, Op. 20 - 9:10
    Recorded: October 1958Scherzo n° 2 en si bémol mineur, Op. 31 - 10:02
    Recorded: October 1961Scherzo n° 3 en ut dièse mineur, Op. 39 - 6:58
    Recorded: September 1960Scherzo n° 4 en mi majeur, Op. 54 - 9:42
  • Fantaisie en fa mineur, Op. 49 - 11:40
    Recorded: October 1958Ballade n° 1 en sol mineur, Op. 23 - 8:04
    Recorded: September 1967Ballade n° 2 en fa majeur, Op. 38 - 6:28
    Recorded: December 1962Ballade n° 3 en la bémol majeur, Op. 47 - 7:17
    Recorded: May 1963Ballade n° 4 en fa mineur, Op. 52 - 10:40
    Recorded: December 1962CD 4: Études
    12 études, Op. 10 - 29:13
    n° 1 en ut majeur - 2:15
  • n° 2 en la mineur «Chromatique» - 1:28
  • n° 3 en mi majeur «Tristesse» - 4:12
  • n° 4 en ut dièse mineur - 2:09
  • n° 5 en sol bémol majeur «Sur les touches noires» - 1:41
  • n° 6 en mi bémol mineur - 3:40
  • n° 7 en ut majeur - 1:34
  • n° 8 en fa majeur - 2:32
  • n° 9 en fa mineur - 2:13
  • n° 10 en la bémol majeur - 2:17
  • n° 11 en mi bémol majeur «Aux arpèges» - 2:27
  • n° 12 en ut mineur «La révolutionnaire» - 2:45
    Recorded: June 196112 études, Op. 25 - 32:54
    n° 1 en la bémol majeur «La harpe éolienne» - 2:59
  • n° 2 en fa mineur - 1:37
  • n° 3 en fa majeur - 2:02
  • n° 4 en la mineur - 1:35
  • n° 5 en mi mineur «La fausse note» - 3:40
  • n° 6 en sol dièse mineur «En tierces» - 1:52
  • n° 7 en ut dièse mineur - 5:35
  • n° 8 en ré bémol majeur «En sixtes» - 1:22
  • n° 9 en sol bémol majeur «Le papillon» - 1:03
  • n° 10 en si mineur - 3:52
  • n° 11 en la mineur «Le vent d'hiver» - 4:07
  • n° 12 en ut mineur «L'océan» - 3:11
    Recorded: October 19613 nouvelles études (1840) - 5:16
    n° 1 en fa mineur - 2:06
  • n° 2 en la bémol majeur - 1:34
  • n° 3 en ré bémol majeur - 1:36
    Recorded: April 1965CD 5: Polonaises • Valses
    2 polonaises, Op. 26 - 13:43
    n° 1 en ut dièse mineur - 6:44
  • n° 2 en mi bémol mineur - 6:592 polonaises, Op. 40 - 12:19
    n° 1 en la majeur «Polonaise militaire» - 5:25
  • n° 2 en ut mineur - 6:54Polonaise en fa dièse mineur, Op. 44 - 9:54
  • Polonaise en la bémol majeur, Op. 53 «Héroïque» - 6:32
  • Polonaise-fantaisie en la bémol majeur, Op. 61 - 12:11
    Recorded: September 19673 polonaises, Op. 71 - 20:03
    n° 1 en ré mineur - 5:33
  • n° 2 en si bémol majeur - 7:32
  • n° 3 en fa mineur - 6:58
    Recorded: January 1970Valse en mi majeur (1829) - 2:15
    Recorded: April 1965Valse en la bémol majeur (1829) - 1:58
    Recorded: January 1970CD 6: Polonaises • Valses
    Polonaise en sol mineur (1817) - 2:58
  • Polonaise en si bémol majeur (1817) - 3:13
  • Polonaise en la bémol majeur (1821) - 5:03
  • Polonaise en sol dièse mineur (1824) - 6:38
  • Polonaise en si bémol mineur (1826) - 4:31
  • Polonaise en sol bémol majeur (1830) - 6:59
    Recorded: January 1970Grande valse brillante en mi bémol majeur, Op. 18 - 5:273 valses, Op. 34 - 12:38
    n° 1 en la bémol majeur «Valse brillante» - 5:08
  • n° 2 en la mineur - 5:18
  • n° 3 en fa majeur - 2:12Grande valse en la bémol majeur, Op. 42 - 3:463 valses, Op. 64 - 8:48
    n° 1 en ré bémol majeur «Valse minute» - 1:48
  • n° 2 en ut dièse mineur - 3:47
  • n° 3 en la bémol majeur - 3:132 valses, Op. posth. 69 - 8:12
    n° 1 en la bémol majeur «Valse de l'adieu» - 4:09
  • n° 2 en si mineur - 4:033 valses, Op. posth. 70 - 7:55
    n° 1 en sol bémol majeur - 2:03
  • n° 2 en fa mineur - 3:08
  • n° 3 en ré bémol majeur - 2:44Valse en mi mineur (1830) - 3:13
    Recorded: August 1965CD 7: Nocturnes
    3 nocturnes, Op. 9 - 16:11
    n° 1 en si bémol mineur - 5:29
  • n° 2 en mi bémol majeur - 4:53
  • n° 3 en si majeur - 5:49
    Recorded: 1, 2: June 1961; 3: May 19633 nocturnes, Op. 15 - 12:44
    n° 1 en fa majeur - 4:13
  • n° 2 en fa dièse majeur - 3:33
  • n° 3 en sol mineur - 4:572 nocturnes, Op. 27 - 9:57
    n° 1 en ut dièse mineur - 4:45
  • n° 2 en ré bémol majeur - 5:122 nocturnes, Op. 32 - 9:25
    n° 1 en si majeur - 4:35
  • n° 2 en la bémol majeur - 4:50
    Recorded: April 19632 nocturnes, Op. 37 - 10:44
    n° 1 en sol mineur - 5:43
  • n° 2 en sol majeur - 5:01
    Recorded: April 1963, December 19622 nocturnes, Op. 48 - 11:41
    n° 1 en ut mineur - 5:29
  • n° 2 en fa dièse mineur - 6:12
    Recorded: November 1962, April 19632 nocturnes, Op. 55 - 9:26
    n° 1 en fa mineur - 4:56CD 8: Nocturnes • Préludes
    2 nocturnes, Op. 55 (cont.)
    n° 2 en mi bémol majeur - 4:30
    Recorded: June 1961, May 19632 nocturnes, Op. 62 - 10:45
    n° 1 en si majeur - 5:52
  • n° 2 en mi majeur - 4:53
    Recorded: May 1963Nocturne en mi mineur, Op. posth. 72 n° 1 - 4:26
    Recorded: October 1961Nocturne en ut dièse mineur (1830) - 3:51
    Recorded: April 1968Nocturne en ut mineur (1828/30) - 3:04
    Recorded: May 197124 préludes, Op. 28 - 38:30
    n° 1 en ut majeur - 0:49
  • n° 2 en la mineur - 1:57
  • n° 3 en sol majeur - 0:57
  • n° 4 en mi mineur - 1:54
  • n° 5 en ré majeur - 0:33
  • n° 6 en si mineur - 1:51
  • n° 7 en la majeur - 0:58
  • n° 8 en fa dièse mineur - 1:58
  • n° 9 en mi majeur - 1:18
  • n° 10 en ut dièse mineur - 0:33
  • n° 11 en si majeur - 0:39
  • n° 12 en sol dièse mineur - 1:06
  • n° 13 en fa dièse majeur - 3:19
  • n° 14 en mi bémol mineur - 0:28
  • n° 15 en ré bémol majeur «La goutte d'eau» - 4:58
  • n° 16 en si bémol mineur - 1:10
  • n° 17 en la bémol majeur - 3:36
  • n° 18 en fa mineur - 0:55
  • n° 19 en mi bémol majeur - 1:23
  • n° 20 en ut mineur - 1:50
  • n° 21 en si bémol majeur - 2:04
  • n° 22 en sol mineur - 0:47
  • n° 23 en fa majeur - 1:14
  • n° 24 en ré mineur - 2:14
    Recorded: May 1962Prélude en ut dièse mineur, Op. 45 - 4:08
    Recorded: June 1959Prélude en la bémol majeur (1834) - 0:41
    Recorded: May 1971CD 9: Impromptus • Mazurkas
    Impromptu n° 1 en la bémol majeur, Op. 29 - 4:12
  • Impromptu n° 2 en fa dièse majeur, Op. 36 - 5:11
    Recorded: unknown, ℗ 1962Impromptu n° 3 en sol bémol majeur, Op. 51 - 4:48
    Recorded: June 1959Impromptu n° 4 en ut dièse mineur, Op. 66 («Fantaisie-impromptu») - 5:11
    Recorded: unknown, ℗ 19622 mazurkas, Op. 6 - 5:27
    n° 1 en fa dièse mineur - 2:57
  • n° 2 en ut dièse mineur - 2:303 mazurkas, Op. 59
    n° 2 en la bémol majeur - 2:254 mazurkas, Op. 68
    n° 4 en fa mineur - 2:08
    Recorded: April 19654 mazurkas, Op. 24 - 4:32
    n° 1 en sol mineur - 2:27
  • n° 2 en ut majeur - 2:054 mazurkas, Op. 33
    n° 3 en ut majeur - 1:383 mazurkas, Op. 56 - 7:44
    n° 2 en ut majeur - 2:10
  • n° 3 en ut mineur - 5:343 mazurkas, Op. 59
    n° 1 en la mineur - 3:39
    Recorded: unknown, ℗ 19725 mazurkas, Op. 7 - 5:18
    n° 1 en si bémol majeur - 2:23
  • n° 2 en la mineur - 2:55
    Recorded: April 19654 mazurkas, Op. 24
    n° 4 en si bémol mineur - 4:29
    Recorded: October 19585 mazurkas, Op. 7
    n° 3 en fa mineur - 2:394 mazurkas, Op. 33
    n° 1 en sol dièse mineur - 1:454 mazurkas, Op. 41
    n° 4 en la bémol majeur - 1:57
    Recorded: April 19653 mazurkas, Op. 50 - 7:40
    n° 2 en la bémol majeur - 2:51
  • n° 3 en ut dièse mineur - 4:49
    Recorded: 2: April 1965; 3: June 19593 mazurkas, Op. 63
    n° 3 en ut dièse mineur - 2:124 mazurkas, Op. posth. 67
    n° 4 en la mineur - 2:41
    Recorded: June 1959CD 10: Œuvres diverses
    Valse en mi bémol majeur (1829) - 2:53
  • Valse en mi bémol majeur - 1:22
  • Valse en la mineur (1843-1848) - 1:52
    Recorded: January 1970Tarantelle en la bémol majeur, Op. 43 - 3:20
  • Boléro en ut majeur, Op. 19 - 7:19
    Recorded: April 1968Rondo en ut mineur, Op. 1 - 8:16
  • Rondeau à la Mazur en fa majeur, Op. 5 - 8:27
  • «Souvenir de Paganini» en la majeur (1829) - 3:16
  • Variation sur la «Marche des puritains» de Bellini (1839) - 1:41
    Recorded: unknown, ℗ 1972Berceuse en ré bémol majeur, Op. 57 - 4:29
    Recorded: April 19653 écossaises, Op. 72 n° 3 - 2:20
    Recorded: April 1968Andante spianato et Grande Polonaise brillante en mi bémol majeur, Op. 22 - 13:45
    Recorded: unknown, ℗ 1972
    -

    EAC logs / Отчёты EACCD 1: Concertos

    Exact Audio Copy V0.99 prebeta 5 from 4. May 2009
    EAC extraction logfile from 1. November 2009, 3:46
    Adam Harasiewicz, Heinrich Hollreiser, Wiener Symphoniker / Chopin CD1
    Used drive : HL-DT-STDVDRAM GP08LU10 Adapter: 1 ID: 0
    Read mode : SecureUtilize accurate stream : YesDefeat audio cache : YesMake use of C2 pointers : No
    Read offset correction : 667Overread into Lead-In and Lead-Out : NoFill up missing offset samples with silence : YesDelete leading and trailing silent blocks : NoNull samples used in CRC calculations : YesUsed interface : Native Win32 interface for Win NT & 2000Gap handling : Appended to previous track
    Used output format : User Defined EncoderSelected bitrate : 128 kBit/sQuality : HighAdd ID3 tag : NoCommand line compressor : C:\Program Files\Exact Audio Copy\Flac\flac.exeAdditional command line options : -V -8 -T "artist=%a" -T "title=%t" -T "album=%g" -T "date=%y" -T "tracknumber=%n" -T "genre=%m" %s
    TOC of the extracted CD
    Track | Start | Length | Start sector | End sector --------------------------------------------------------- 1 | 0:00.00 | 19:56.24 | 0 | 89723 2 | 19:56.24 | 9:33.09 | 89724 | 132707 3 | 29:29.33 | 10:10.00 | 132708 | 178457 4 | 39:39.33 | 14:08.33 | 178458 | 242090 5 | 53:47.66 | 9:39.21 | 242091 | 285536 6 | 63:27.12 | 8:33.21 | 285537 | 324032
    Track 1
    Filename D:\My Music\ripping\Adam Harasiewicz, Heinrich Hollreiser, Wiener Symphoniker - Chopin CD1\01 Piano Concerto No. 1 in E minor, Op. 11 - 1. Allegro maestoso.wav
    Pre-gap length 0:00:02.00
    Peak level 81.8 % Track quality 100.0 % Test CRC DA5B13F3 Copy CRC DA5B13F3 Accurately ripped (confidence 2) [73C43D81] Copy OK
    Track 2
    Filename D:\My Music\ripping\Adam Harasiewicz, Heinrich Hollreiser, Wiener Symphoniker - Chopin CD1\02 Piano Concerto No. 1 in E minor, Op. 11 - 2. Romance. Larghetto.wav
    Pre-gap length 0:00:00.02
    Peak level 57.9 % Track quality 99.9 % Test CRC 1A286BD2 Copy CRC 1A286BD2 Accurately ripped (confidence 2) [EF3EA0AA] Copy OK
    Track 3
    Filename D:\My Music\ripping\Adam Harasiewicz, Heinrich Hollreiser, Wiener Symphoniker - Chopin CD1\03 Piano Concerto No. 1 in E minor, Op. 11 - 3. Rondo. Vivace.wav
    Pre-gap length 0:00:00.02
    Peak level 77.2 % Track quality 99.9 % Test CRC 4E1659D7 Copy CRC 4E1659D7 Accurately ripped (confidence 2) [F8AECD74] Copy OK
    Track 4
    Filename D:\My Music\ripping\Adam Harasiewicz, Heinrich Hollreiser, Wiener Symphoniker - Chopin CD1\04 Piano Concerto No. 2 in F minor, Op. 21 - 1. Maestoso.wav
    Pre-gap length 0:00:09.02
    Peak level 90.6 % Track quality 99.9 % Test CRC D34A65F8 Copy CRC D34A65F8 Accurately ripped (confidence 2) [0F1C3A4D] Copy OK
    Track 5
    Filename D:\My Music\ripping\Adam Harasiewicz, Heinrich Hollreiser, Wiener Symphoniker - Chopin CD1\05 Piano Concerto No. 2 in F minor, Op. 21 - 2. Larghetto.wav
    Pre-gap length 0:00:00.02
    Peak level 67.3 % Track quality 100.0 % Test CRC EEF0183C Copy CRC EEF0183C Accurately ripped (confidence 2) [09E45E65] Copy OK
    Track 6
    Filename D:\My Music\ripping\Adam Harasiewicz, Heinrich Hollreiser, Wiener Symphoniker - Chopin CD1\06 Piano Concerto No. 2 in F minor, Op. 21 - 3. Allegro vivace.wav
    Pre-gap length 0:00:00.02
    Peak level 86.7 % Track quality 100.0 % Test CRC 94203657 Copy CRC 94203657 Accurately ripped (confidence 2) [81EBE36C] Copy OK
    All tracks accurately ripped
    No errors occurred
    End of status report

    CD 2: Sonates • Barcarolle

    Exact Audio Copy V1.0 beta 3 from 29. August 2011
    EAC extraction logfile from 17. July 2014, 19:22
    Adam Harasiewicz / Chopin CD2
    Used drive : PLEXTOR CD-R PREMIUM2 Adapter: 0 ID: 0
    Read mode : SecureUtilize accurate stream : YesDefeat audio cache : YesMake use of C2 pointers : No
    Read offset correction : 30Overread into Lead-In and Lead-Out : YesFill up missing offset samples with silence : YesDelete leading and trailing silent blocks : NoNull samples used in CRC calculations : YesUsed interface : Native Win32 interface for Win NT & 2000Gap handling : Appended to previous track
    Used output format : User Defined EncoderSelected bitrate : 1024 kBit/sQuality : HighAdd ID3 tag : NoCommand line compressor : C:\Program Files (x86)\Exact Audio Copy\Flac\flac.exeAdditional command line options : -8 -V -T "ARTIST=%artist%" -T "TITLE=%title%" -T "ALBUM=%albumtitle%" -T "DATE=%year%" -T "TRACKNUMBER=%tracknr%" -T "GENRE=%genre%" -T "PERFORMER=%albuminterpret%" -T "COMPOSER=%composer%" %haslyrics%--tag-from-file=LYRICS="%lyricsfile%"%haslyrics% -T "ALBUMARTIST=%albumartist%" -T "ALBUM ARTIST=%albumartist%" -T "DISCNUMBER=%cdnumber%" -T "TOTALDISCS=%totalcds%" -T "TOTALTRACKS=%numtracks%" -T "COMMENT=%comment%" %source% -o %dest%
    TOC of the extracted CD
    Track | Start | Length | Start sector | End sector --------------------------------------------------------- 1 | 0:00.00 | 6:52.33 | 0 | 30932 2 | 6:52.33 | 4:49.37 | 30933 | 52644 3 | 11:41.70 | 3:38.00 | 52645 | 68994 4 | 15:19.70 | 7:00.38 | 68995 | 100532 5 | 22:20.33 | 5:26.37 | 100533 | 125019 6 | 27:46.70 | 6:36.38 | 125020 | 154757 7 | 34:23.33 | 8:33.25 | 154758 | 193257 8 | 42:56.58 | 1:26.50 | 193258 | 199757 9 | 44:23.33 | 8:53.00 | 199758 | 239732 10 | 53:16.33 | 2:28.00 | 239733 | 250832 11 | 55:44.33 | 8:35.00 | 250833 | 289457 12 | 64:19.33 | 5:11.00 | 289458 | 312782 13 | 69:30.33 | 8:27.00 | 312783 | 350807
    Track 1
    Filename D:\Music\Ripping\Chopin CD2\01 Piano Sonata No. 1 in C minor, Op. 4 - 1. Allegro maestoso.wav
    Pre-gap length 0:00:02.00
    Peak level 97.3 % Extraction speed 7.3 X Track quality 100.0 % Test CRC 4EC542A4 Copy CRC 4EC542A4 Accurately ripped (confidence 4) [A04C5034] (AR v2) Copy OK
    Track 2
    Filename D:\Music\Ripping\Chopin CD2\02 Piano Sonata No. 1 in C minor, Op. 4 - 2. Minuetto. Allegretto.wav
    Pre-gap length 0:00:02.00
    Peak level 78.4 % Extraction speed 7.3 X Track quality 99.9 % Test CRC D29AC2B3 Copy CRC D29AC2B3 Accurately ripped (confidence 4) [2AD361DF] (AR v2) Copy OK
    Track 3
    Filename D:\Music\Ripping\Chopin CD2\03 Piano Sonata No. 1 in C minor, Op. 4 - 3. Larghetto.wav
    Pre-gap length 0:00:02.00
    Peak level 47.5 % Extraction speed 8.6 X Track quality 100.0 % Test CRC 0051FCC7 Copy CRC 0051FCC7 Accurately ripped (confidence 4) [88F4A7F2] (AR v2) Copy OK
    Track 4
    Filename D:\Music\Ripping\Chopin CD2\04 Piano Sonata No. 1 in C minor, Op. 4 - 4. Finale. Presto.wav
    Pre-gap length 0:00:01.50
    Peak level 100.0 % Extraction speed 9.5 X Track quality 100.0 % Test CRC A8B03745 Copy CRC A8B03745 Accurately ripped (confidence 4) [92036F2F] (AR v2) Copy OK
    Track 5
    Filename D:\Music\Ripping\Chopin CD2\05 Piano Sonata No. 2 in B flat minor, Op. 35 - 1. Grave - Doppio movimento.wav
    Pre-gap length 0:00:07.00
    Peak level 80.4 % Extraction speed 10.1 X Track quality 100.0 % Test CRC F6A54241 Copy CRC F6A54241 Accurately ripped (confidence 4) [FB8A3624] (AR v2) Copy OK
    Track 6
    Filename D:\Music\Ripping\Chopin CD2\06 Piano Sonata No. 2 in B flat minor, Op. 35 - 2. Scherzo. Piu lento - Tempo I.wav
    Pre-gap length 0:00:02.50
    Peak level 72.2 % Extraction speed 10.8 X Track quality 100.0 % Test CRC B8AD3E20 Copy CRC B8AD3E20 Accurately ripped (confidence 4) [9A8120C1] (AR v2) Copy OK
    Track 7
    Filename D:\Music\Ripping\Chopin CD2\07 Piano Sonata No. 2 in B flat minor, Op. 35 - 3. Marche funebre. Lento -.wav
    Peak level 57.1 % Extraction speed 11.7 X Track quality 100.0 % Test CRC E1638110 Copy CRC E1638110 Accurately ripped (confidence 4) [9E4F4691] (AR v2) Copy OK
    Track 8
    Filename D:\Music\Ripping\Chopin CD2\08 Piano Sonata No. 2 in B flat minor, Op. 35 - 4. Finale. Presto.wav
    Peak level 47.1 % Extraction speed 7.8 X Track quality 99.8 % Test CRC BE807435 Copy CRC BE807435 Accurately ripped (confidence 4) [8B734EB3] (AR v2) Copy OK
    Track 9
    Filename D:\Music\Ripping\Chopin CD2\09 Piano Sonata No. 3 in B minor, Op. 58 - 1. Allegro maestoso.wav
    Pre-gap length 0:00:06.00
    Peak level 78.1 % Extraction speed 12.7 X Track quality 100.0 % Test CRC B21D0FBE Copy CRC B21D0FBE Accurately ripped (confidence 4) [3A02705C] (AR v2) Copy OK
    Track 10
    Filename D:\Music\Ripping\Chopin CD2\10 Piano Sonata No. 3 in B minor, Op. 58 - 2. Scherzo. Molto vivace.wav
    Pre-gap length 0:00:04.00
    Peak level 76.6 % Extraction speed 12.3 X Track quality 100.0 % Test CRC CF428FB5 Copy CRC CF428FB5 Accurately ripped (confidence 4) [183CB924] (AR v2) Copy OK
    Track 11
    Filename D:\Music\Ripping\Chopin CD2\11 Piano Sonata No. 3 in B minor, Op. 58 - 3. Largo.wav
    Pre-gap length 0:00:03.00
    Peak level 55.0 % Extraction speed 13.6 X Track quality 100.0 % Test CRC 2378A853 Copy CRC 2378A853 Accurately ripped (confidence 4) [4AADFD02] (AR v2) Copy OK
    Track 12
    Filename D:\Music\Ripping\Chopin CD2\12 Piano Sonata No. 3 in B minor, Op. 58 - 4. Finale. Presto, ma non tanto.wav
    Pre-gap length 0:00:03.00
    Peak level 88.2 % Extraction speed 13.8 X Track quality 100.0 % Test CRC 680827D4 Copy CRC 680827D4 Accurately ripped (confidence 4) [BC800420] (AR v2) Copy OK
    Track 13
    Filename D:\Music\Ripping\Chopin CD2\13 Barcarolle in F sharp major, Op. 60.wav
    Pre-gap length 0:00:06.00
    Peak level 93.4 % Extraction speed 15.1 X Track quality 100.0 % Test CRC 91A2A347 Copy CRC 91A2A347 Accurately ripped (confidence 4) [04E03A37] (AR v2) Copy OK
    All tracks accurately ripped
    No errors occurred
    End of status report
    ---- CUETools DB Plugin V2.1.3
    [CTDB TOCID: wwl1ivZrS8cRiO2oJNgiJnNphU8-] found, Submit result: wwl1ivZrS8cRiO2oJNgiJnNphU8- has been confirmed[0b959637] (1/1) Accurately ripped
    ==== Log checksum 915EF9CBA46269CB2B9220A21BAC9C1228A4A9C01CBE7904E1881EBC34ACB49D ====

    CD 3: Scherzos • Fantaisie • Ballades

    Exact Audio Copy V0.99 prebeta 5 from 4. May 2009
    EAC extraction logfile from 1. November 2009, 5:14
    Adam Harasiewicz / Chopin CD3
    Used drive : HL-DT-STDVDRAM GP08LU10 Adapter: 1 ID: 0
    Read mode : SecureUtilize accurate stream : YesDefeat audio cache : YesMake use of C2 pointers : No
    Read offset correction : 667Overread into Lead-In and Lead-Out : NoFill up missing offset samples with silence : YesDelete leading and trailing silent blocks : NoNull samples used in CRC calculations : YesUsed interface : Native Win32 interface for Win NT & 2000Gap handling : Appended to previous track
    Used output format : User Defined EncoderSelected bitrate : 128 kBit/sQuality : HighAdd ID3 tag : NoCommand line compressor : C:\Program Files\Exact Audio Copy\Flac\flac.exeAdditional command line options : -V -8 -T "artist=%a" -T "title=%t" -T "album=%g" -T "date=%y" -T "tracknumber=%n" -T "genre=%m" %s
    TOC of the extracted CD
    Track | Start | Length | Start sector | End sector --------------------------------------------------------- 1 | 0:00.00 | 9:09.70 | 0 | 41244 2 | 9:09.70 | 10:01.38 | 41245 | 86357 3 | 19:11.33 | 6:58.00 | 86358 | 117707 4 | 26:09.33 | 9:42.00 | 117708 | 161357 5 | 35:51.33 | 11:40.00 | 161358 | 213857 6 | 47:31.33 | 8:04.00 | 213858 | 250157 7 | 55:35.33 | 6:28.00 | 250158 | 279257 8 | 62:03.33 | 7:17.00 | 279258 | 312032 9 | 69:20.33 | 10:40.00 | 312033 | 360032
    Track 1
    Filename D:\My Music\ripping\Adam Harasiewicz - Chopin CD3\01 Scherzo No. 1 in B minor, Op. 20.wav
    Pre-gap length 0:00:02.00
    Peak level 95.5 % Track quality 100.0 % Test CRC DE0F442E Copy CRC DE0F442E Accurately ripped (confidence 2) [24A0C0C1] Copy OK
    Track 2
    Filename D:\My Music\ripping\Adam Harasiewicz - Chopin CD3\02 Scherzo No. 2 in B flat minor, Op. 31.wav
    Pre-gap length 0:00:05.00
    Peak level 96.1 % Track quality 100.0 % Test CRC 523792BC Copy CRC 523792BC Accurately ripped (confidence 2) [EF37E6D9] Copy OK
    Track 3
    Filename D:\My Music\ripping\Adam Harasiewicz - Chopin CD3\03 Scherzo No. 3 in C sharp minor, Op. 39.wav
    Pre-gap length 0:00:04.00
    Peak level 92.2 % Track quality 100.0 % Test CRC BB5E86B7 Copy CRC BB5E86B7 Accurately ripped (confidence 2) [16159EC1] Copy OK
    Track 4
    Filename D:\My Music\ripping\Adam Harasiewicz - Chopin CD3\04 Scherzo No. 4 in E major, Op. 54.wav
    Pre-gap length 0:00:05.00
    Peak level 92.4 % Track quality 100.0 % Test CRC 7A8D9A19 Copy CRC 7A8D9A19 Accurately ripped (confidence 2) [C708CF23] Copy OK
    Track 5
    Filename D:\My Music\ripping\Adam Harasiewicz - Chopin CD3\05 Fantaisie in F minor, Op. 49.wav
    Pre-gap length 0:00:05.00
    Peak level 93.2 % Track quality 99.9 % Test CRC A6435085 Copy CRC A6435085 Accurately ripped (confidence 2) [4A952859] Copy OK
    Track 6
    Filename D:\My Music\ripping\Adam Harasiewicz - Chopin CD3\06 Ballade No. 1 in G minor, Op. 23.wav
    Pre-gap length 0:00:04.00
    Peak level 91.2 % Track quality 100.0 % Test CRC 68E0B1AC Copy CRC 68E0B1AC Accurately ripped (confidence 2) [69B4B0F9] Copy OK
    Track 7
    Filename D:\My Music\ripping\Adam Harasiewicz - Chopin CD3\07 Ballade No. 2 in F major, Op. 38.wav
    Pre-gap length 0:00:05.00
    Peak level 91.2 % Track quality 100.0 % Test CRC A30A3F97 Copy CRC A30A3F97 Accurately ripped (confidence 2) [79B8CD5D] Copy OK
    Track 8
    Filename D:\My Music\ripping\Adam Harasiewicz - Chopin CD3\08 Ballade No. 3 in A flat major, Op. 47.wav
    Pre-gap length 0:00:03.00
    Peak level 88.3 % Track quality 99.9 % Test CRC 6DFB1CB9 Copy CRC 6DFB1CB9 Accurately ripped (confidence 2) [603CDB6A] Copy OK
    Track 9
    Filename D:\My Music\ripping\Adam Harasiewicz - Chopin CD3\09 Ballade No. 4 in F minor, Op. 52.wav
    Pre-gap length 0:00:03.00
    Peak level 92.0 % Track quality 99.9 % Test CRC 1B9284AB Copy CRC 1B9284AB Accurately ripped (confidence 2) [D4239D97] Copy OK
    All tracks accurately ripped
    No errors occurred
    End of status report

    CD 4: Études

    Exact Audio Copy V1.0 beta 3 from 29. August 2011
    EAC extraction logfile from 17. July 2014, 19:40
    Adam Harasiewicz / Chopin CD4
    Used drive : PLEXTOR CD-R PREMIUM2 Adapter: 0 ID: 0
    Read mode : SecureUtilize accurate stream : YesDefeat audio cache : YesMake use of C2 pointers : No
    Read offset correction : 30Overread into Lead-In and Lead-Out : YesFill up missing offset samples with silence : YesDelete leading and trailing silent blocks : NoNull samples used in CRC calculations : YesUsed interface : Native Win32 interface for Win NT & 2000Gap handling : Appended to previous track
    Used output format : User Defined EncoderSelected bitrate : 1024 kBit/sQuality : HighAdd ID3 tag : NoCommand line compressor : C:\Program Files (x86)\Exact Audio Copy\Flac\flac.exeAdditional command line options : -8 -V -T "ARTIST=%artist%" -T "TITLE=%title%" -T "ALBUM=%albumtitle%" -T "DATE=%year%" -T "TRACKNUMBER=%tracknr%" -T "GENRE=%genre%" -T "PERFORMER=%albuminterpret%" -T "COMPOSER=%composer%" %haslyrics%--tag-from-file=LYRICS="%lyricsfile%"%haslyrics% -T "ALBUMARTIST=%albumartist%" -T "ALBUM ARTIST=%albumartist%" -T "DISCNUMBER=%cdnumber%" -T "TOTALDISCS=%totalcds%" -T "TOTALTRACKS=%numtracks%" -T "COMMENT=%comment%" %source% -o %dest%
    TOC of the extracted CD
    Track | Start | Length | Start sector | End sector --------------------------------------------------------- 1 | 0:00.00 | 2:14.69 | 0 | 10118 2 | 2:14.69 | 1:28.12 | 10119 | 16730 3 | 3:43.06 | 4:12.03 | 16731 | 35633 4 | 7:55.09 | 2:09.09 | 35634 | 45317 5 | 10:04.18 | 1:41.33 | 45318 | 52925 6 | 11:45.51 | 3:39.46 | 52926 | 69396 7 | 15:25.22 | 1:34.13 | 69397 | 76459 8 | 16:59.35 | 2:31.59 | 76460 | 87843 9 | 19:31.19 | 2:13.05 | 87844 | 97823 10 | 21:44.24 | 2:16.63 | 97824 | 108086 11 | 24:01.12 | 2:26.73 | 108087 | 119109 12 | 26:28.10 | 2:44.45 | 119110 | 131454 13 | 29:12.55 | 2:59.27 | 131455 | 144906 14 | 32:12.07 | 1:36.59 | 144907 | 152165 15 | 33:48.66 | 2:01.66 | 152166 | 161306 16 | 35:50.57 | 1:35.17 | 161307 | 168448 17 | 37:25.74 | 3:39.59 | 168449 | 184932 18 | 41:05.58 | 1:52.29 | 184933 | 193361 19 | 42:58.12 | 5:34.43 | 193362 | 218454 20 | 48:32.55 | 1:21.71 | 218455 | 224600 21 | 49:54.51 | 1:03.26 | 224601 | 229351 22 | 50:58.02 | 3:51.65 | 229352 | 246741 23 | 54:49.67 | 4:06.38 | 246742 | 265229 24 | 58:56.30 | 3:10.49 | 265230 | 279528 25 | 62:07.04 | 2:06.01 | 279529 | 288979 26 | 64:13.05 | 1:34.23 | 288980 | 296052 27 | 65:47.28 | 1:35.60 | 296053 | 303237
    Track 1
    Filename D:\Music\Ripping\Chopin CD4\01 12 Etudes, Op. 10 - No. 1 in C major.wav
    Pre-gap length 0:00:02.00
    Peak level 53.2 % Extraction speed 6.7 X Track quality 100.0 % Test CRC 78827DFA Copy CRC 78827DFA Accurately ripped (confidence 5) [BD879226] (AR v2) Copy OK
    Track 2
    Filename D:\Music\Ripping\Chopin CD4\02 12 Etudes, Op. 10 - No. 2 in A minor ''chromatique''.wav
    Peak level 36.3 % Extraction speed 6.7 X Track quality 100.0 % Test CRC FF98B4AF Copy CRC FF98B4AF Accurately ripped (confidence 5) [637F02AC] (AR v2) Copy OK
    Track 3
    Filename D:\Music\Ripping\Chopin CD4\03 12 Etudes, Op. 10 - No. 3 in E major ''Tristesse''.wav
    Peak level 82.3 % Extraction speed 7.5 X Track quality 100.0 % Test CRC D0AF8860 Copy CRC D0AF8860 Accurately ripped (confidence 5) [0AECB084] (AR v2) Copy OK
    Track 4
    Filename D:\Music\Ripping\Chopin CD4\04 12 Etudes, Op. 10 - No. 4 in C sharp minor.wav
    Peak level 68.1 % Extraction speed 6.4 X Track quality 99.9 % Test CRC AACE9DD0 Copy CRC AACE9DD0 Accurately ripped (confidence 5) [1BF46EA0] (AR v2) Copy OK
    Track 5
    Filename D:\Music\Ripping\Chopin CD4\05 12 Etudes, Op. 10 - No. 5 in G flat major ''Black Keys''.wav
    Peak level 79.1 % Extraction speed 7.8 X Track quality 100.0 % Test CRC 21823921 Copy CRC 21823921 Accurately ripped (confidence 5) [AFC87765] (AR v2) Copy OK
    Track 6
    Filename D:\Music\Ripping\Chopin CD4\06 12 Etudes, Op. 10 - No. 6 in E flat minor.wav
    Peak level 50.0 % Extraction speed 8.6 X Track quality 100.0 % Test CRC C6B9F37D Copy CRC C6B9F37D Accurately ripped (confidence 5) [11AB0222] (AR v2) Copy OK
    Track 7
    Filename D:\Music\Ripping\Chopin CD4\07 12 Etudes, Op. 10 - No. 7 in C major.wav
    Peak level 57.3 % Extraction speed 8.4 X Track quality 100.0 % Test CRC 2BB5A153 Copy CRC 2BB5A153 Accurately ripped (confidence 5) [7C6D33B0] (AR v2) Copy OK
    Track 8
    Filename D:\Music\Ripping\Chopin CD4\08 12 Etudes, Op. 10 - No. 8 in F major.wav
    Peak level 54.1 % Extraction speed 8.7 X Track quality 100.0 % Test CRC F3BDAE2E Copy CRC F3BDAE2E Accurately ripped (confidence 5) [37C6159B] (AR v2) Copy OK
    Track 9
    Filename D:\Music\Ripping\Chopin CD4\09 12 Etudes, Op. 10 - No. 9 in F minor.wav
    Peak level 66.9 % Extraction speed 9.0 X Track quality 100.0 % Test CRC BF59988E Copy CRC BF59988E Accurately ripped (confidence 5) [E37FB54F] (AR v2) Copy OK
    Track 10
    Filename D:\Music\Ripping\Chopin CD4\10 12 Etudes, Op. 10 - No. 10 in A flat major.wav
    Peak level 59.4 % Extraction speed 9.0 X Track quality 100.0 % Test CRC 9207FF53 Copy CRC 9207FF53 Accurately ripped (confidence 5) [50CCBC68] (AR v2) Copy OK
    Track 11
    Filename D:\Music\Ripping\Chopin CD4\11 12 Etudes, Op. 10 - No. 11 in E flat major.wav
    Peak level 44.6 % Extraction speed 9.6 X Track quality 100.0 % Test CRC 73059F47 Copy CRC 73059F47 Accurately ripped (confidence 5) [85277642] (AR v2) Copy OK
    Track 12
    Filename D:\Music\Ripping\Chopin CD4\12 12 Etudes, Op. 10 - No. 12 in C minor ''Revolutionary''.wav
    Peak level 77.4 % Extraction speed 10.0 X Track quality 100.0 % Test CRC 779B4A55 Copy CRC 779B4A55 Accurately ripped (confidence 5) [4BB46E40] (AR v2) Copy OK
    Track 13
    Filename D:\Music\Ripping\Chopin CD4\13 12 Etudes, Op. 25 - No. 1 in A flat major ''Harp Study''.wav
    Pre-gap length 0:00:07.93
    Peak level 49.0 % Extraction speed 10.2 X Track quality 100.0 % Test CRC DDB558FB Copy CRC DDB558FB Accurately ripped (confidence 5) [103267CA] (AR v2) Copy OK
    Track 14
    Filename D:\Music\Ripping\Chopin CD4\14 12 Etudes, Op. 25 - No. 2 in F minor.wav
    Peak level 44.7 % Extraction speed 10.0 X Track quality 100.0 % Test CRC 6C76FE09 Copy CRC 6C76FE09 Accurately ripped (confidence 5) [E610721C] (AR v2) Copy OK
    Track 15
    Filename D:\Music\Ripping\Chopin CD4\15 12 Etudes, Op. 25 - No. 3 in F major.wav
    Peak level 62.2 % Extraction speed 10.4 X Track quality 100.0 % Test CRC E1F634A0 Copy CRC E1F634A0 Accurately ripped (confidence 5) [28506A6B] (AR v2) Copy OK
    Track 16
    Filename D:\Music\Ripping\Chopin CD4\16 12 Etudes, Op. 25 - No. 4 in A minor.wav
    Peak level 58.6 % Extraction speed 10.4 X Track quality 100.0 % Test CRC 20555861 Copy CRC 20555861 Accurately ripped (confidence 5) [F5025F9D] (AR v2) Copy OK
    Track 17
    Filename D:\Music\Ripping\Chopin CD4\17 12 Etudes, Op. 25 - No. 5 in E minor.wav
    Peak level 66.9 % Extraction speed 9.8 X Track quality 99.9 % Test CRC 58584900 Copy CRC 58584900 Accurately ripped (confidence 5) [27BEC8DD] (AR v2) Copy OK
    Track 18
    Filename D:\Music\Ripping\Chopin CD4\18 12 Etudes, Op. 25 - No. 6 in G sharp minor.wav
    Peak level 65.9 % Extraction speed 10.8 X Track quality 100.0 % Test CRC CD7E0B85 Copy CRC CD7E0B85 Accurately ripped (confidence 5) [6BD1831F] (AR v2) Copy OK
    Track 19
    Filename D:\Music\Ripping\Chopin CD4\19 12 Etudes, Op. 25 - No. 7 in C sharp minor.wav
    Peak level 68.8 % Extraction speed 12.1 X Track quality 100.0 % Test CRC C79D70D9 Copy CRC C79D70D9 Accurately ripped (confidence 5) [1669BBD9] (AR v2) Copy OK
    Track 20
    Filename D:\Music\Ripping\Chopin CD4\20 12 Etudes, Op. 25 - No. 8 in D flat major.wav
    Peak level 78.4 % Extraction speed 10.9 X Track quality 100.0 % Test CRC 7971D5F6 Copy CRC 7971D5F6 Accurately ripped (confidence 5) [6553353E] (AR v2) Copy OK
    Track 21
    Filename D:\Music\Ripping\Chopin CD4\21 12 Etudes, Op. 25 - No. 9 in G flat major ''Butterfly Wings''.wav
    Peak level 82.5 % Extraction speed 10.5 X Track quality 100.0 % Test CRC 01818D65 Copy CRC 01818D65 Accurately ripped (confidence 5) [70485CDD] (AR v2) Copy OK
    Track 22
    Filename D:\Music\Ripping\Chopin CD4\22 12 Etudes, Op. 25 - No. 10 in B minor.wav
    Peak level 81.1 % Extraction speed 12.2 X Track quality 100.0 % Test CRC 327F4016 Copy CRC 327F4016 Accurately ripped (confidence 5) [190B5CE5] (AR v2) Copy OK
    Track 23
    Filename D:\Music\Ripping\Chopin CD4\23 12 Etudes, Op. 25 - No. 11 in A minor ''Winter Wind''.wav
    Peak level 82.2 % Extraction speed 12.8 X Track quality 100.0 % Test CRC A0C650B3 Copy CRC A0C650B3 Accurately ripped (confidence 5) [BE81D0E5] (AR v2) Copy OK
    Track 24
    Filename D:\Music\Ripping\Chopin CD4\24 12 Etudes, Op. 25 - No. 12 in C minor.wav
    Peak level 85.1 % Extraction speed 12.1 X Track quality 100.0 % Test CRC 4DE425EA Copy CRC 4DE425EA Accurately ripped (confidence 5) [487B94AE] (AR v2) Copy OK
    Track 25
    Filename D:\Music\Ripping\Chopin CD4\25 3 Etudes, Op. posth. ''Methode des methodes'' - No. 1 in D major.wav
    Pre-gap length 0:00:07.21
    Peak level 45.4 % Extraction speed 11.9 X Track quality 100.0 % Test CRC 5025D866 Copy CRC 5025D866 Accurately ripped (confidence 5) [7A0E805E] (AR v2) Copy OK
    Track 26
    Filename D:\Music\Ripping\Chopin CD4\26 3 Etudes, Op. posth. ''Methode des methodes'' - No. 2 in G major.wav
    Peak level 73.6 % Extraction speed 11.5 X Track quality 100.0 % Test CRC FAB41DEB Copy CRC FAB41DEB Accurately ripped (confidence 5) [79C3F954] (AR v2) Copy OK
    Track 27
    Filename D:\Music\Ripping\Chopin CD4\27 3 Etudes, Op. posth. ''Methode des methodes'' - No. 3 in D flat major.wav
    Peak level 62.5 % Extraction speed 12.3 X Track quality 100.0 % Test CRC CF810CDF Copy CRC CF810CDF Accurately ripped (confidence 5) [0DD97456] (AR v2) Copy OK
    All tracks accurately ripped
    No errors occurred
    End of status report
    ---- CUETools DB Plugin V2.1.3
    [CTDB TOCID: PX_VSs3JohAJ5s_JZlew4k.1YZg-] disk not present in database, Submit result: PX_VSs3JohAJ5s_JZlew4k.1YZg- has been uploaded
    ==== Log checksum 0A8B44267D84E8056097D8D9845F2D30F0CF9B12B642EC3BC62A7C78E88CA0F4 ====

    CD 5: Polonaises • Valses

    Exact Audio Copy V0.99 prebeta 5 from 4. May 2009
    EAC extraction logfile from 1. November 2009, 6:38
    Adam Harasiewicz / Chopin CD5
    Used drive : HL-DT-STDVDRAM GP08LU10 Adapter: 1 ID: 0
    Read mode : SecureUtilize accurate stream : YesDefeat audio cache : YesMake use of C2 pointers : No
    Read offset correction : 667Overread into Lead-In and Lead-Out : NoFill up missing offset samples with silence : YesDelete leading and trailing silent blocks : NoNull samples used in CRC calculations : YesUsed interface : Native Win32 interface for Win NT & 2000Gap handling : Appended to previous track
    Used output format : User Defined EncoderSelected bitrate : 128 kBit/sQuality : HighAdd ID3 tag : NoCommand line compressor : C:\Program Files\Exact Audio Copy\Flac\flac.exeAdditional command line options : -V -8 -T "artist=%a" -T "title=%t" -T "album=%g" -T "date=%y" -T "tracknumber=%n" -T "genre=%m" %s
    TOC of the extracted CD
    Track | Start | Length | Start sector | End sector --------------------------------------------------------- 1 | 0:00.00 | 6:44.33 | 0 | 30332 2 | 6:44.33 | 6:59.00 | 30333 | 61757 3 | 13:43.33 | 5:25.00 | 61758 | 86132 4 | 19:08.33 | 6:54.00 | 86133 | 117182 5 | 26:02.33 | 9:54.00 | 117183 | 161732 6 | 35:56.33 | 6:32.00 | 161733 | 191132 7 | 42:28.33 | 12:11.00 | 191133 | 245957 8 | 54:39.33 | 5:33.00 | 245958 | 270932 9 | 60:12.33 | 7:32.00 | 270933 | 304832 10 | 67:44.33 | 6:58.00 | 304833 | 336182 11 | 74:42.33 | 2:15.00 | 336183 | 346307 12 | 76:57.33 | 1:58.00 | 346308 | 355157
    Track 1
    Filename D:\My Music\ripping\Adam Harasiewicz - Chopin CD5\01 Polonaise No. 1 in C sharp minor, Op. 26,1.wav
    Pre-gap length 0:00:02.00
    Peak level 80.8 % Track quality 99.9 % Test CRC 7D81017A Copy CRC 7D81017A Accurately ripped (confidence 2) [EDC04412] Copy OK
    Track 2
    Filename D:\My Music\ripping\Adam Harasiewicz - Chopin CD5\02 Polonaise No. 2 in E flat minor, Op. 26,2.wav
    Pre-gap length 0:00:04.00
    Peak level 88.2 % Track quality 100.0 % Test CRC 5724B72F Copy CRC 5724B72F Accurately ripped (confidence 2) [308DA3EC] Copy OK
    Track 3
    Filename D:\My Music\ripping\Adam Harasiewicz - Chopin CD5\03 Polonaise No. 3 in A major, Op. 40,1 'Military'.wav
    Pre-gap length 0:00:05.00
    Peak level 88.9 % Track quality 100.0 % Test CRC 492306C5 Copy CRC 492306C5 Accurately ripped (confidence 2) [F4167E8E] Copy OK
    Track 4
    Filename D:\My Music\ripping\Adam Harasiewicz - Chopin CD5\04 Polonaise No. 4 in C minor, Op. 40,2.wav
    Pre-gap length 0:00:04.00
    Peak level 75.7 % Track quality 100.0 % Test CRC 1B487439 Copy CRC 1B487439 Accurately ripped (confidence 2) [886306A3] Copy OK
    Track 5
    Filename D:\My Music\ripping\Adam Harasiewicz - Chopin CD5\05 Polonaise No. 5 in F sharp minor, Op. 44.wav
    Pre-gap length 0:00:05.00
    Peak level 87.8 % Track quality 100.0 % Test CRC 32D14C50 Copy CRC 32D14C50 Accurately ripped (confidence 2) [D2331FB2] Copy OK
    Track 6
    Filename D:\My Music\ripping\Adam Harasiewicz - Chopin CD5\06 Polonaise No. 6 in A flat major, Op. 53 'Heroic'.wav
    Pre-gap length 0:00:05.00
    Peak level 84.0 % Track quality 100.0 % Test CRC 62B4C928 Copy CRC 62B4C928 Accurately ripped (confidence 2) [8D3E2BBB] Copy OK
    Track 7
    Filename D:\My Music\ripping\Adam Harasiewicz - Chopin CD5\07 Poloniase No. 7 in A flat major, Op. 61 'Polonaise-Fantaisie'.wav
    Pre-gap length 0:00:05.00
    Peak level 86.2 % Track quality 100.0 % Test CRC 02F85C0A Copy CRC 02F85C0A Accurately ripped (confidence 2) [FBC1EDDC] Copy OK
    Track 8
    Filename D:\My Music\ripping\Adam Harasiewicz - Chopin CD5\08 Polonaise No. 8 in D minor, Op. 71,1.wav
    Pre-gap length 0:00:04.00
    Peak level 59.1 % Track quality 100.0 % Test CRC 8D10830B Copy CRC 8D10830B Accurately ripped (confidence 2) [BBE2C0F0] Copy OK
    Track 9
    Filename D:\My Music\ripping\Adam Harasiewicz - Chopin CD5\09 Polonaise No. 9 in B flat major, Op. 71,2.wav
    Pre-gap length 0:00:04.00
    Peak level 69.6 % Track quality 100.0 % Test CRC 74A7A590 Copy CRC 74A7A590 Accurately ripped (confidence 2) [DD5E444A] Copy OK
    Track 10
    Filename D:\My Music\ripping\Adam Harasiewicz - Chopin CD5\10 Poloniase No. 10 in F minor, Op. 71,3.wav
    Pre-gap length 0:00:04.00
    Peak level 57.3 % Track quality 100.0 % Test CRC C77E2E59 Copy CRC C77E2E59 Accurately ripped (confidence 2) [DC84111B] Copy OK
    Track 11
    Filename D:\My Music\ripping\Adam Harasiewicz - Chopin CD5\11 Waltz No. 15 in E major, Op. posth..wav
    Pre-gap length 0:00:05.00
    Peak level 53.5 % Track quality 100.0 % Test CRC 42B9997C Copy CRC 42B9997C Accurately ripped (confidence 2) [ACAE33AA] Copy OK
    Track 12
    Filename D:\My Music\ripping\Adam Harasiewicz - Chopin CD5\12 Waltz No. 16 in A flat major, Op. posth..wav
    Pre-gap length 0:00:02.00
    Peak level 48.5 % Track quality 100.0 % Test CRC ADA2CC5D Copy CRC ADA2CC5D Accurately ripped (confidence 2) [67438B5A] Copy OK
    All tracks accurately ripped
    No errors occurred
    End of status report

    CD 6: Polonaises • Valses

    Exact Audio Copy V1.0 beta 3 from 29. August 2011
    EAC extraction logfile from 17. July 2014, 20:00
    Adam Harasiewicz / Chopin CD6
    Used drive : PLEXTOR CD-R PREMIUM2 Adapter: 0 ID: 0
    Read mode : SecureUtilize accurate stream : YesDefeat audio cache : YesMake use of C2 pointers : No
    Read offset correction : 30Overread into Lead-In and Lead-Out : YesFill up missing offset samples with silence : YesDelete leading and trailing silent blocks : NoNull samples used in CRC calculations : YesUsed interface : Native Win32 interface for Win NT & 2000Gap handling : Appended to previous track
    Used output format : User Defined EncoderSelected bitrate : 1024 kBit/sQuality : HighAdd ID3 tag : NoCommand line compressor : C:\Program Files (x86)\Exact Audio Copy\Flac\flac.exeAdditional command line options : -8 -V -T "ARTIST=%artist%" -T "TITLE=%title%" -T "ALBUM=%albumtitle%" -T "DATE=%year%" -T "TRACKNUMBER=%tracknr%" -T "GENRE=%genre%" -T "PERFORMER=%albuminterpret%" -T "COMPOSER=%composer%" %haslyrics%--tag-from-file=LYRICS="%lyricsfile%"%haslyrics% -T "ALBUMARTIST=%albumartist%" -T "ALBUM ARTIST=%albumartist%" -T "DISCNUMBER=%cdnumber%" -T "TOTALDISCS=%totalcds%" -T "TOTALTRACKS=%numtracks%" -T "COMMENT=%comment%" %source% -o %dest%
    TOC of the extracted CD
    Track | Start | Length | Start sector | End sector --------------------------------------------------------- 1 | 0:00.00 | 2:57.60 | 0 | 13334 2 | 2:57.60 | 3:13.36 | 13335 | 27845 3 | 6:11.21 | 5:02.72 | 27846 | 50567 4 | 11:14.18 | 6:38.24 | 50568 | 80441 5 | 17:52.42 | 4:30.70 | 80442 | 100761 6 | 22:23.37 | 6:59.23 | 100762 | 132209 7 | 29:22.60 | 5:27.35 | 132210 | 156769 8 | 34:50.20 | 5:07.40 | 156770 | 179834 9 | 39:57.60 | 5:17.61 | 179835 | 203670 10 | 45:15.46 | 2:12.37 | 203671 | 213607 11 | 47:28.08 | 3:45.71 | 213608 | 230553 12 | 51:14.04 | 1:48.36 | 230554 | 238689 13 | 53:02.40 | 3:46.67 | 238690 | 255706 14 | 56:49.32 | 3:12.72 | 255707 | 270178 15 | 60:02.29 | 4:09.31 | 270179 | 288884 16 | 64:11.60 | 4:02.60 | 288885 | 307094 17 | 68:14.45 | 2:03.30 | 307095 | 316349 18 | 70:18.00 | 3:08.04 | 316350 | 330453 19 | 73:26.04 | 2:43.39 | 330454 | 342717 20 | 76:09.43 | 3:13.18 | 342718 | 357210
    Track 1
    Filename D:\Music\Ripping\Chopin CD6\01 Polonaise No. 11 in G minor, Op. posth..wav
    Pre-gap length 0:00:02.00
    Peak level 52.8 % Extraction speed 6.6 X Track quality 100.0 % Test CRC C6DA934D Copy CRC C6DA934D Accurately ripped (confidence 4) [A9ECEA96] (AR v2) Copy OK
    Track 2
    Filename D:\Music\Ripping\Chopin CD6\02 Polonaise No. 12 in B flat major, Op. posth..wav
    Pre-gap length 0:00:04.98
    Peak level 67.7 % Extraction speed 7.2 X Track quality 100.0 % Test CRC 4592026E Copy CRC 4592026E Accurately ripped (confidence 4) [35F32B00] (AR v2) Copy OK
    Track 3
    Filename D:\Music\Ripping\Chopin CD6\03 Polonaise No. 13 in A flat major, Op. posth..wav
    Pre-gap length 0:00:03.46
    Peak level 81.4 % Extraction speed 8.0 X Track quality 100.0 % Test CRC 8A4A9D57 Copy CRC 8A4A9D57 Accurately ripped (confidence 4) [EACDA8EC] (AR v2) Copy OK
    Track 4
    Filename D:\Music\Ripping\Chopin CD6\04 Polonaise No. 14 in G sharp minor, Op. posth..wav
    Pre-gap length 0:00:02.42
    Peak level 77.4 % Extraction speed 8.9 X Track quality 100.0 % Test CRC 9C2B2400 Copy CRC 9C2B2400 Accurately ripped (confidence 4) [B83CF50B] (AR v2) Copy OK
    Track 5
    Filename D:\Music\Ripping\Chopin CD6\05 Polonaise No. 15 in B flat minor, Op. posth..wav
    Pre-gap length 0:00:05.74
    Peak level 85.3 % Extraction speed 8.5 X Track quality 99.9 % Test CRC 28B1A20A Copy CRC 28B1A20A Accurately ripped (confidence 4) [BF8D4656] (AR v2) Copy OK
    Track 6
    Filename D:\Music\Ripping\Chopin CD6\06 Polonaise No. 16 in G flat major, Op. posth..wav
    Pre-gap length 0:00:05.68
    Peak level 95.0 % Extraction speed 9.4 X Track quality 99.9 % Test CRC 7C74053E Copy CRC 7C74053E Accurately ripped (confidence 4) [0950C504] (AR v2) Copy OK
    Track 7
    Filename D:\Music\Ripping\Chopin CD6\07 Waltz No. 1 in E flat major, Op. 18 ''Grande valse brillante''.wav
    Pre-gap length 0:00:05.98
    Peak level 80.6 % Extraction speed 10.9 X Track quality 100.0 % Test CRC 9D199D1F Copy CRC 9D199D1F Accurately ripped (confidence 4) [8647067D] (AR v2) Copy OK
    Track 8
    Filename D:\Music\Ripping\Chopin CD6\08 Waltz No. 2 in A flat major, Op. 34,1 ''Valse brillante''.wav
    Pre-gap length 0:00:01.45
    Peak level 80.3 % Extraction speed 11.4 X Track quality 100.0 % Test CRC 52E2248E Copy CRC 52E2248E Accurately ripped (confidence 4) [1E19FD89] (AR v2) Copy OK
    Track 9
    Filename D:\Music\Ripping\Chopin CD6\09 Waltz No. 3 in A minor, Op. 34,2.wav
    Pre-gap length 0:00:01.98
    Peak level 49.3 % Extraction speed 11.9 X Track quality 100.0 % Test CRC E574D06E Copy CRC E574D06E Accurately ripped (confidence 4) [3AF90315] (AR v2) Copy OK
    Track 10
    Filename D:\Music\Ripping\Chopin CD6\10 Waltz No. 4 in F major, Op. 34,3 ''Valse brillante''.wav
    Pre-gap length 0:00:01.80
    Peak level 77.6 % Extraction speed 8.9 X Track quality 99.9 % Test CRC 46C03C46 Copy CRC 46C03C46 Accurately ripped (confidence 4) [91E3A091] (AR v2) Copy OK
    Track 11
    Filename D:\Music\Ripping\Chopin CD6\11 Waltz No. 5 in A flat major, Op. 42 ''Grande valse''.wav
    Pre-gap length 0:00:03.29
    Peak level 76.8 % Extraction speed 12.3 X Track quality 100.0 % Test CRC 14AFFB54 Copy CRC 14AFFB54 Accurately ripped (confidence 4) [AD0EDEA5] (AR v2) Copy OK
    Track 12
    Filename D:\Music\Ripping\Chopin CD6\12 Waltz No. 6 in D flat major, Op. 64,1 ''Minute''.wav
    Pre-gap length 0:00:02.24
    Peak level 55.2 % Extraction speed 11.3 X Track quality 100.0 % Test CRC 6262C612 Copy CRC 6262C612 Accurately ripped (confidence 4) [10E515C9] (AR v2) Copy OK
    Track 13
    Filename D:\Music\Ripping\Chopin CD6\13 Waltz No. 7 in C sharp minor, Op. 64,2.wav
    Pre-gap length 0:00:02.72
    Peak level 41.6 % Extraction speed 11.9 X Track quality 100.0 % Test CRC 99A23428 Copy CRC 99A23428 Accurately ripped (confidence 4) [49AF3C64] (AR v2) Copy OK
    Track 14
    Filename D:\Music\Ripping\Chopin CD6\14 Waltz No. 8 in A flat major, Op. 64,3.wav
    Pre-gap length 0:00:03.61
    Peak level 59.8 % Extraction speed 12.9 X Track quality 100.0 % Test CRC 4E00062A Copy CRC 4E00062A Accurately ripped (confidence 4) [9A7BBDD5] (AR v2) Copy OK
    Track 15
    Filename D:\Music\Ripping\Chopin CD6\15 Waltz No. 9 in A flat major, Op. 69,1 ''Farewell''.wav
    Pre-gap length 0:00:01.57
    Peak level 65.7 % Extraction speed 13.4 X Track quality 100.0 % Test CRC C27876B6 Copy CRC C27876B6 Accurately ripped (confidence 4) [4E3520AC] (AR v2) Copy OK
    Track 16
    Filename D:\Music\Ripping\Chopin CD6\16 Waltz No. 10 in B minor, Op. 69,2.wav
    Pre-gap length 0:00:00.98
    Peak level 58.7 % Extraction speed 13.7 X Track quality 100.0 % Test CRC 3F245923 Copy CRC 3F245923 Accurately ripped (confidence 4) [B7B2AB27] (AR v2) Copy OK
    Track 17
    Filename D:\Music\Ripping\Chopin CD6\17 Waltz No. 11 in G flat major, Op. 70,1.wav
    Pre-gap length 0:00:01.78
    Peak level 52.9 % Extraction speed 13.0 X Track quality 100.0 % Test CRC 68A2F61B Copy CRC 68A2F61B Accurately ripped (confidence 4) [D04E227F] (AR v2) Copy OK
    Track 18
    Filename D:\Music\Ripping\Chopin CD6\18 Waltz No. 12 in F minor,A flat major, Op. 70,2.wav
    Pre-gap length 0:00:03.18
    Peak level 50.2 % Extraction speed 13.9 X Track quality 100.0 % Test CRC AD68B6C9 Copy CRC AD68B6C9 Accurately ripped (confidence 4) [1A60EC79] (AR v2) Copy OK
    Track 19
    Filename D:\Music\Ripping\Chopin CD6\19 Waltz No. 13 in D flat major, Op. 70,3.wav
    Pre-gap length 0:00:02.24
    Peak level 41.9 % Extraction speed 13.8 X Track quality 100.0 % Test CRC CBC153AB Copy CRC CBC153AB Accurately ripped (confidence 4) [1EE1F786] (AR v2) Copy OK
    Track 20
    Filename D:\Music\Ripping\Chopin CD6\20 Waltz No. 14 in E minor, Op. posth..wav
    Pre-gap length 0:00:02.76
    Peak level 75.5 % Extraction speed 15.1 X Track quality 100.0 % Test CRC 644573BE Copy CRC 644573BE Accurately ripped (confidence 4) [589ED7BF] (AR v2) Copy OK
    All tracks accurately ripped
    No errors occurred
    End of status report
    ---- CUETools DB Plugin V2.1.3
    [CTDB TOCID: KbUvsni7egrFCMuCzZulQ3BSI.M-] found, Submit result: KbUvsni7egrFCMuCzZulQ3BSI.M- has been confirmed[fac48018] (1/1) Accurately ripped
    ==== Log checksum 6D0920E813C6F2B0628C57A3E9988EBEB61B50789B0359707E30253EF74D65BB ====

    CD 7: Nocturnes

    Exact Audio Copy V0.99 prebeta 5 from 4. May 2009
    EAC extraction logfile from 1. November 2009, 13:19
    Adam Harasiewicz / Chopin CD7
    Used drive : HL-DT-STDVDRAM GP08LU10 Adapter: 1 ID: 0
    Read mode : SecureUtilize accurate stream : YesDefeat audio cache : YesMake use of C2 pointers : No
    Read offset correction : 667Overread into Lead-In and Lead-Out : NoFill up missing offset samples with silence : YesDelete leading and trailing silent blocks : NoNull samples used in CRC calculations : YesUsed interface : Native Win32 interface for Win NT & 2000Gap handling : Appended to previous track
    Used output format : User Defined EncoderSelected bitrate : 128 kBit/sQuality : HighAdd ID3 tag : NoCommand line compressor : C:\Program Files\Exact Audio Copy\Flac\flac.exeAdditional command line options : -V -8 -T "artist=%a" -T "title=%t" -T "album=%g" -T "date=%y" -T "tracknumber=%n" -T "genre=%m" %s
    TOC of the extracted CD
    Track | Start | Length | Start sector | End sector --------------------------------------------------------- 1 | 0:00.00 | 5:28.68 | 0 | 24667 2 | 5:28.68 | 4:52.38 | 24668 | 46605 3 | 10:21.31 | 5:49.14 | 46606 | 72794 4 | 16:10.45 | 4:13.31 | 72795 | 91800 5 | 20:24.01 | 3:33.19 | 91801 | 107794 6 | 23:57.20 | 4:57.34 | 107795 | 130103 7 | 28:54.54 | 4:44.51 | 130104 | 151454 8 | 33:39.30 | 5:11.65 | 151455 | 174844 9 | 38:51.20 | 4:35.22 | 174845 | 195491 10 | 43:26.42 | 4:49.74 | 195492 | 217240 11 | 48:16.41 | 5:42.72 | 217241 | 242962 12 | 53:59.38 | 5:01.00 | 242963 | 265537 13 | 59:00.38 | 5:28.57 | 265538 | 290194 14 | 64:29.20 | 6:12.23 | 290195 | 318117 15 | 70:41.43 | 4:55.53 | 318118 | 340295
    Track 1
    Filename D:\My Music\ripping\Adam Harasiewicz - Chopin CD7\01 Nocturne No. 1 in B flat minor, Op. 9,1.wav
    Pre-gap length 0:00:02.00
    Peak level 89.7 % Track quality 100.0 % Test CRC AF9B6EF0 Copy CRC AF9B6EF0 Accurately ripped (confidence 2) [732BE08F] Copy OK
    Track 2
    Filename D:\My Music\ripping\Adam Harasiewicz - Chopin CD7\02 Nocturne No. 2 in E flat major, Op. 9,2.wav
    Pre-gap length 0:00:03.62
    Peak level 74.5 % Track quality 100.0 % Test CRC 265A6692 Copy CRC 265A6692 Accurately ripped (confidence 2) [BB27882C] Copy OK
    Track 3
    Filename D:\My Music\ripping\Adam Harasiewicz - Chopin CD7\03 Nocturne No. 3 in B major, Op. 9,3.wav
    Pre-gap length 0:00:03.13
    Peak level 84.5 % Track quality 100.0 % Test CRC 81D7582F Copy CRC 81D7582F Accurately ripped (confidence 2) [2FCE8F9D] Copy OK
    Track 4
    Filename D:\My Music\ripping\Adam Harasiewicz - Chopin CD7\04 Nocturne No. 4 in F major, Op. 15,1.wav
    Pre-gap length 0:00:02.32
    Peak level 77.4 % Track quality 100.0 % Test CRC 6F861C23 Copy CRC 6F861C23 Accurately ripped (confidence 2) [5F407F9A] Copy OK
    Track 5
    Filename D:\My Music\ripping\Adam Harasiewicz - Chopin CD7\05 Nocturne No. 5 in F sharp major, Op. 15,2.wav
    Pre-gap length 0:00:02.73
    Peak level 72.0 % Track quality 100.0 % Test CRC 9C0D16CE Copy CRC 9C0D16CE Accurately ripped (confidence 2) [13297063] Copy OK
    Track 6
    Filename D:\My Music\ripping\Adam Harasiewicz - Chopin CD7\06 Nocturne No. 6 in G minor, Op. 15,3.wav
    Pre-gap length 0:00:03.98
    Peak level 83.6 % Track quality 100.0 % Test CRC E150C15F Copy CRC E150C15F Accurately ripped (confidence 2) [D5A67E7B] Copy OK
    Track 7
    Filename D:\My Music\ripping\Adam Harasiewicz - Chopin CD7\07 Nocturne No. 7 in C sharp minor, Op. 27,1.wav
    Pre-gap length 0:00:03.44
    Peak level 91.7 % Track quality 100.0 % Test CRC 6573E46B Copy CRC 6573E46B Accurately ripped (confidence 2) [CF9E7C07] Copy OK
    Track 8
    Filename D:\My Music\ripping\Adam Harasiewicz - Chopin CD7\08 Nocturne No. 8 in D flat major, Op. 27,2.wav
    Pre-gap length 0:00:02.12
    Peak level 78.7 % Track quality 100.0 % Test CRC 8F6B4C45 Copy CRC 8F6B4C45 Accurately ripped (confidence 2) [344C342C] Copy OK
    Track 9
    Filename D:\My Music\ripping\Adam Harasiewicz - Chopin CD7\09 Nocturne No. 9 in B major, Op. 32,1.wav
    Pre-gap length 0:00:01.98
    Peak level 70.1 % Track quality 99.9 % Test CRC 8AC38122 Copy CRC 8AC38122 Accurately ripped (confidence 2) [6854043E] Copy OK
    Track 10
    Filename D:\My Music\ripping\Adam Harasiewicz - Chopin CD7\10 Nocturne No. 10 in A flat major, Op. 32,2.wav
    Pre-gap length 0:00:02.28
    Peak level 89.2 % Track quality 100.0 % Test CRC F4D2E3AD Copy CRC F4D2E3AD Accurately ripped (confidence 2) [7F0FEC1A] Copy OK
    Track 11
    Filename D:\My Music\ripping\Adam Harasiewicz - Chopin CD7\11 Nocturne No. 11 in G minor, Op. 37,1.wav
    Pre-gap length 0:00:03.26
    Peak level 57.6 %
    [teatrix.ru].t9704.torrent 
    Торрент: Зарегистрирован [ 2015-10-23 17:11 ] · 522663B9A0AE29F526D835BEDBB68D311182E35E

    Скачать .torrent

    Скачать

    41 KB

    Статус: проверено
    Скачан: 0 раз
    Размер: 2.93 GB
    terms.php



  • Быстрый ответ

    Имя:

          
    Для отправки сообщений необходимо включить JavaScript
    Показать сообщения:    

    Текущее время: 09-Дек 22:24

    Часовой пояс: UTC + 3


    Вы можете начинать темы
    Вы можете отвечать на сообщения
    Вы не можете редактировать свои сообщения
    Вы не можете удалять свои сообщения
    Вы не можете голосовать в опросах
    Вы не можете прикреплять файлы к сообщениям
    Вы можете скачивать файлы