(Classical/Piano) Sviatoslav Richter - Complete Decca, Philips & DG Recordings (51 CDs) / Святослав Рихтер - Полное собрание записей Decca, Philips и Deutsche Grammophon - 2015, FLAC (tracks+.cue) lossless


Статистика раздачи [Обновить пиров]
Размер:  11.44 GB   |    Зарегистрирован:  1 год 1 месяц   |    Скачан:  0 раз

Полного источника не было: Никогда

Личеров:  1  [  0 KB/s  ]   Подробная статистика пиров
 
   
 
 
 

[Цитировать]

Sviatoslav Richter - Complete Decca, Philips & DG Recordings (51 CDs)/Святослав Рихтер - Полное собрание записей Decca, Philips и Deutsche Grammophon
Жанр: Classical/Piano
Страна-производитель диска: EU
Год издания диска: 2015
Издатель (лейбл): Decca
Номер по каталогу: 0289 478 6778 4
Аудиокодек: FLAC
Тип рипа: tracks+.cue
Битрейт аудио: lossless
Продолжительность: очень долго
Источник: скачано из сети
сайт-источник/ник/другое: www (Thanks, macropus & pippo9!)
Треклист:

скрытый текст

CD 1:
Johann Sebastian Bach (1685 - 1750)
English Suite No.3 in G minor, BWV 808
English Suite No.4 in F, BWV 809
English Suite No.6 in D minor, BWV 811
CD 2:
Johann Sebastian Bach (1685 - 1750)
French Suite No.2 in C minor, BWV 813
French Suite No.4 in E flat, BWV 815a
French Suite No.6 in E, BWV 817
Toccata in D minor, BWV 913
Toccata in G, BWV 916
Fantasia (and unfinished Fugue) in C minor, BWV 906
CD 3:
Johann Sebastian Bach (1685 - 1750)
Italian Concerto in F, BWV 971
Partita (French Overture) For Harpsichord in B Minor, BWV 831
4 Duets, BWV 802-805
CD 4:
Franz Joseph Haydn (1732 - 1809)
Piano Sonata in G Minor, Hob.XVI: 44
Piano Sonata in G Major, Hob.XVI: 40
Piano Sonata in B Flat Major, Hob. XVI: 41
Piano Sonata in C Major, Hob.XVI: 48
Piano Sonata in E Flat Major, Hob.XVI:.52
CD 5:
Franz Joseph Haydn (1732 - 1809)
Piano Sonata in B Minor, Hob.XVI: 32
Piano Sonata in D Major, Hob.XVI: 24
Piano Sonata in A Flat Major, Hob. XVI:46
Piano Sonata in B Flat, Hob.XVI: 2
CD 6:
Franz Joseph Haydn (1732 - 1809)
Piano Sonata in D Major, Hob.XVI: 24
Piano Sonata in E Flat Major, Hob.XVI:.52
Carl Maria von Weber (1786 - 1826)
Piano Sonata No.3 in D Minor, Op.49
CD 7:
Wolfgang Amadeus Mozart (1756 - 1791)
Piano Sonata No.2 In F, K.280
Piano Sonata No.13 In B Flat, K.333
Piano Sonata No.5 in G, K.283
CD 8:
Wolfgang Amadeus Mozart (1756 - 1791)
Piano Sonata No.15 in F, K.533/494
Fantasia in C minor, K.475
Piano Sonata No.14 in C minor, K.457
CD 9:
Wolfgang Amadeus Mozart (1756 - 1791)
Piano Sonata No.4 in E flat, K.282
Piano Sonata No.16 in C, K.545 "Sonata facile"
Piano Sonata No.8 in A minor, K.310
CD 10:
Ludwig van Beethoven (1770 - 1827)
Piano Sonata No.19 In G Minor, Op.49 No.1
Piano Sonata No.20 In G, Op.49 No.2
Piano Sonata No.22 in F, Op.54
Piano Sonata No.23 in F minor, Op.57 -"Appassionata"
CD 11:
Ludwig van Beethoven (1770 - 1827)
Piano Sonata No.30 in E major, Op.109
Piano Sonata No.31 in A flat major, Op.110
Piano Sonata No.32 in C minor, Op.111
CD 12:
Ludwig van Beethoven (1770 - 1827)
Piano Sonata No.9 in E, Op.14 No.1
Piano Sonata No.11 in B flat, Op.22
Piano Sonata No.12 in A flat, Op.26
Piano Sonata No.27 in E minor, Op.90
CD 13:
Ludwig van Beethoven (1770 - 1827)
Piano Sonata No.18 In E Flat, Op.31 No.3 -"The Hunt"
Rondo In C, Op.51, No.1
Rondo in G, Op.51, No.2
Piano Sonata No.28 in A, Op.101
CD 14:
Ludwig van Beethoven (1770 - 1827)
33 Piano Variations In C, Op.120 On A Waltz By Anton Diabelli
CD 15:
Franz Schubert (1797 - 1828)
Piano Sonata No.18 in G, D.894
CD 16:
Franz Schubert (1797 - 1828)
Piano Sonata No.9 In B, D.575
Piano Sonata in C, D.840
CD 17:
Frederic Chopin (1810 - 1849)
12 Etudes, Op.10
No.1 In C Major
No.2 In A Minor "chromatique"
No.3 In E Major - "Tristesse"
No.4 In C Sharp Minor
No.6 In E Flat Minor
No.10 In A Flat Major
No.11 In E Flat Major
No.12 In C Minor "Revolutionary"
12 Etudes, Op.25
No.5 In E Minor
No.6 In G Sharp Minor
No.8 In D Flat Major
No.11 In A Minor "Winter Wind"
No.12 In C Minor
No.7 In C Sharp Minor
Polonaise No.1 in C sharp minor, Op.26 No.1
Polonaise No.4 in C minor, Op.40 No.2
CD 18:
Frederic Chopin (1810 - 1849)
24 Preludes, Op.28
No.6. In B Minor
No.7. In A Major
No.8. In F Sharp Minor
No.9. In E Major
No.10. In C Sharp Minor
No.11. In B Major
No.19. In E Flat Major
No.17. In A Flat Major
No.23. In F Major
No.24. In D Minor
Barcarolle in F sharp, Op.60
Nocturne No.4 in F, Op.15 No.1
Polonaise No.7 in A flat, Op.61 "Polonaise-Fantaisie"
Franz Liszt (1811 - 1886)
Piano Sonata In B Minor, S.178
CD 19:
Franz Liszt (1811 - 1886)
Polonaise No.2 in E, S.223 No.2
Scherzo in G minor, S.153
Nuages gris, S.199
Consolation No.6, S.172 No.6, Allegretto sempre cantabile
Hungarian Rhapsody No.17 in D minor, S.244
Klavierstuck in F sharp, S.193
Mephisto Polka, S.217
Etudes d'execution tr nscendante, S.139
No.1 Prйlude (Presto)
No.2 Molto vivace
No.3 Paysage (Poco adagio)
No.5 Feux follets (Allegretto)
No.7 Eroica (Allegro)
No.8 Wilde Jagd (Presto furioso)
No.11 Harmonies du soir (Andantino)
No.10 Allegro agitato molto
3 Etudes de Concert, S.144
No. 3 in D flat "Un sospiro"
2 Etudes de Concert, S.145
No.2 Gnomenreigen
CD 20:
Johannes Brahms (1833 - 1897)
Piano Sonata No.1 in C, Op.1
Piano Sonata No.2 in F sharp minor, Op.2
CD 21:
Johannes Brahms (1833 - 1897)
Piano Sonata No.1 in C, Op.1
Piano Sonata No.2 in F sharp minor, Op.2
CD 22:
Johannes Brahms (1833 - 1897)
Variations on a Theme by Paganini, Op.35
Book 1
Book 2
6 Piano Pieces, Op.118
No.3. Ballade in G minor
4 Piano Pieces, Op.119
No.4. Rhapsody in E flat
Fantasias (7 Piano Pieces), Op.116
No.5. Intermezzo in E minor
8 Piano Pieces, Op.76
No.8. Capriccio in C
Robert Schumann (1810 - 1856)
Fantasie in C, Op.17
CD 23:
Robert Schumann (1810 - 1856)
4 Marches, Op.76
No.2. G minor
6 Concert Studies on Caprices by Paganini, Op.10
No.4. in C minor
No.5. in B minor
No.6. in E minor
Noveletten, Op.21
No.1 in F (Markiert und krдftig)
Blumenstuck, Op.19
Nachtstucke, Op.23
CD 24:
Robert Schumann (1810 - 1856)
4 Marches, Op.76
No.2. G minor
Waldszenen, Op.82
8 Fantasiestucke, Op.12
No.1. Des Abends
No.2. Aufschwung
No.3. Warum?
No.5. In der Nacht
No.7. Traumes-Wirren
No.8. Ende vom Lied
Noveletten, Op.21
No.1 in F (Markiert und kraftig)
Toccata in C, Op.7
CD 25:
Robert Schumann (1810 - 1856)
Four Fugues, Op.72
4 Marches, Op.76
No.2. G minor
Toccata in C, Op.7
Blumenstuck, Op.19
Nachtstucke, Op.23
CD 26:
Johann Sebastian Bach (1685 - 1750)
Prelude And Fugue In C (WTK, Book I, No.1), BWV 846
Prelude And Fugue In C Sharp Minor (WTK, Book I, No.4), BWV 849
Prelude And Fugue In D (WTK, Book I, No.5), BWV 850
Prelude And Fugue In D Minor (WTK, Book I, No.6), BWV 851
Prelude And Fugue In E Flat Minor / D Sharp Minor (WTK, Book I, No. 8), BWV 853
Franz Schubert (1797 - 1828)
Allegretto in C minor, D.915
Landler, D.366
Landler in A major
Robert Schumann (1810 - 1856)
Abegg Variations, Op.1
Sergey Vasil'yevich Rachmaninov (1873 - 1943)
Prelude in G sharp minor, Op.32, No.12
Sergei Prokofiev (1891 - 1953)
Visions fugitives, Op.22
No.3. Allegretto
No.6. Con eleganza
No.9. Allegretto tranquillo
CD 27:
Franz Joseph Haydn (1732 - 1809)
Piano Sonata in G Minor, Hob.XVI: 44
Frederic Chopin (1810 - 1849)
Ballade No.3 in A flat, Op.47
Claude Debussy (1862 - 1918)
Preludes - Book 1, L. 117
No.2. Voiles
No.3. Le vent dans la plaine
No.5. Les collines d'Anacapri
Sergei Prokofiev (1891 - 1953)
Piano Sonata No.8 in B flat, Op.84
CD 28:
Frederic Chopin (1810 - 1849)
Polonaise No.7 in A flat, Op.61 "Polonaise-Fantaisie"
12 Etudes, Op.10
No.1 In C Major
No.12 In C Minor "Revolutionary"
Ballade No.4 in F minor, Op.52
Claude Debussy (1862 - 1918)
Estampes, L. 100
Alexander Scriabin (1872 - 1915)
Piano Sonata No.5 in F sharp major, Op.53
Sergey Vasil'yevich Rachmaninov (1873 - 1943) 9.
Prelude in C, Op.32, No.1
Prelude in B flat minor, Op.32, No.2
Prйlude in B flat, Op.23, No.2
Prelude in D, Op.23, No.4
Prelude in G minor, Op.23, No.5
Prelude in C minor, Op.23, No.7
CD 29:
Alexander Scriabin (1872 - 1915)
Poeme-Nocturne, Op.61
2 Danses, Op.73
Vers la flamme, Op.72
Fantasy in B minor, Op.28
Sergei Prokofiev (1891 - 1953)
Piano Sonata No.4, Op.29
Piano Sonata No.6, Op.82
CD 30:
Sergei Prokofiev (1891 - 1953)
Legende, Op.12, No.6
Visions fugitives, Op.22
No.3. Allegretto
No.4. Animato
No.5. Molto giocoso
No.6. Con eleganza
No.8. Commodo
No.9. Allegretto tranquillo
No.11. Con vivacitа
No.14. Feroce
No.15. Inquieto
No.18. Con una dolce lentezza
4 Pieces, Op.32
No.1. Danza
No.4. Waltz
Six pieces from "Cinderella", Op.102
No.3. Quarrel
Three Pieces from "Cinderella", Op.95
No.2. Gavotte
Ten Pieces from "Cinderella", Op.97
No.3. Autumn Fairy
No.6. Oriental Dance
Six pieces from "Cinderella", Op.102
No.1. Waltz (Cinderella and Prince)
Dmitri Shostakovich (1906 - 1975)
Preludes and Fugues for Piano, Op.87
No.14 in E flat
No.17 in A flat
No.15 in D flat
No.4 in E minor
No.12 in G sharp minor
No.23 in F major
CD 31:
Sergei Prokofiev (1891 - 1953)
Piano Sonata No.2 in D minor, Op.14
Igor Stravinsky (1882 - 1971)
Piano Rag - Music
Dmitri Shostakovich (1906 - 1975)
Preludes and Fugues for Piano, Op.87
No.19 in E flat major
No.20 in C minor
CD 32:
Anton Webern (1883 - 1945)
Piano Variations, Op.27
Bela Bartok (1881 - 1945)
3 Burlesques, Sz47, Op.8c (BB55)
No.1. Presto
No.2. Allegretto
No.3. Molto vivo, capriccioso
Karol Szymanowski (1882 - 1937)
Metopes, Op.29
No.1. L'Ile des sirenes
No.2. Calypso
Paul Hindemith (1895 - 1963)
"1922" Suite for Piano, Op.26
No.1. March
No.2. Shimmy
No.3. Nachtstuck
No.4. Boston
No.5. Ragtime
CD 33:
Cesar Franck (1822 - 1890)
Prelude, Chorale et Fugue
Claude Debussy (1862 - 1918)
Preludes - Book 1, L. 117
No.9. La serenade interrompue
No.11. La danse de Puck
Richard Wagner (1813 - 1883)
6. Elegy In A flat
Frederic Chopin (1810 - 1849)
3 Etudes Op.posth.
No.1 in F minor
No.2 in A flat
Sergey Vasil'yevich Rachmaninov (1873 - 1943)
Etude-Tableau in F sharp minor, Op.39, No.3
Etude-Tableau in B minor, Op.39, No.4
Robert Schumann (1810 - 1856)
Toccata in C, Op.7
Franz Liszt (1811 - 1886)
Mephisto Waltz No.2, S.515
Bela Bartok (1881 - 1945)
3 Burlesques, Sz47, Op.8c (BB55)
No.1. Presto
No.2. Allegretto
No.3. Molto vivo, capriccioso
CD 34:
Sofia Recital
Modest Petrovich Mussorgsky (1839 - 1881)
"Pictures At An Exhibition"
Franz Schubert (1797 - 1828)
6 Moments musicaux, Op.94 D.780
No.1 in C (Moderato)
Impromptu in E flat, D.899 No.2
Impromptu in A flat, D.899 No.4
Frederic Chopin (1810 - 1849)
12 Etudes, Op.10
No.3 In E Major - "Tristesse"
Franz Liszt (1811 - 1886)
Valse oubliee No.2 in A flat, S.215
Valse oubliee No.1 in F sharp, S.215
12 Etudes d'execution transcendante, S.139
No.5 Feux follets (Allegretto)
No.11 Harmonies du soir (Andantino)
Sergey Vasil'yevich Rachmaninov (1873 - 1943)
Prelude in G sharp minor, Op.32, No.12
CD 35:
Ludwig van Beethoven (1770 - 1827)
Sonata for Cello and Piano No.1 in F, Op.5 No.1
Sonata for Cello and Piano No.2 in G minor, Op.5 No.2
Sonata for Cello and Piano No.3 in A, Op.69
Mstislav Rostropovich, Sviatoslav Richter
CD 36:
Ludwig van Beethoven (1770 - 1827)
Sonata for Cello and Piano No.4 in C, Op.102 No.1
Sonata for Cello and Piano No.5 in D, Op.102 No.2
Mstislav Rostropovich, Sviatoslav Richter
CD 37:
Ludwig van Beethoven (1770 - 1827)
Piano Trio No.7 in B flat, Op.97 "Archduke"
Sviatoslav Richter, Mikhail Kopelman, Valentin Berlinsky
Quintet for Piano and Wind Quartet in E flat, Op.16
Sviatoslav Richter, David Walter, Pascal Moragues, Pierre Moraguиs, Patrick Vilaire
CD 38:
Johannes Brahms (1833 - 1897)
Piano Quartet No.2 in A, Op.26
Sviatoslav Richter, Mikhail Kopelman, Dimitri Shebalin, Valentin Berlinsky
CD 39:
Antonin Dvorak (1841 - 1904)
Piano Quintet in A, Op.5
Piano Quintet in A, Op.81
Sviatoslav Richter, Borodin Quartet
CD 40:
Cesar Franck (1822 - 1890)
Piano Quintet in F minor
Sviatoslav Richter, Borodin Quartet
Franz Liszt (1811 - 1886)
Harmonies poetiques et religieuses, S.173
No. 4 Pensee des morts
No. 9 Andante lagrimoso
Ave Maria "Die Glocken von Rom", S.182
CD 41:
Benjamin Britten (1913 - 1976)
Introduction and Rondo alla burlesca, Op.23, No.1
Mazurka elegiaca, Op.23, No.2
Igor Stravinsky (1882 - 1971)
Concerto for 2 Pianos
Sviatoslav Richter, Vassili Lobanov
Bela Bartok (1881 - 1945)
Sonata for 2 Pianos and Percussion, Sz. 110
Sviatoslav Richter, Vassili Lobanov, Valery Barkov, Valentin Snegirev
CD 42:
Wolfgang Amadeus Mozart (1756 - 1791)
Piano Concerto No.20 In D Minor, K.466
Sviatoslav Richter, Warsaw National Philharmonic Orchestra, Stanislaw Wislocki
Ludwig van Beethoven (1770 - 1827)
Rondo in B flat for piano & orchestra, WoO6
Piano Concerto No.3 in C minor, Op.37
Sviatoslav Richter, Wiener Symphoniker, Kurt Sanderling
CD 43:
Robert Schumann (1810 - 1856)
Piano Concerto in A minor, Op.54
Sviatoslav Richter, Warsaw National Philharmonic Orchestra, Witold Rowicki
Introduction & Allegro Appassionato for piano & orchestra, Op.92
Sviatoslav Richter, Warsaw National Philharmonic Orchestra, Stanislaw Wislocki
Franz Liszt (1811 - 1886)
Harmonies poetiques et religieuses, S.173
No. 7 Funerailles
Fantasia on Hungarian Folk tunes, S.123
Janos Ferencsik, Sviatoslav Richter, Budapest Philharmonia Symphony Orchestra
CD 44:
Franz Liszt (1811 - 1886)
Piano Concerto No.1 in E flat, S.124
Piano Concerto No.2 in A, S.125
Sviatoslav Richter, London Symphony Orchestra, Kirill Kondrashin
Ludwig van Beethoven (1770 - 1827)
Piano Sonata No.10 in G, Op.14 No.2
Piano Sonata No.19 In G Minor, Op.49 No.1
Piano Sonata No.20 In G, Op.49 No.2
CD 45:
Pyotr Tchaikovsky (1840 - 1893)
Piano Concerto No.1 In B Flat Minor, Op.23
Sviatoslav Richter, Wiener Symphoniker, Herbert von Karajan
Sergey Vasil'yevich Rachmaninov (1873 - 1943)
Piano Concerto No.2 in C minor, Op.18
Sviatoslav Richter, Warsaw National Philharmonic Orchestra, Stanislaw Wislocki
CD 46:
Sergei Prokofiev (1891 - 1953)
Piano Concerto No.5 in G major, Op.55
Sviatoslav Richter, Warsaw National Philharmonic Orchestra, Witold Rowicki
Benjamin Britten (1913 - 1976)
Piano Concerto, Op.13
Sviatoslav Richter, English Chamber Orchestra, Benjamin Britten
CD 47:
Franz Schubert (1797 - 1828)
Winterreise, D. 911
1. Gute Nacht
2. Die Wetterfahne
3. Gefrorne Tranen
4. Erstarrung
5. Der Lindenbaum
6. Wasserflut
7. Auf dem Flusse
8. Ruckblick
9. Irrlicht
10. Rast
11. Fruhlingstraum
12. Einsamkeit
13. Die Post
14. Der greise Kopf
15. Die Krahe
16. Letzte Hoffnung
17. Im Dorfe
18. Der sturmische Morgen
19. Tauschung
20. Der Wegweiser
21. Das Wirtshaus
22. Mut
23. Die Nebensonnen
24. Der Leiermann
Peter Schreier, Sviatoslav Richter
CD 48:
Franz Schubert (1797 - 1828) Lieder
1. Des Sangers Habe D 832
2. Wehmut, D 772
3. Der Strom, D.565
4. Das Zugenglocklein D 871
5. Abendbilder, D.650
6. Auf der Donau, D.553
7. Der Schiffer, D.536
8. Totengrabers Heimwehe, D.842
9. Am Fenster, D.878, op.105, no.3
10. Die Sterne, D.939
11. Fischerweise, D.881
12. Des Freuleins Liebeslauschen D 698
13. Der Wanderer, D.649
14. Auf der Bruck, D.853 (Op.93/4)
15. Im Fruhling, D.882
16. Heliopolis II D 754
Dietrich Fischer-Dieskau, Sviatoslav Richter
CD 49:
Hugo Wolf (1860 - 1903) Wolf Lieder
Morike-Lieder
1. 1. "Der Genesene an die Hoffnung"
2. 24. "In der Fruhe"
3. 10. "Fussreise"
4. 30. "Neue Liebe"
5. 44. "Der Feuerreiter"
6. 4. "Jagerlied"
7. 48. "Storchenbotschaft"
8. 12. "Verborgenheit"
9. 13. "Im Fruhling"
10. 15. "Auf einer Wanderung"
11. 32. "An die Geliebte"
12. 33. "Peregrina I"
13. 34. "Peregrina II"
14. 36. "Lebe wohl"
15. 8. "Begegnung"
16. 40. "Der Jager"
17. 51. "Bei einer Trauung"
18. 53. "Abschied"
Dietrich Fischer-Dieskau, Sviatoslav Richter
CD 50:
Wolfgang Amadeus Mozart (1756 - 1791)
Sonata for Piano duet in C, K.521
Sonata in D Major for 2 Pianos, K.448
Franz Schubert (1797 - 1828)
Divertissement sur des motifs originaux franзais, in E minor, D.823 Andantino varie
Claude Debussy (1862 - 1918)
En blanc et noir for 2 pianos
Sviatoslav Richter, Benjamin Britten
CD 51:
Franz Schubert (1797 - 1828)
Fantasy in F minor, D. 940 (Op.103) for piano duet
Variations on a original theme, in A flat, D.813
Grand Duo Sonata in C major, D.812 (Op. posth.140)
Sviatoslav Richter, Benjamin Britten
Исполнители:
SVIATOSLAV RICHTER
Mstislav Rostropovich (CD 35,36)
Mikhail Kopelman, Valentin Berlinsky
David Walter, Pascal Moragues, Pierre Moragues, Patrick Vilaire (CD 37)
Mikhail Kopelman, Dimitri Shebalin, Valentin Berlinsky (CD 38)
Borodin Quartet (CD 39, 40)
Vassili Lobanov, Valery Barkov, Valentin Snegirev (CD 41)
Warsaw National Philharmonic Orchestra, Stanislaw Wislocki
Wiener Symphoniker, Kurt Sanderling (CD 42)
Warsaw National Philharmonic Orchestra, Witold Rowicki
Warsaw National Philharmonic Orchestra, Stanislaw Wislocki
Budapest Philharmonia Symphony Orchestra, Janos Ferencsik (CD 43)
London Symphony Orchestra, Kirill Kondrashin (CD 44)
Wiener Symphoniker, Herbert von Karajan
Warsaw National Philharmonic Orchestra, Stanislaw Wislocki (CD 45)
Warsaw National Philharmonic Orchestra, Witold Rowicki
English Chamber Orchestra, Benjamin Britten (CD 46)
Peter Schreier (CD 47)
Dietrich Fischer-Dieskau (CD 48,49)
Benjamin Britten (CD 50,51)

Лог создания рипа

ниже

Содержание индексной карты(.CUE): CDs 1-15

CD1

скрытый текст

REM GENRE Classical
REM DATE 2014
REM DISCID 12118C13
REM COMMENT "ExactAudioCopy v1.0b3"
CATALOG 0028947877332
PERFORMER "Sviatoslav Richter"
TITLE "Sviatoslav Richter Complete Decca Philips DG Recordings"
FILE "01 English Suite 3 BWV808 i Prйlude.wav" WAVE
TRACK 01 AUDIO
TITLE "English Suite 3 BWV808 i Prйlude"
PERFORMER "Sviatoslav Richter"
ISRC NLA509311401
PREGAP 00:00:33
INDEX 01 00:00:00
FILE "02 ii Allemande.wav" WAVE
TRACK 02 AUDIO
TITLE "ii Allemande"
PERFORMER "Sviatoslav Richter"
ISRC NLA509311402
INDEX 01 00:00:00
FILE "03 iii Courante.wav" WAVE
TRACK 03 AUDIO
TITLE "iii Courante"
PERFORMER "Sviatoslav Richter"
ISRC NLA509311403
INDEX 01 00:00:00
TRACK 04 AUDIO
TITLE "iv Sarabande"
PERFORMER "Sviatoslav Richter"
ISRC NLA509311404
INDEX 00 02:23:00
FILE "04 iv Sarabande.wav" WAVE
INDEX 01 00:00:00
FILE "05 v Gavotte.wav" WAVE
TRACK 05 AUDIO
TITLE "v Gavotte"
PERFORMER "Sviatoslav Richter"
ISRC NLA509311405
INDEX 01 00:00:00
FILE "06 vi Gigue.wav" WAVE
TRACK 06 AUDIO
TITLE "vi Gigue"
PERFORMER "Sviatoslav Richter"
ISRC NLA509311406
INDEX 01 00:00:00
TRACK 07 AUDIO
TITLE "English Suite 4 BWV809 i Prйlude"
PERFORMER "Sviatoslav Richter"
ISRC NLA509311407
INDEX 00 03:19:40
FILE "07 English Suite 4 BWV809 i Prйlude.wav" WAVE
INDEX 01 00:00:00
FILE "08 ii Allemande.wav" WAVE
TRACK 08 AUDIO
TITLE "ii Allemande"
PERFORMER "Sviatoslav Richter"
ISRC NLA509311408
INDEX 01 00:00:00
FILE "09 iii Courante.wav" WAVE
TRACK 09 AUDIO
TITLE "iii Courante"
PERFORMER "Sviatoslav Richter"
ISRC NLA509311409
INDEX 01 00:00:00
FILE "10 iv Sarabande.wav" WAVE
TRACK 10 AUDIO
TITLE "iv Sarabande"
PERFORMER "Sviatoslav Richter"
ISRC NLA509311410
INDEX 01 00:00:00
FILE "11 v Menuet.wav" WAVE
TRACK 11 AUDIO
TITLE "v Menuet"
PERFORMER "Sviatoslav Richter"
ISRC NLA509311411
INDEX 01 00:00:00
FILE "12 Gigue.wav" WAVE
TRACK 12 AUDIO
TITLE "Gigue"
PERFORMER "Sviatoslav Richter"
ISRC NLA509311412
INDEX 01 00:00:00
TRACK 13 AUDIO
TITLE "English Suite 6 BWV 811 i Prйlude"
PERFORMER "Sviatoslav Richter"
ISRC NLA509311413
INDEX 00 03:50:70
FILE "13 English Suite 6 BWV 811 i Prйlude.wav" WAVE
INDEX 01 00:00:00
TRACK 14 AUDIO
TITLE "ii Allemande"
PERFORMER "Sviatoslav Richter"
ISRC NLA509311414
INDEX 00 07:19:00
FILE "14 ii Allemande.wav" WAVE
INDEX 01 00:00:00
FILE "15 iii Courante.wav" WAVE
TRACK 15 AUDIO
TITLE "iii Courante"
PERFORMER "Sviatoslav Richter"
ISRC NLA509311415
INDEX 01 00:00:00
TRACK 16 AUDIO
TITLE "iv Sarabande"
PERFORMER "Sviatoslav Richter"
ISRC NLA509311416
INDEX 00 02:42:53
FILE "16 iv Sarabande.wav" WAVE
INDEX 01 00:00:00
FILE "17 v Double.wav" WAVE
TRACK 17 AUDIO
TITLE "v Double"
PERFORMER "Sviatoslav Richter"
ISRC NLA509311417
INDEX 01 00:00:00
FILE "18 vi Gavotte.wav" WAVE
TRACK 18 AUDIO
TITLE "vi Gavotte"
PERFORMER "Sviatoslav Richter"
ISRC NLA509311418
INDEX 01 00:00:00
FILE "19 vii Gigue.wav" WAVE
TRACK 19 AUDIO
TITLE "vii Gigue"
PERFORMER "Sviatoslav Richter"
ISRC NLA509311419
INDEX 01 00:00:00
CD2

скрытый текст

REM GENRE Classical
REM DATE 2014
REM DISCID 78120A19
REM COMMENT "ExactAudioCopy v1.0b3"
CATALOG 0028947877349
PERFORMER "Sviatoslav Richter"
TITLE "Sviatoslav Richter - Complete on Decca Philips DG"
FILE "01 French Suite No.2 in c, BWV 813, I.Allemande.wav" WAVE
TRACK 01 AUDIO
TITLE "French Suite No.2 in c, BWV 813, I.Allemande"
PERFORMER "Sviatoslav Richter"
ISRC NLA509311420
PREGAP 00:00:33
INDEX 01 00:00:00
FILE "02 French Suite No.2 in c, BWV 813, II.Courante.wav" WAVE
TRACK 02 AUDIO
TITLE "French Suite No.2 in c, BWV 813, II.Courante"
PERFORMER "Sviatoslav Richter"
ISRC NLA509311421
INDEX 01 00:00:00
FILE "03 French Suite No.2 in c, BWV 813, III.Sarabande.wav" WAVE
TRACK 03 AUDIO
TITLE "French Suite No.2 in c, BWV 813, III.Sarabande"
PERFORMER "Sviatoslav Richter"
ISRC NLA509311422
INDEX 01 00:00:00
FILE "04 French Suite No.2 in c, BWV 813, IV.Air.wav" WAVE
TRACK 04 AUDIO
TITLE "French Suite No.2 in c, BWV 813, IV.Air"
PERFORMER "Sviatoslav Richter"
ISRC NLA509311423
INDEX 01 00:00:00
FILE "05 French Suite No.2 in c, BWV 813, V.Menuet I,II.wav" WAVE
TRACK 05 AUDIO
TITLE "French Suite No.2 in c, BWV 813, V.Menuet I,II"
PERFORMER "Sviatoslav Richter"
ISRC NLA509311424
INDEX 01 00:00:00
FILE "06 French Suite No.2 in c, BWV 813, VI.Gigue.wav" WAVE
TRACK 06 AUDIO
TITLE "French Suite No.2 in c, BWV 813, VI.Gigue"
PERFORMER "Sviatoslav Richter"
ISRC NLA509311425
INDEX 01 00:00:00
TRACK 07 AUDIO
TITLE "French Suite No.4 in Ef, BWV 815a, I.Praeludium"
PERFORMER "Sviatoslav Richter"
ISRC NLA509311426
INDEX 00 02:17:35
FILE "07 French Suite No.4 in Ef, BWV 815a, I.Praeludium.wav" WAVE
INDEX 01 00:00:00
FILE "08 French Suite No.4 in Ef, BWV 815a, II.Allemande.wav" WAVE
TRACK 08 AUDIO
TITLE "French Suite No.4 in Ef, BWV 815a, II.Allemande"
PERFORMER "Sviatoslav Richter"
ISRC NLA509311427
INDEX 01 00:00:00
FILE "09 French Suite No.4 in Ef, BWV 815a, III.Courante.wav" WAVE
TRACK 09 AUDIO
TITLE "French Suite No.4 in Ef, BWV 815a, III.Courante"
PERFORMER "Sviatoslav Richter"
ISRC NLA509311428
INDEX 01 00:00:00
FILE "10 French Suite No.4 in Ef, BWV 815a, IV.Courante.wav" WAVE
TRACK 10 AUDIO
TITLE "French Suite No.4 in Ef, BWV 815a, IV.Courante"
PERFORMER "Sviatoslav Richter"
ISRC NLA509311429
INDEX 01 00:00:00
FILE "11 French Suite No.4 in Ef, BWV 815a, V.Gavotte I,II.wav" WAVE
TRACK 11 AUDIO
TITLE "French Suite No.4 in Ef, BWV 815a, V.Gavotte I,II"
PERFORMER "Sviatoslav Richter"
ISRC NLA509311430
INDEX 01 00:00:00
FILE "12 French Suite No.4 in Ef, BWV 815a, VI.Menuet.wav" WAVE
TRACK 12 AUDIO
TITLE "French Suite No.4 in Ef, BWV 815a, VI.Menuet"
PERFORMER "Sviatoslav Richter"
ISRC NLA509311431
INDEX 01 00:00:00
FILE "13 French Suite No.4 in Ef, BWV 815a, VII.Ai.wav" WAVE
TRACK 13 AUDIO
TITLE "French Suite No.4 in Ef, BWV 815a, VII.Ai"
PERFORMER "Sviatoslav Richter"
ISRC NLA509311432
INDEX 01 00:00:00
FILE "14 French Suite No.4 in Ef, BWV 815a, VIII.Gigue.wav" WAVE
TRACK 14 AUDIO
TITLE "French Suite No.4 in Ef, BWV 815a, VIII.Gigue "
PERFORMER "Sviatoslav Richter"
ISRC NLA509311433
INDEX 01 00:00:00
TRACK 15 AUDIO
TITLE "French Suite No.6 in E, BWV 817, I.Allemande"
PERFORMER "Sviatoslav Richter"
ISRC NLA509311434
INDEX 00 02:44:00
FILE "15 French Suite No.6 in E, BWV 817, I.Allemande.wav" WAVE
INDEX 01 00:00:00
FILE "16 French Suite No.6 in E, BWV 817, II.Courante.wav" WAVE
TRACK 16 AUDIO
TITLE "French Suite No.6 in E, BWV 817, II.Courante"
PERFORMER "Sviatoslav Richter"
ISRC NLA509311435
INDEX 01 00:00:00
FILE "17 French Suite No.6 in E, BWV 817, III.Sarabande.wav" WAVE
TRACK 17 AUDIO
TITLE "French Suite No.6 in E, BWV 817, III.Sarabande"
PERFORMER "Sviatoslav Richter"
ISRC NLA509311436
INDEX 01 00:00:00
FILE "18 French Suite No.6 in E, BWV 817, IV.Gavotte.wav" WAVE
TRACK 18 AUDIO
TITLE "French Suite No.6 in E, BWV 817, IV.Gavotte"
PERFORMER "Sviatoslav Richter"
ISRC NLA509311437
INDEX 01 00:00:00
FILE "19 French Suite No.6 in E, BWV 817, V.Polonaise.wav" WAVE
TRACK 19 AUDIO
TITLE "French Suite No.6 in E, BWV 817, V.Polonaise"
PERFORMER "Sviatoslav Richter"
ISRC NLA509311438
INDEX 01 00:00:00
FILE "20 French Suite No.6 in E, BWV 817, VI.Bourrйe.wav" WAVE
TRACK 20 AUDIO
TITLE "French Suite No.6 in E, BWV 817, VI.Bourrйe"
PERFORMER "Sviatoslav Richter"
ISRC NLA509311439
INDEX 01 00:00:00
FILE "21 French Suite No.6 in E, BWV 817, VII.Menuet.wav" WAVE
TRACK 21 AUDIO
TITLE "French Suite No.6 in E, BWV 817, VII.Menuet"
PERFORMER "Sviatoslav Richter"
ISRC NLA509311440
INDEX 01 00:00:00
FILE "22 French Suite No.6 in E, BWV 817, VIII.Gigue.wav" WAVE
TRACK 22 AUDIO
TITLE "French Suite No.6 in E, BWV 817, VIII.Gigue"
PERFORMER "Sviatoslav Richter"
ISRC NLA509311441
INDEX 01 00:00:00
TRACK 23 AUDIO
TITLE "Toccata in d, BWV 913"
PERFORMER "Sviatoslav Richter"
ISRC NLA509311442
INDEX 00 02:34:08
FILE "23 Toccata in d, BWV 913.wav" WAVE
INDEX 01 00:00:00
FILE "24 Toccate in G, BWV 916.wav" WAVE
TRACK 24 AUDIO
TITLE "Toccate in G, BWV 916 "
PERFORMER "Sviatoslav Richter"
ISRC NLA509311443
INDEX 01 00:00:00
TRACK 25 AUDIO
TITLE "Fantasia in c,BWV 906"
PERFORMER "Sviatoslav Richter"
ISRC NLA509311444
INDEX 00 07:20:50
FILE "25 Fantasia in c,BWV 906.wav" WAVE
INDEX 01 00:00:00
CD3

скрытый текст

REM GENRE Piano
REM DATE 2007
REM DISCID D20E930F
REM COMMENT "ExactAudioCopy v1.0b3"
CATALOG 0028947877356
PERFORMER "Sviatoslav Richter"
TITLE "Sviatoslav Richter Complete Decca Philips DG Recordings"
FILE "01 Italian Concerto in F, BWV 971 - 1. Allegro.wav" WAVE
TRACK 01 AUDIO
TITLE "Italian Concerto in F, BWV 971 - 1. Allegro"
PERFORMER "Sviatoslav Richter"
ISRC NLA509311445
PREGAP 00:00:33
INDEX 01 00:00:00
TRACK 02 AUDIO
TITLE "Italian Concerto in F, BWV 971- 2. Andante"
PERFORMER "Sviatoslav Richter"
ISRC NLA509311446
INDEX 00 04:00:00
FILE "02 Italian Concerto in F, BWV 971- 2. Andante.wav" WAVE
INDEX 01 00:00:00
FILE "03 Italian Concerto in F, BWV 971- 3. Presto.wav" WAVE
TRACK 03 AUDIO
TITLE "Italian Concerto in F, BWV 971- 3. Presto"
PERFORMER "Sviatoslav Richter"
ISRC NLA509311447
INDEX 01 00:00:00
FILE "04 French Overture in B minor, BWV 831 - 1. Ouverture.wav" WAVE
TRACK 04 AUDIO
TITLE "French Overture in B minor, BWV 831 - 1. Ouverture"
PERFORMER "Sviatoslav Richter"
ISRC NLA509311448
INDEX 01 00:00:00
TRACK 05 AUDIO
TITLE "French Overture in B minor, BWV 831 - 2. Courante"
PERFORMER "Sviatoslav Richter"
ISRC NLA509311449
INDEX 00 15:24:00
FILE "05 French Overture in B minor, BWV 831 - 2. Courante.wav" WAVE
INDEX 01 00:00:00
FILE "06 French Overture in B minor, BWV 831 - 3. Gavotte I - II.wav" WAVE
TRACK 06 AUDIO
TITLE "French Overture in B minor, BWV 831 - 3. Gavotte I - II"
PERFORMER "Sviatoslav Richter"
ISRC NLA509311450
INDEX 01 00:00:00
FILE "07 French Overture in B minor, BWV 831 - 4. Passepied I - II.wav" WAVE
TRACK 07 AUDIO
TITLE "French Overture in B minor, BWV 831 - 4. Passepied I - II"
PERFORMER "Sviatoslav Richter"
ISRC NLA509311451
INDEX 01 00:00:00
TRACK 08 AUDIO
TITLE "French Overture in B minor, BWV 831 - 5. Sarabande"
PERFORMER "Sviatoslav Richter"
ISRC NLA509311452
INDEX 00 03:20:43
FILE "08 French Overture in B minor, BWV 831 - 5. Sarabande.wav" WAVE
INDEX 01 00:00:00
FILE "09 French Overture in B minor, BWV 831 - 6. Bourrйe I - II.wav" WAVE
TRACK 09 AUDIO
TITLE "French Overture in B minor, BWV 831 - 6. Bourrйe I - II"
PERFORMER "Sviatoslav Richter"
ISRC NLA509311453
INDEX 01 00:00:00
FILE "10 French Overture in B minor, BWV 831 - 7. Gigue.wav" WAVE
TRACK 10 AUDIO
TITLE "French Overture in B minor, BWV 831 - 7. Gigue"
PERFORMER "Sviatoslav Richter"
ISRC NLA509311454
INDEX 01 00:00:00
FILE "11 French Overture in B minor, BWV 831 - 8. Йcho.wav" WAVE
TRACK 11 AUDIO
TITLE "French Overture in B minor, BWV 831 - 8. Йcho"
PERFORMER "Sviatoslav Richter"
ISRC NLA509311455
INDEX 01 00:00:00
FILE "12 Duetto No.1 in E minor, BWV 802.wav" WAVE
TRACK 12 AUDIO
TITLE "Duetto No.1 in E minor, BWV 802"
PERFORMER "Sviatoslav Richter"
ISRC NLA509311456
INDEX 01 00:00:00
TRACK 13 AUDIO
TITLE "Duetto No.2 in F major, BWV 803"
PERFORMER "Sviatoslav Richter"
ISRC NLA509311457
INDEX 00 02:39:00
FILE "13 Duetto No.2 in F major, BWV 803.wav" WAVE
INDEX 01 00:00:00
TRACK 14 AUDIO
TITLE "Duetto No.3 in G major, BWV 804"
PERFORMER "Sviatoslav Richter"
ISRC NLA509311458
INDEX 00 03:05:00
FILE "14 Duetto No.3 in G major, BWV 804.wav" WAVE
INDEX 01 00:00:00
TRACK 15 AUDIO
TITLE "Duetto No.4 in A minor, BWV 805"
PERFORMER "Sviatoslav Richter"
ISRC NLA509311459
INDEX 00 02:21:00
FILE "15 Duetto No.4 in A minor, BWV 805.wav" WAVE
INDEX 01 00:00:00
CD4

скрытый текст

REM GENRE Classical
REM DATE 2014
REM DISCID 8A0FD90B
REM COMMENT "ExactAudioCopy v1.0b3"
CATALOG 0028947877363
PERFORMER "Sviatoslav Richter"
TITLE "Sviatoslav Richter Complete Decca Philips DG Recordings"
FILE "01 01 Sonata in G minor, Hob. XVI44 I. Moderato.wav" WAVE
TRACK 01 AUDIO
TITLE "01 Sonata in G minor, Hob. XVI44 I. Moderato"
PERFORMER "Sviatoslav Richter"
ISRC GBF078742301
PREGAP 00:00:32
INDEX 01 00:00:00
FILE "02 02 Sonata in G minor, Hob. XVI44 II. Allegretto.wav" WAVE
TRACK 02 AUDIO
TITLE "02 Sonata in G minor, Hob. XVI44 II. Allegretto"
PERFORMER "Sviatoslav Richter"
ISRC GBF078742302
INDEX 01 00:00:00
TRACK 03 AUDIO
TITLE "03 Sonata in G major, Hob. XVI40 I. Allegretto e innocente"
PERFORMER "Sviatoslav Richter"
ISRC GBF078742303
INDEX 00 03:39:00
FILE "03 03 Sonata in G major, Hob. XVI40 I. Allegretto e innocente.wav" WAVE
INDEX 01 00:00:00
FILE "04 04 Sonata in G major, Hob. XVI_40 II. Presto.wav" WAVE
TRACK 04 AUDIO
TITLE "04 Sonata in G major, Hob. XVI_40 II. Presto"
PERFORMER "Sviatoslav Richter"
ISRC GBF078742304
INDEX 01 00:00:00
TRACK 05 AUDIO
TITLE "05 Sonata in B-flat major, Hob. XVI_41 I. Allegro"
PERFORMER "Sviatoslav Richter"
ISRC GBF078742305
INDEX 00 03:04:50
FILE "05 05 Sonata in B-flat major, Hob. XVI_41 I. Allegro.wav" WAVE
INDEX 01 00:00:00
FILE "06 06 Sonata in B-flat major, Hob. XVI_41 II. Allegro di molto.wav" WAVE
TRACK 06 AUDIO
TITLE "06 Sonata in B-flat major, Hob. XVI_41 II. Allegro di molto"
PERFORMER "Sviatoslav Richter"
ISRC GBF078742306
INDEX 01 00:00:00
TRACK 07 AUDIO
TITLE "07 Sonata in C major, Hob. XVI_48 I. Andante con espressione"
PERFORMER "Sviatoslav Richter"
ISRC GBF078742307
INDEX 00 02:27:45
FILE "07 07 Sonata in C major, Hob. XVI_48 I. Andante con espressione.wav" WAVE
INDEX 01 00:00:00
FILE "08 08 Sonata in C major, Hob. XVI_48 II. Rondo Presto.wav" WAVE
TRACK 08 AUDIO
TITLE "08 Sonata in C major, Hob. XVI_48 II. Rondo Presto"
PERFORMER "Sviatoslav Richter"
ISRC GBF078742308
INDEX 01 00:00:00
TRACK 09 AUDIO
TITLE "09 Sonata in E-flat major, Hob. XVI_52 I. Allegro"
PERFORMER "Sviatoslav Richter"
ISRC GBF078742309
INDEX 00 03:41:72
FILE "09 09 Sonata in E-flat major, Hob. XVI_52 I. Allegro.wav" WAVE
INDEX 01 00:00:00
TRACK 10 AUDIO
TITLE "10 Sonata in E-flat major, Hob. XVI_52 II. Adagio"
PERFORMER "Sviatoslav Richter"
ISRC GBF078742310
INDEX 00 08:17:52
FILE "10 10 Sonata in E-flat major, Hob. XVI_52 II. Adagio.wav" WAVE
INDEX 01 00:00:00
FILE "11 11 Sonata in E-flat major, Hob. XVI_52 III. Presto.wav" WAVE
TRACK 11 AUDIO
TITLE "11 Sonata in E-flat major, Hob. XVI_52 III. Presto"
PERFORMER "Sviatoslav Richter"
ISRC GBF078742311
INDEX 01 00:00:00
CD5

скрытый текст

REM GENRE Classical
REM DATE 2014
REM DISCID CB119C0C
REM COMMENT "ExactAudioCopy v1.0b3"
CATALOG 0028947877370
PERFORMER "Sviatoslav Richter"
TITLE "Sviatoslav Richter Complete Decca Philips DG Recordings"
FILE "01 Sonata in B minor - 32 - Allegro Moderato.wav" WAVE
TRACK 01 AUDIO
TITLE "Sonata in B minor - 32 - Allegro Moderato"
PERFORMER "Sviatoslav Richter"
ISRC GBF078641801
PREGAP 00:00:33
INDEX 01 00:00:00
FILE "02 Sonata in B minor - 32 - Menuet.wav" WAVE
TRACK 02 AUDIO
TITLE "Sonata in B minor - 32 - Menuet"
PERFORMER "Sviatoslav Richter"
ISRC GBF078641802
INDEX 01 00:00:00
FILE "03 Sonata in B minor - 32 - Finale- Presto.wav" WAVE
TRACK 03 AUDIO
TITLE "Sonata in B minor - 32 - Finale: Presto"
PERFORMER "Sviatoslav Richter"
ISRC GBF078641803
INDEX 01 00:00:00
FILE "04 Sonata in D minor - 24 - Allegro.wav" WAVE
TRACK 04 AUDIO
TITLE "Sonata in D minor - 24 - Allegro"
PERFORMER "Sviatoslav Richter"
ISRC GBF078641804
INDEX 01 00:00:00
TRACK 05 AUDIO
TITLE "Sonata in D minor - 24 - Adagio"
PERFORMER "Sviatoslav Richter"
ISRC GBF078641805
INDEX 00 07:04:50
FILE "05 Sonata in D minor - 24 - Adagio.wav" WAVE
INDEX 01 00:00:00
FILE "06 Sonata in D minor - 24 - Finale- Presto.wav" WAVE
TRACK 06 AUDIO
TITLE "Sonata in D minor - 24 - Finale: Presto"
PERFORMER "Sviatoslav Richter"
ISRC GBF078641806
INDEX 01 00:00:00
FILE "07 Sonata in A flat major - 46 - Allegro Moderato.wav" WAVE
TRACK 07 AUDIO
TITLE "Sonata in A flat major - 46 - Allegro Moderato"
PERFORMER "Sviatoslav Richter"
ISRC GBF078641807
INDEX 01 00:00:00
FILE "08 Sonata in A flat major - 46 - Adagio.wav" WAVE
TRACK 08 AUDIO
TITLE "Sonata in A flat major - 46 - Adagio"
PERFORMER "Sviatoslav Richter"
ISRC GBF078641808
INDEX 01 00:00:00
TRACK 09 AUDIO
TITLE "Sonata in A flat major - 46 - Finale: Presto"
PERFORMER "Sviatoslav Richter"
ISRC GBF078641809
INDEX 00 13:04:38
FILE "09 Sonata in A flat major - 46 - Finale- Presto.wav" WAVE
INDEX 01 00:00:00
FILE "10 Sonata in B flat major - 2 - Moderato.wav" WAVE
TRACK 10 AUDIO
TITLE "Sonata in B flat major - 2 - Moderato"
PERFORMER "Sviatoslav Richter"
ISRC GBF078641810
INDEX 01 00:00:00
TRACK 11 AUDIO
TITLE "Sonata in B flat major - 2 - Largo"
PERFORMER "Sviatoslav Richter"
ISRC GBF078641811
INDEX 00 06:14:50
FILE "11 Sonata in B flat major - 2 - Largo.wav" WAVE
INDEX 01 00:00:00
TRACK 12 AUDIO
TITLE "Sonata in B flat major - 2 - Menuet"
PERFORMER "Sviatoslav Richter"
ISRC GBF078641812
INDEX 00 04:50:70
FILE "12 Sonata in B flat major - 2 - Menuet.wav" WAVE
INDEX 01 00:00:00
CD6

скрытый текст

REM GENRE Classical
REM DATE 2014
REM DISCID 7B0D8209
REM COMMENT "ExactAudioCopy v1.0b3"
CATALOG 0028947877387
PERFORMER "Sviatoslav Richter"
TITLE "Richter - The Master, Vol. 6 - Haydn, Beethoven, Weber [Disc 1]"
FILE "01 Haydn- Piano Sonata in D, Hob. XVI-24 - 1. Allegro.wav" WAVE
TRACK 01 AUDIO
TITLE "Haydn: Piano Sonata in D, Hob. XVI:24 - 1. Allegro"
PERFORMER "Sviatoslav Richter"
ISRC NLA509311501
PREGAP 00:00:33
INDEX 01 00:00:00
TRACK 02 AUDIO
TITLE "Haydn: Piano Sonata in D, Hob. XVI:24 - 2. Adagio"
PERFORMER "Sviatoslav Richter"
ISRC NLA509311502
INDEX 00 07:11:00
FILE "02 Haydn- Piano Sonata in D, Hob. XVI-24 - 2. Adagio.wav" WAVE
INDEX 01 00:00:00
FILE "03 Haydn- Piano Sonata in D, Hob. XVI-24 - 3. Finale. Presto.wav" WAVE
TRACK 03 AUDIO
TITLE "Haydn: Piano Sonata in D, Hob. XVI:24 - 3. Finale. Presto"
PERFORMER "Sviatoslav Richter"
ISRC NLA509311503
INDEX 01 00:00:00
FILE "04 Haydn- Piano Sonata in E flat, Hob. XVI-52 - 1. Allegro.wav" WAVE
TRACK 04 AUDIO
TITLE "Haydn: Piano Sonata in E flat, Hob. XVI:52 - 1. Allegro"
PERFORMER "Sviatoslav Richter"
ISRC NLA509311504
INDEX 01 00:00:00
TRACK 05 AUDIO
TITLE "Haydn: Piano Sonata in E flat, Hob. XVI:52 - 2. Adagio"
PERFORMER "Sviatoslav Richter"
ISRC NLA509311505
INDEX 00 07:41:00
FILE "05 Haydn- Piano Sonata in E flat, Hob. XVI-52 - 2. Adagio.wav" WAVE
INDEX 01 00:00:00
FILE "06 Haydn- Piano Sonata in E flat, Hob. XVI-52 - 3. Finale. Presto.wav" WAVE
TRACK 06 AUDIO
TITLE "Haydn: Piano Sonata in E flat, Hob. XVI:52 - 3. Finale. Presto"
PERFORMER "Sviatoslav Richter"
ISRC NLA509311506
INDEX 01 00:00:00
TRACK 07 AUDIO
TITLE "Weber: Piano Sonata No.3 in D minor, op.49 - 1. Allegro feroce"
PERFORMER "Sviatoslav Richter"
ISRC NLA509311507
INDEX 00 05:15:50
FILE "07 Weber- Piano Sonata No.3 in D minor, op.49 - 1. Allegro feroce.wav" WAVE
INDEX 01 00:00:00
TRACK 08 AUDIO
TITLE "Weber: Piano Sonata No.3 in D minor, op.49 - 2. Andante con moto"
PERFORMER "Sviatoslav Richter"
ISRC NLA509311508
INDEX 00 11:17:00
FILE "08 Weber- Piano Sonata No.3 in D minor, op.49 - 2. Andante con moto.wav" WAVE
INDEX 01 00:00:00
FILE "09 Weber- Piano Sonata No.3 in D minor, op.49 - 3. Rondo. Presto.wav" WAVE
TRACK 09 AUDIO
TITLE "Weber: Piano Sonata No.3 in D minor, op.49 - 3. Rondo. Presto"
PERFORMER "Sviatoslav Richter"
ISRC NLA509311509
INDEX 01 00:00:00
CD7

скрытый текст

REM GENRE Classical
REM DATE 2014
REM DISCID 790FE909
REM COMMENT "ExactAudioCopy v1.0b3"
CATALOG 0028947877394
PERFORMER "Sviatoslav Richter"
TITLE "Sviatoslav Richter Complete Decca Philips DG Recordings"
FILE "01 Piano Sonata in F major, K280 - 1. Allegro assai.wav" WAVE
TRACK 01 AUDIO
TITLE "Piano Sonata in F major, K280 - 1. Allegro assai"
PERFORMER "Sviatoslav Richter"
ISRC NLA509311101
PREGAP 00:00:32
INDEX 01 00:00:00
FILE "02 Piano Sonata in F major, K280 - 2. Adagio.wav" WAVE
TRACK 02 AUDIO
TITLE "Piano Sonata in F major, K280 - 2. Adagio"
PERFORMER "Sviatoslav Richter"
ISRC NLA509311102
INDEX 01 00:00:00
FILE "03 Piano Sonata in F major, K280 - 3. Presto.wav" WAVE
TRACK 03 AUDIO
TITLE "Piano Sonata in F major, K280 - 3. Presto"
PERFORMER "Sviatoslav Richter"
ISRC NLA509311103
INDEX 01 00:00:00
TRACK 04 AUDIO
TITLE "Piano Sonata in B-flat major, K333 - 1. Allegro"
PERFORMER "Sviatoslav Richter"
ISRC NLA509311104
INDEX 00 03:30:00
FILE "04 Piano Sonata in B-flat major, K333 - 1. Allegro.wav" WAVE
INDEX 01 00:00:00
FILE "05 Piano Sonata in B-flat major, K333 - 2. Andante cantabile.wav" WAVE
TRACK 05 AUDIO
TITLE "Piano Sonata in B-flat major, K333 - 2. Andante cantabile"
PERFORMER "Sviatoslav Richter"
ISRC NLA509311105
INDEX 01 00:00:00
FILE "06 Piano Sonata in B-flat major, K333 - 3. Allegretto grazioso.wav" WAVE
TRACK 06 AUDIO
TITLE "Piano Sonata in B-flat major, K333 - 3. Allegretto grazioso"
PERFORMER "Sviatoslav Richter"
ISRC NLA509311106
INDEX 01 00:00:00
TRACK 07 AUDIO
TITLE "Piano Sonata in G major, K283 - 1. Allegro"
PERFORMER "Sviatoslav Richter"
ISRC NLA509311107
INDEX 00 06:29:37
FILE "07 Piano Sonata in G major, K283 - 1. Allegro.wav" WAVE
INDEX 01 00:00:00
FILE "08 Piano Sonata in G major, K283 - 2. Andante.wav" WAVE
TRACK 08 AUDIO
TITLE "Piano Sonata in G major, K283 - 2. Andante"
PERFORMER "Sviatoslav Richter"
ISRC NLA509311108
INDEX 01 00:00:00
FILE "09 Piano Sonata in G major, K283 - 3. Presto.wav" WAVE
TRACK 09 AUDIO
TITLE "Piano Sonata in G major, K283 - 3. Presto"
PERFORMER "Sviatoslav Richter"
ISRC NLA509311109
INDEX 01 00:00:00
CD8

скрытый текст

REM GENRE Classical
REM DATE 2014
REM DISCID 79102F07
REM COMMENT "ExactAudioCopy v1.0b3"
CATALOG 0028947877400
PERFORMER "Sviatoslav Richter"
TITLE " Sviatoslav Richter Complete Decca Philips DG Recordings"
FILE "01 Sonata No.15 in F, K.533,494 i Allegro.wav" WAVE
TRACK 01 AUDIO
TITLE "Sonata No.15 in F, K.533/494 i Allegro"
PERFORMER "Sviatoslav Richter"
ISRC NLA509311110
INDEX 01 00:00:00
FILE "02 ii Andante.wav" WAVE
TRACK 02 AUDIO
TITLE "ii Andante"
PERFORMER "Sviatoslav Richter"
ISRC NLA509311111
INDEX 01 00:00:00
FILE "03 iii Rondo.wav" WAVE
TRACK 03 AUDIO
TITLE "iii Rondo"
PERFORMER "Sviatoslav Richter"
ISRC NLA509311112
INDEX 01 00:00:00
TRACK 04 AUDIO
TITLE "Fantasia in C minor, K.475"
PERFORMER "Sviatoslav Richter"
ISRC NLA509311114
INDEX 00 06:10:06
FILE "04 Fantasia in C minor, K.475.wav" WAVE
INDEX 01 00:00:00
TRACK 05 AUDIO
TITLE "Piano Sonata No.14 in C minor, K.457 i Molto allegro"
PERFORMER "Sviatoslav Richter"
ISRC NLA509311115
INDEX 00 14:08:26
FILE "05 Piano Sonata No.14 in C minor, K.457 i Molto allegro.wav" WAVE
INDEX 01 00:00:00
FILE "06 Adagio.wav" WAVE
TRACK 06 AUDIO
TITLE "Adagio"
PERFORMER "Sviatoslav Richter"
ISRC NLA509311116
INDEX 01 00:00:00
FILE "07 Allegro assai.wav" WAVE
TRACK 07 AUDIO
TITLE "Allegro assai"
PERFORMER "Sviatoslav Richter"
ISRC NLA509318540
INDEX 01 00:00:00
CD9

скрытый текст

REM GENRE Classical
REM DATE 2014
REM DISCID 6E0B4109
REM COMMENT "ExactAudioCopy v1.0b3"
CATALOG 0028947877417
PERFORMER "Sviatoslav Richter"
TITLE "Sviatoslav Richter Complete Decca Philips DG Recordings"
FILE "01 Sonata in E flat, K.282:I. Adagio.wav" WAVE
TRACK 01 AUDIO
TITLE "Sonata in E flat, K.282:I. Adagio"
PERFORMER "Sviatoslav Richter"
ISRC NLA509800201
PREGAP 00:00:33
INDEX 01 00:00:00
FILE "02 Sonata in E flat, K.282:II. Menuetto I–II.wav" WAVE
TRACK 02 AUDIO
TITLE "Sonata in E flat, K.282:II. Menuetto I–II"
PERFORMER "Sviatoslav Richter"
ISRC NLA509800202
INDEX 01 00:00:00
FILE "03 Sonata in E flat, K.282:III. Allegro.wav" WAVE
TRACK 03 AUDIO
TITLE "Sonata in E flat, K.282:III. Allegro"
PERFORMER "Sviatoslav Richter"
ISRC NLA509800203
INDEX 01 00:00:00
TRACK 04 AUDIO
TITLE "Sonata in C, K.545“Sonata facile”:I. Allegro"
PERFORMER "Sviatoslav Richter"
ISRC NLA509800204
INDEX 00 03:25:25
FILE "04 Sonata in C, K.545“Sonata facile”:I. Allegro.wav" WAVE
INDEX 01 00:00:00
TRACK 05 AUDIO
TITLE "Sonata in C, K.545“Sonata facile”:II. Andante"
PERFORMER "Sviatoslav Richter"
ISRC NLA509800205
INDEX 00 04:50:00
FILE "05 Sonata in C, K.545“Sonata facile”:II. Andante.wav" WAVE
INDEX 01 00:00:00
FILE "06 Sonata in C, K.545“Sonata facile”:III. Rondo(Allegretto).wav" WAVE
TRACK 06 AUDIO
TITLE "Sonata in C, K.545“Sonata facile”:III. Rondo(Allegretto)"
PERFORMER "Sviatoslav Richter"
ISRC NLA509800206
INDEX 01 00:00:00
TRACK 07 AUDIO
TITLE "Sonata in A minor, K.310:I. Allegro maestoso"
PERFORMER "Sviatoslav Richter"
ISRC NLA509800207
INDEX 00 01:49:00
FILE "07 Sonata in A minor, K.310:I. Allegro maestoso.wav" WAVE
INDEX 01 00:00:00
TRACK 08 AUDIO
TITLE "Sonata in A minor, K.310:II. Andante cantabile con espressione"
PERFORMER "Sviatoslav Richter"
ISRC NLA509800208
INDEX 00 08:58:00
FILE "08 Sonata in A minor, K.310:II. Andante cantabile con espressione.wav" WAVE
INDEX 01 00:00:00
FILE "09 Sonata in A minor, K.310:III. Presto.wav" WAVE
TRACK 09 AUDIO
TITLE "Sonata in A minor, K.310:III. Presto"
PERFORMER "Sviatoslav Richter"
ISRC NLA509800209
INDEX 01 00:00:00
CD10

скрытый текст

REM GENRE Classical
REM DATE 2014
REM DISCID 790D8909
REM COMMENT "ExactAudioCopy v1.0b3"
CATALOG 0028947877424
PERFORMER "Sviatoslav Richter"
TITLE "Ludwig van Beethoven - Klaviersonaten Nrr. 19, 20, 22,23 (CD 1)"
FILE "01 Sonata No.19 in G minor, op. 49 No. 1 - Andante.wav" WAVE
TRACK 01 AUDIO
TITLE "Sonata No.19 in G minor, op. 49 No. 1 - Andante"
PERFORMER "Sviatoslav Richter"
ISRC NLA509311301
PREGAP 00:00:33
INDEX 01 00:00:00
FILE "02 Sonata No.19 in G minor, op. 49 No. 1 - Rondт. Allegro.wav" WAVE
TRACK 02 AUDIO
TITLE "Sonata No.19 in G minor, op. 49 No. 1 - Rondт. Allegro"
PERFORMER "Sviatoslav Richter"
ISRC NLA509311302
INDEX 01 00:00:00
TRACK 03 AUDIO
TITLE "Sonata No.20 in G, op. 49 No. 2 - Allegro ma non troppo"
PERFORMER "Sviatoslav Richter"
ISRC NLA509311303
INDEX 00 03:42:10
FILE "03 Sonata No.20 in G, op. 49 No. 2 - Allegro ma non troppo.wav" WAVE
INDEX 01 00:00:00
FILE "04 Sonata No.20 in G, op. 49 No. 2 - Tempo di Menuetto.wav" WAVE
TRACK 04 AUDIO
TITLE "Sonata No.20 in G, op. 49 No. 2 - Tempo di Menuetto"
PERFORMER "Sviatoslav Richter"
ISRC NLA509311304
INDEX 01 00:00:00
FILE "05 Sonata No.22 in F, op. 54 - In tempo d'un menuetto.wav" WAVE
TRACK 05 AUDIO
TITLE "Sonata No.22 in F, op. 54 - In tempo d'un menuetto"
PERFORMER "Sviatoslav Richter"
ISRC NLA509311305
INDEX 01 00:00:00
FILE "06 Sonata No.22 in F, op. 54 - Allegretto.wav" WAVE
TRACK 06 AUDIO
TITLE "Sonata No.22 in F, op. 54 - Allegretto"
PERFORMER "Sviatoslav Richter"
ISRC NLA509311306
INDEX 01 00:00:00
FILE "07 Sonata No.23 in F minor, op. 57 ''Appassionata'' - Allegro assai.wav" WAVE
TRACK 07 AUDIO
TITLE "Sonata No.23 in F minor, op. 57 'Appassionata' - Allegro assai"
PERFORMER "Sviatoslav Richter"
ISRC NLA509311307
INDEX 01 00:00:00
TRACK 08 AUDIO
TITLE "Sonata No.23 in F minor, op. 57 'Appassionata' - Andante con moto"
PERFORMER "Sviatoslav Richter"
ISRC NLA509311308
INDEX 00 11:39:39
FILE "08 Sonata No.23 in F minor, op. 57 ''Appassionata'' - Andante con moto.wav" WAVE
INDEX 01 00:00:00
FILE "09 Sonata No.23 in F minor, op. 57 ''Appassionata'' - Allegro ma non troppo.wav" WAVE
TRACK 09 AUDIO
TITLE "Sonata No.23 in F minor, op. 57 'Appassionata' - Allegro ma non troppo"
PERFORMER "Sviatoslav Richter"
ISRC NLA509311309
INDEX 01 00:00:00
CD11

скрытый текст

REM GENRE Classical
REM DATE 2014
REM DISCID 8E0F2C0A
REM COMMENT "ExactAudioCopy v1.0b3"
CATALOG 0028947877431
PERFORMER "Sviatoslav Richter"
TITLE "Sviatoslav Richter Complete Decca Philips DG Recordings"
FILE "01 Sonata nr. 30 in E, op. 109- Vivace, Adagio espressivo, Tempo I.wav" WAVE
TRACK 01 AUDIO
TITLE "Sonata nr. 30 in E, op. 109: Vivace, Adagio espressivo, Tempo I"
PERFORMER "Sviatoslav Richter"
ISRC NLA509311310
PREGAP 00:00:33
INDEX 01 00:00:00
FILE "02 Sonata nr. 30 in E, op. 109- Prestissimo.wav" WAVE
TRACK 02 AUDIO
TITLE "Sonata nr. 30 in E, op. 109: Prestissimo"
PERFORMER "Sviatoslav Richter"
ISRC NLA509311311
INDEX 01 00:00:00
TRACK 03 AUDIO
TITLE "Sonata nr. 30 in E, op. 109: Andante molto cantabile ed espressivo"
PERFORMER "Sviatoslav Richter"
ISRC NLA509311312
INDEX 00 02:34:28
FILE "03 Sonata nr. 30 in E, op. 109- Andante molto cantabile ed espressivo.wav" WAVE
INDEX 01 00:00:00
TRACK 04 AUDIO
TITLE "Sonata nr. 31 in A flat, op. 110: Moderato cantabile molto espressivo"
PERFORMER "Sviatoslav Richter"
ISRC NLA509311313
INDEX 00 12:10:00
FILE "04 Sonata nr. 31 in A flat, op. 110- Moderato cantabile molto espressivo.wav" WAVE
INDEX 01 00:00:00
TRACK 05 AUDIO
TITLE "Sonata nr. 31 in A flat, op. 110: Allegro molto"
PERFORMER "Sviatoslav Richter"
ISRC NLA509311314
INDEX 00 06:22:00
FILE "05 Sonata nr. 31 in A flat, op. 110- Allegro molto.wav" WAVE
INDEX 01 00:00:00
TRACK 06 AUDIO
TITLE "Sonata nr. 31 in A flat, op. 110: Adagio ma non troppo"
PERFORMER "Sviatoslav Richter"
ISRC NLA509311315
INDEX 00 02:48:00
FILE "06 Sonata nr. 31 in A flat, op. 110- Adagio ma non troppo.wav" WAVE
INDEX 01 00:00:00
FILE "07 Sonata nr. 31 in A flat, op. 110- Fuga, Allegro ma non troppo.wav" WAVE
TRACK 07 AUDIO
TITLE "Sonata nr. 31 in A flat, op. 110: Fuga, Allegro ma non troppo"
PERFORMER "Sviatoslav Richter"
ISRC NLA509311316
INDEX 01 00:00:00
TRACK 08 AUDIO
TITLE "Sonata nr. 32 in C minor, op. 111: Maestoso"
PERFORMER "Sviatoslav Richter"
ISRC NLA509311317
INDEX 00 07:31:25
FILE "08 Sonata nr. 32 in C minor, op. 111- Maestoso.wav" WAVE
INDEX 01 00:00:00
FILE "09 Sonata nr. 32 in C minor, op. 111- Allegro con brio ed appassionato.wav" WAVE
TRACK 09 AUDIO
TITLE "Sonata nr. 32 in C minor, op. 111: Allegro con brio ed appassionato"
PERFORMER "Sviatoslav Richter"
ISRC NLA509311318
INDEX 01 00:00:00
TRACK 10 AUDIO
TITLE "Sonata nr. 32 in C minor, op. 111: Arietta, Adagio molto semplice e cantabile"
PERFORMER "Sviatoslav Richter"
ISRC NLA509311319
INDEX 00 07:09:05
FILE "10 Sonata nr. 32 in C minor, op. 111- Arietta, Adagio molto semplice e cantabile.wav" WAVE
INDEX 01 00:00:00
CD12

скрытый текст

REM GENRE Classical
REM DATE 2014
REM DISCID 9F113E0D
REM COMMENT "ExactAudioCopy v1.0b3"
CATALOG 0028947877448
PERFORMER "Sviatoslav Richter"
TITLE "Sviatoslav Richter Complete Decca Philips DG Recordings"
FILE "01 Sonata No.9 in E, op.14 no.1 - 1. Allegro.wav" WAVE
TRACK 01 AUDIO
TITLE "Sonata No.9 in E, op.14 no.1 - 1. Allegro"
PERFORMER "Sviatoslav Richter"
ISRC NLA506300367
PREGAP 00:00:33
INDEX 01 00:00:00
TRACK 02 AUDIO
TITLE "Sonata No.9 in E, op.14 no.1 - 2. Allegretto"
PERFORMER "Sviatoslav Richter"
ISRC NLA506300368
INDEX 00 07:18:00
FILE "02 Sonata No.9 in E, op.14 no.1 - 2. Allegretto.wav" WAVE
INDEX 01 00:00:00
FILE "03 Sonata No.9 in E, op.14 no.1 - 3. Rondo. Allegro comodo.wav" WAVE
TRACK 03 AUDIO
TITLE "Sonata No.9 in E, op.14 no.1 - 3. Rondo. Allegro comodo"
PERFORMER "Sviatoslav Richter"
ISRC NLA506300369
INDEX 01 00:00:00
TRACK 04 AUDIO
TITLE "Sonata No.11 in B flat, op.22 - 1. Allegro con brio"
PERFORMER "Sviatoslav Richter"
ISRC NLA506300373
INDEX 00 02:52:08
FILE "04 Sonata No.11 in B flat, op.22 - 1. Allegro con brio.wav" WAVE
INDEX 01 00:00:00
TRACK 05 AUDIO
TITLE "Sonata No.11 in B flat, op.22 - 2. Adagio con molta espressione"
PERFORMER "Sviatoslav Richter"
ISRC NLA506300374
INDEX 00 07:26:00
FILE "05 Sonata No.11 in B flat, op.22 - 2. Adagio con molta espressione.wav" WAVE
INDEX 01 00:00:00
TRACK 06 AUDIO
TITLE "Sonata No.11 in B flat, op.22 - 3. Menuetto"
PERFORMER "Sviatoslav Richter"
ISRC NLA506300375
INDEX 00 09:04:00
FILE "06 Sonata No.11 in B flat, op.22 - 3. Menuetto.wav" WAVE
INDEX 01 00:00:00
FILE "07 Sonata No.11 in B flat, op.22 - 4. Rondo. Allegretto.wav" WAVE
TRACK 07 AUDIO
TITLE "Sonata No.11 in B flat, op.22 - 4. Rondo. Allegretto"
PERFORMER "Sviatoslav Richter"
ISRC NLA506300376
INDEX 01 00:00:00
TRACK 08 AUDIO
TITLE "Sonata No.12 in A flat, op.26 - 1. Andante con variazioni"
PERFORMER "Sviatoslav Richter"
ISRC NLA509311510
INDEX 00 05:34:60
FILE "08 Sonata No.12 in A flat, op.26 - 1. Andante con variazioni.wav" WAVE
INDEX 01 00:00:00
FILE "09 Sonata No.12 in A flat, op.26 - 2. Scherzo. Allegro molto.wav" WAVE
TRACK 09 AUDIO
TITLE "Sonata No.12 in A flat, op.26 - 2. Scherzo. Allegro molto"
PERFORMER "Sviatoslav Richter"
ISRC NLA509311511
INDEX 01 00:00:00
FILE "10 Sonata No.12 in A flat, op.26 - 3. Marcia funebre sulla morte d'un Eroe.wav" WAVE
TRACK 10 AUDIO
TITLE "Sonata No.12 in A flat, op.26 - 3. Marcia funebre sulla morte d'un Eroe"
PERFORMER "Sviatoslav Richter"
ISRC NLA509311512
INDEX 01 00:00:00
FILE "11 Sonata No.12 in A flat, op.26 - 4. Allegro.wav" WAVE
TRACK 11 AUDIO
TITLE "Sonata No.12 in A flat, op.26 - 4. Allegro"
PERFORMER "Sviatoslav Richter"
ISRC NLA509311513
INDEX 01 00:00:00
TRACK 12 AUDIO
TITLE "Sonata No.27 in E minor, op.90 - 1. Mit Lebhaftigkeit"
PERFORMER "Sviatoslav Richter"
ISRC NLA509311514
INDEX 00 02:23:25
FILE "12 Sonata No.27 in E minor, op.90 - 1. Mit Lebhaftigkeit.wav" WAVE
INDEX 01 00:00:00
TRACK 13 AUDIO
TITLE "Sonata No.27 in E minor, op.90 - 2. Nicht zu geschwind"
PERFORMER "Sviatoslav Richter"
ISRC NLA509311515
INDEX 00 05:43:00
FILE "13 Sonata No.27 in E minor, op.90 - 2. Nicht zu geschwind.wav" WAVE
INDEX 01 00:00:00
CD13

скрытый текст

REM GENRE Classical
REM DATE 2014
REM DISCID 770E090A
REM COMMENT "ExactAudioCopy v1.0b3"
CATALOG 0028947877455
PERFORMER "Beethoven"
TITLE "Sviatoslav Richter Complete Decca Philips DG Recordings"
FILE "01 Sonata No. 18 in E Flat, Op. 31 No. 3 - 1. Allegro.wav" WAVE
TRACK 01 AUDIO
TITLE "Sonata No. 18 in E Flat, Op. 31 No. 3 - 1. Allegro"
PERFORMER "Beethoven"
ISRC NLA509311701
PREGAP 00:00:33
INDEX 01 00:00:00
TRACK 02 AUDIO
TITLE "Sonata No. 18 in E Flat, Op. 31 No. 3 - 2. Scherzo. Allegretto vivace"
PERFORMER "Beethoven"
ISRC NLA509311702
INDEX 00 10:04:00
FILE "02 Sonata No. 18 in E Flat, Op. 31 No. 3 - 2. Scherzo. Allegretto vivace.wav" WAVE
INDEX 01 00:00:00
TRACK 03 AUDIO
TITLE "Sonata No. 18 in E Flat, Op. 31 No. 3 - 3. Menuetto. Moderato e grazioso"
PERFORMER "Beethoven"
ISRC NLA509311703
INDEX 00 05:10:00
FILE "03 Sonata No. 18 in E Flat, Op. 31 No. 3 - 3. Menuetto. Moderato e grazioso.wav" WAVE
INDEX 01 00:00:00
FILE "04 Sonata No. 18 in E Flat, Op. 31 No. 3 - 4. Presto con fuoco.wav" WAVE
TRACK 04 AUDIO
TITLE "Sonata No. 18 in E Flat, Op. 31 No. 3 - 4. Presto con fuoco"
PERFORMER "Beethoven"
ISRC NLA509311704
INDEX 01 00:00:00
FILE "05 Rondo in C, Op. 51 No. 1.wav" WAVE
TRACK 05 AUDIO
TITLE "Rondo in C, Op. 51 No. 1"
PERFORMER "Beethoven"
ISRC NLA509311705
INDEX 01 00:00:00
FILE "06 Rondo in G, Op. 51 No. 2.wav" WAVE
TRACK 06 AUDIO
TITLE "Rondo in G, Op. 51 No. 2"
PERFORMER "Beethoven"
ISRC NLA509311706
INDEX 01 00:00:00
FILE "07 Sonata No. 28 in A, Op. 101 - 1. Etwas lebhaft und mit der innigsten Empfindung. Allegretto ma non troppo.wav" WAVE
TRACK 07 AUDIO
TITLE "Sonata No. 28 in A, Op. 101 - 1. Etwas lebhaft und mit der innigsten Empfindu..."
PERFORMER "Beethoven"
ISRC NLA509311707
INDEX 01 00:00:00
FILE "08 Sonata No. 28 in A, Op. 101 - 2. Lebhaft, marschmдЯig. Vivace alla marcia.wav" WAVE
TRACK 08 AUDIO
TITLE "Sonata No. 28 in A, Op. 101 - 2. Lebhaft, marschmдЯig. Vivace alla marcia"
PERFORMER "Beethoven"
ISRC NLA509311708
INDEX 01 00:00:00
TRACK 09 AUDIO
TITLE "Sonata No. 28 in A, Op. 101 - 3. Langsam und sehnsuchtsvoll. Adagio ma non tr..."
PERFORMER "Beethoven"
ISRC NLA509311709
INDEX 00 05:46:00
FILE "09 Sonata No. 28 in A, Op. 101 - 3. Langsam und sehnsuchtsvoll. Adagio ma non troppo, con affetto.wav" WAVE
INDEX 01 00:00:00
FILE "10 Sonata No. 28 in A, Op. 101 - 4. Geschwind, doch nicht zu sehr, und mit Entschlossenheit. Allegro.wav" WAVE
TRACK 10 AUDIO
TITLE "Sonata No. 28 in A, Op. 101 - 4. Geschwind, doch nicht zu sehr, und mit Entsc..."
PERFORMER "Beethoven"
ISRC NLA509311710
INDEX 01 00:00:00
CD14

скрытый текст

REM GENRE Classical
REM DATE 2014
REM DISCID F00C4221
REM COMMENT "ExactAudioCopy v1.0b3"
CATALOG 0028947877462
PERFORMER "Sviatoslav Richter"
TITLE "Sviatoslav Richter Complete Decca Philips DG Recordings"
FILE "01 DIABELLI VARIATIONS - Vivace - I. Alla marcia maestoso.wav" WAVE
TRACK 01 AUDIO
TITLE "DIABELLI VARIATIONS - Vivace - I. Alla marcia maestoso"
PERFORMER "Sviatoslav Richter"
ISRC NLA508601901
PREGAP 00:00:33
INDEX 01 00:00:00
INDEX 02 00:55:58
FILE "02 II. Poco Allegro.wav" WAVE
TRACK 02 AUDIO
TITLE "II. Poco Allegro"
PERFORMER "Sviatoslav Richter"
ISRC NLA508601902
INDEX 01 00:00:00
FILE "03 III. L'istesso tempo.wav" WAVE
TRACK 03 AUDIO
TITLE "III. L'istesso tempo"
PERFORMER "Sviatoslav Richter"
ISRC NLA508601903
INDEX 01 00:00:00
FILE "04 IV. Un poco piщ vivace.wav" WAVE
TRACK 04 AUDIO
TITLE "IV. Un poco piщ vivace"
PERFORMER "Sviatoslav Richter"
ISRC NLA508601904
INDEX 01 00:00:00
FILE "05 V. Allegro vivace.wav" WAVE
TRACK 05 AUDIO
TITLE "V. Allegro vivace"
PERFORMER "Sviatoslav Richter"
ISRC NLA508601905
INDEX 01 00:00:00
FILE "06 VI. Allegro ma non troppo e serioso.wav" WAVE
TRACK 06 AUDIO
TITLE "VI. Allegro ma non troppo e serioso"
PERFORMER "Sviatoslav Richter"
ISRC NLA508601906
INDEX 01 00:00:00
FILE "07 VII. Un poco piщ allegro.wav" WAVE
TRACK 07 AUDIO
TITLE "VII. Un poco piщ allegro"
PERFORMER "Sviatoslav Richter"
ISRC NLA508601907
INDEX 01 00:00:00
FILE "08 VIII. Poco vivace.wav" WAVE
TRACK 08 AUDIO
TITLE "VIII. Poco vivace"
PERFORMER "Sviatoslav Richter"
ISRC NLA508601908
INDEX 01 00:00:00
FILE "09 IX. Allegro pesante e risoluto.wav" WAVE
TRACK 09 AUDIO
TITLE "IX. Allegro pesante e risoluto"
PERFORMER "Sviatoslav Richter"
ISRC NLA508601909
INDEX 01 00:00:00
FILE "10 X. Presto.wav" WAVE
TRACK 10 AUDIO
TITLE "X. Presto"
PERFORMER "Sviatoslav Richter"
ISRC NLA508601910
INDEX 01 00:00:00
FILE "11 XI. Allegretto.wav" WAVE
TRACK 11 AUDIO
TITLE "XI. Allegretto"
PERFORMER "Sviatoslav Richter"
ISRC NLA508601911
INDEX 01 00:00:00
FILE "12 XII. Un poco piщ moto.wav" WAVE
TRACK 12 AUDIO
TITLE "XII. Un poco piщ moto"
PERFORMER "Sviatoslav Richter"
ISRC NLA508601912
INDEX 01 00:00:00
FILE "13 XIII. Vivace.wav" WAVE
TRACK 13 AUDIO
TITLE "XIII. Vivace"
PERFORMER "Sviatoslav Richter"
ISRC NLA508601913
INDEX 01 00:00:00
FILE "14 XIV. Grave e maestoso.wav" WAVE
TRACK 14 AUDIO
TITLE "XIV. Grave e maestoso"
PERFORMER "Sviatoslav Richter"
ISRC NLA508601914
INDEX 01 00:00:00
FILE "15 XV. Presto scherzando.wav" WAVE
TRACK 15 AUDIO
TITLE "XV. Presto scherzando"
PERFORMER "Sviatoslav Richter"
ISRC NLA508601915
INDEX 01 00:00:00
FILE "16 XVI. Allegro.wav" WAVE
TRACK 16 AUDIO
TITLE "XVI. Allegro"
PERFORMER "Sviatoslav Richter"
ISRC NLA508601916
INDEX 01 00:00:00
FILE "17 XVII. --.wav" WAVE
TRACK 17 AUDIO
TITLE "XVII. --"
PERFORMER "Sviatoslav Richter"
ISRC NLA508601917
INDEX 01 00:00:00
FILE "18 XVIII. Poco moderato.wav" WAVE
TRACK 18 AUDIO
TITLE "XVIII. Poco moderato"
PERFORMER "Sviatoslav Richter"
ISRC NLA508601918
INDEX 01 00:00:00
FILE "19 XIX. Presto.wav" WAVE
TRACK 19 AUDIO
TITLE "XIX. Presto"
PERFORMER "Sviatoslav Richter"
ISRC NLA508601919
INDEX 01 00:00:00
FILE "20 XX. Andante.wav" WAVE
TRACK 20 AUDIO
TITLE "XX. Andante"
PERFORMER "Sviatoslav Richter"
ISRC NLA508601920
INDEX 01 00:00:00
FILE "21 XXI. Allegro con brio - Meno Allegro.wav" WAVE
TRACK 21 AUDIO
TITLE "XXI. Allegro con brio - Meno Allegro"
PERFORMER "Sviatoslav Richter"
ISRC NLA508601921
INDEX 01 00:00:00
FILE "22 XXII. Allegro molto (alla ''Notte e giorno faticar'' di Mozart).wav" WAVE
TRACK 22 AUDIO
TITLE "XXII. Allegro molto (alla 'Notte e giorno faticar' di Mozart)"
PERFORMER "Sviatoslav Richter"
ISRC NLA508601922
INDEX 01 00:00:00
FILE "23 XXIII. Allegro assai.wav" WAVE
TRACK 23 AUDIO
TITLE "XXIII. Allegro assai"
PERFORMER "Sviatoslav Richter"
ISRC NLA508601923
INDEX 01 00:00:00
FILE "24 XXIV. Fughetta (Andante).wav" WAVE
TRACK 24 AUDIO
TITLE "XXIV. Fughetta (Andante)"
PERFORMER "Sviatoslav Richter"
ISRC NLA508601924
INDEX 01 00:00:00
FILE "25 XXV. Allegro.wav" WAVE
TRACK 25 AUDIO
TITLE "XXV. Allegro"
PERFORMER "Sviatoslav Richter"
ISRC NLA508601925
INDEX 01 00:00:00
FILE "26 XXVI. --.wav" WAVE
TRACK 26 AUDIO
TITLE "XXVI. --"
PERFORMER "Sviatoslav Richter"
ISRC NLA508601926
INDEX 01 00:00:00
FILE "27 XXVII. Vivace.wav" WAVE
TRACK 27 AUDIO
TITLE "XXVII. Vivace"
PERFORMER "Sviatoslav Richter"
ISRC NLA508601927
INDEX 01 00:00:00
FILE "28 XXVIII. Allegro.wav" WAVE
TRACK 28 AUDIO
TITLE "XXVIII. Allegro"
PERFORMER "Sviatoslav Richter"
ISRC NLA508601928
INDEX 01 00:00:00
FILE "29 XXIX. Adagio ma non troppo.wav" WAVE
TRACK 29 AUDIO
TITLE "XXIX. Adagio ma non troppo"
PERFORMER "Sviatoslav Richter"
ISRC NLA508601929
INDEX 01 00:00:00
FILE "30 XXX. Andante sempre cantabile..wav" WAVE
TRACK 30 AUDIO
TITLE "XXX. Andante sempre cantabile."
PERFORMER "Sviatoslav Richter"
ISRC NLA508601930
INDEX 01 00:00:00
FILE "31 XXXI. Largo, molto espressivo.wav" WAVE
TRACK 31 AUDIO
TITLE "XXXI. Largo, molto espressivo"
PERFORMER "Sviatoslav Richter"
ISRC NLA508601931
INDEX 01 00:00:00
FILE "32 XXXII. Fuga (Allegro - Poco adagio).wav" WAVE
TRACK 32 AUDIO
TITLE "XXXII. Fuga (Allegro - Poco adagio)"
PERFORMER "Sviatoslav Richter"
ISRC NLA508601932
INDEX 01 00:00:00
FILE "33 XXXIII. Tempo di minuetto moderato.wav" WAVE
TRACK 33 AUDIO
TITLE "XXXIII. Tempo di minuetto moderato"
PERFORMER "Sviatoslav Richter"
ISRC NLA508601933
INDEX 01 00:00:00
CD15

скрытый текст

REM GENRE Classical
REM DATE 2014
REM DISCID 2B0B4704
REM COMMENT "ExactAudioCopy v1.0b3"
CATALOG 0028947877479
PERFORMER "Sviatoslav Richter"
TITLE "Sviatoslav Richter Complete Decca Philips DG Recordings"
FILE "01 Piano Sonata No 20 in G major D. 894 - 1. Molto moderato e cantabile.wav" WAVE
TRACK 01 AUDIO
TITLE "Piano Sonata No 20 in G major D. 894 - 1. Molto moderato e cantabile"
PERFORMER "Sviatoslav Richter"
ISRC NLA509311201
PREGAP 00:00:33
INDEX 01 00:00:00
TRACK 02 AUDIO
TITLE "Piano Sonata No 20 in G major D. 894 - 2. Andante"
PERFORMER "Sviatoslav Richter"
ISRC NLA509311202
INDEX 00 26:57:00
FILE "02 Piano Sonata No 20 in G major D. 894 - 2. Andante.wav" WAVE
INDEX 01 00:00:00
FILE "03 Piano Sonata No 20 in G major D. 894 - 3. Menuetto. Allegro moderato.wav" WAVE
TRACK 03 AUDIO
TITLE "Piano Sonata No 20 in G major D. 894 - 3. Menuetto. Allegro moderato"
PERFORMER "Sviatoslav Richter"
ISRC NLA509311203
INDEX 01 00:00:00
FILE "04 Piano Sonata No 20 in G major D. 894 - 4. Allegretto.wav" WAVE
TRACK 04 AUDIO
TITLE "Piano Sonata No 20 in G major D. 894 - 4. Allegretto"
PERFORMER "Sviatoslav Richter"
ISRC NLA509311204
INDEX 01 00:00:00
Вот таким "кирпичиком" порадовала Декка в текущем году. Необычно то, что записи ранее успешно конкурировавших фирм теперь представлены в одном боксе. ...и в большом количестве
Буклета, к сожалению, нет. Но записи известные, несколько раз переиздававшиеся. Например, добрая половина из них - буквальное повторение коробки из 22 дисков Philips The Authorised Recordings. Полное собрание записей Deutsche Grammophon есть на трекере в 9-дисковом издании. Записи самОй Декки издавались 5-томным комплектом (6 дисков) европейских выступлений СТР и отдельными дисками (английские записи с Бриттеном), затем в наборе The Master, который, правда, содержал главным образом записи из бокса Филипс The Authorised Recordings, и в 33-дисковом боксе Декки Solo Recordings, опять же состоявшим в основном из записей Филипс и ДГ.
*** Обращаю ваше внимание на путаницу в треках в CD 33, дорожки 4-6. В первоначальном виде диск шел бонусом к книге, входящей в комплект Филипс The Authorised Recordings. С тем диском была та же чехарда, что и сейчас в боксе Декки. По-видимому, ошибка кроется в базе данных программы, выполнявшей рип. Я не стал делать исправлений, поскольку дорожки привязаны к файлу cue. Каждый из скачавших может сделать корректировку самостоятельно. Итак, дорожки 4-5 - 2 Прелюдии Дебюсси, 6 - Элегия Вагнера.
[teatrix.ru].t9705.torrent 
Торрент: Зарегистрирован [ 2015-10-23 17:11 ] · 20EEB1372B50858955E29CCB28BEB1C7CE9F2741

Скачать .torrent

Скачать

97 KB

Статус: проверено
Скачан: 0 раз
Размер: 11.44 GB
terms.php



Быстрый ответ

Имя:

      
Для отправки сообщений необходимо включить JavaScript
Показать сообщения:    

Текущее время: 05-Дек 11:33

Часовой пояс: UTC + 3


Вы можете начинать темы
Вы можете отвечать на сообщения
Вы не можете редактировать свои сообщения
Вы не можете удалять свои сообщения
Вы не можете голосовать в опросах
Вы не можете прикреплять файлы к сообщениям
Вы можете скачивать файлы