(Classical/Piano) Sviatoslav Richter - The Complete RCA & Columbia Album Collection (18CDs)/С.Т.Рихтер - Полное собрание записей на фирмах RCA и Columbia - 2015, FLAC (tracks+.cue) lossless


Статистика раздачи [Обновить пиров]
Размер:  3.17 GB   |    Зарегистрирован:  1 год 1 месяц   |    Скачан:  1 раз

Полного источника не было: 13 дней

Личеров:  1  [  0 KB/s  ]   Подробная статистика пиров
 
   
 
 
 

[Цитировать]

Sviatoslav Richter - The Complete RCA & Columbia Album Collection (18CDs)/С.Т.Рихтер - Полное собрание записей на фирмах RCA и Columbia
Жанр: Classical/Piano
Страна-производитель диска: EU
Год издания диска: 2015
Издатель (лейбл): Sony
Номер по каталогу: 88843014702
Дата записи: 1960-1988
Аудиокодек: FLAC
Тип рипа: tracks+.cue
Битрейт аудио: lossless
Продолжительность: долго
Источник: скачано с
сайт-источник/ник/другое: classical-pippo9 blogspot (Thanks, Pippo9!)
Наличие сканов в содержимом раздачи: да
Треклист:

скрытый текст

CD 1 :
Johannes Brahms (1822-1897)
Piano Concerto No. 2 in B-Flat, Op. 83
CD 2 :
Ludwig van Beethoven (1770-1827)
Piano Sonata No. 3 in C major, Op. 2 No. 3
Piano Sonata No. 9 in E major, Op. 14 No. 1
Piano Sonata No. 12 in A flat major, Op. 26, "Funeral March"
CD 3 :
Ludwig van Beethoven (1770-1827)
Piano Sonata No. 22 in F major, Op. 54
Piano Sonata No. 23 in F minor, Op. 57, "Appassionata"
Franz Schubert (1797-1828)
Impromptu in A-flat, Op. 90, No. 4
Robert Schumann (1810-1856)
Fantasiestucke, Opus 12, No. 2: Aufschwung
Frederic Chopin (1810-1849)
Etude in C Major, Op. 10, No. 1
Etude, Op. 10, No. 12
CD 4 :
Сергей Прокофьев (1891-1953)
Three Pieces: Sonatine Pastorale in C Major, Op. 59, No. 3
Three Pieces: Paysage, Op. 59, No. 2
Pensees: Andante Op. 62, No. 3
Piano Sonata No. 6 in A major, Op. 82
CD 5 :
Сергей Прокофьев (1891-1953)
Piano Sonata No. 8 in B flat major, Op. 84
Piano Sonata No. 8 in B flat major, Op. 84 - Vivace
CD 6 :
Joseph Haydn (1732-1809)
Piano Sonata No. 60 in C Major, Hob.XVI, No. 50
Robert Schumann (1810-1856)
Three Novellettes, Op. 21/1/2/8
CD 7 :
Claude Debussy (1862-1918)
Suite bergamasque
Images, Book I
L'Isle joyeuse
Images, Book II, No. 1: Cloches a travers les feuilles
Preludes Book I, No. 3: Le vent dans la plaine: Anime
Preludes Book I, No. 5: Les collines d'Anacapri: Tres modere
CD 8 :
Ludwig van Beethoven (1770-1827)
Piano Sonata No. 7 in D major, Op. 10, No. 3
Robert Schumann (1810-1856)
Three Novellettes, Op. 21/1/2/8
CD 9 :
Сергей Рахманинов (1873-1943)
Preludes, Op. 23/1
Preludes, Op. 32/9/10/12
Preludes, Op. 23/8
Preludes, Op. 32/1/2/6/7
Preludes, Op. 23/2
Preludes, Op. 23/4/5/6
Frederic Chopin (1810-1849)
Etude in E Major, Op. 10, No. 3
Mazurka in C Major, Op. 24, No. 2
Claude Debussy (1862-1918)
Images, Book II, No. 1: Cloches a travers les feuilles
Serguei Prokofiev (1891-1953)
Cinderella Op. 95: Three Pieces - Gavotte
CD 10 :
Robert Schumann (1810-1856)
Fantasia in C major, Op. 17
Frederic Chopin (1810-1849)
Scherzo No. 4, Op. 54 in E Major
Maurice Ravel (1875-1937)
Pavane pour une infante defunte
Jeux d'eau
Miroirs No. 2: Oiseaux Tristes
Alexander Scriabin (1872-1915)
Sonata No, 5 in F-sharp Major, Op. 53
Сергей Рахманинов (1873-1943)
Prelude in G-Sharp Minor, Op. 32, No. 12
CD 11 :
Ludwig van Beethoven (1770-1827)
Piano Concerto No. 1, Op. 15 in C
Piano Sonata No. 22, Op. 54 in F
CD 12 :
Ludwig van Beethoven (1770-1827)
Piano Sonata No. 23, Op. 57 in F Minor "Appassionata"
Piano Sonata in A-Flat, Op. 26 "Funeral March"
CD 13 :
Joseph Haydn (1732-1809)
Sonata No. 60 in C, H.XVI/50
Frederic Chopin (1810-1849)
Scherzo No. 4 in E, Op. 54
Ballade No. 3 in A-Flat, Op. 47
Сергей Рахманинов (1873-1943)
Prelude in F-Sharp Minor, Op. 23 No. 1
Prelude in A, Op. 32 No. 9
Prelude in B Minor, Op. 32 No. 10
Prelude in G-Sharp Minor, Op. 32 No. 12
Maurice Ravel (1875-1937)
Jeux d'eau
La Vallee des cloches
CD 14 :
Serguei Prokofiev (1891-1953)
Sonata No. 6 in A, Op. 82
Visions fugitives, Op. 22 - Selections
CD 15 :
Joseph Haydn (1732-1809)
Piano Sonata No. 60 in C, Hob.XVI/50
Frederic Chopin (1810-1849)
Scherzo No. 4 in E, Op. 54
Ballade No. 3 in A-Flat, Op. 47
Sergei Rachmaninoff (1873-1943)
Prelude in F-Sharp Minor, Op. 23 No. 1
Prelude in A, Op. 32 No. 9
Prelude in B Minor, Op. 32 No. 10
Prelude in G-Sharp Minor, Op. 32 No. 12
Maurice Ravel (1875-1937)
Jeux d'eau
La Vallee des cloches
CD 16 :
Serguei Prokofiev (1891-1953)
Sonata No. 6 in A, Op. 82
Cinderella Suite Op. 95, No. 2: Gavotte
Visions fugitives, Op. 22 - No. 4: Animato
Claude Debussy (1862-1918)
Preludes, Book I, No. 5: Les collines d'Anacapri
Frederic Chopin (1810-1849)
Etude Op. 10 No. 10 in A-Flat
Etude Op. 10 No. 12 in C Minor, "Revolutionary"
Mazurka Op. 24 No. 2 in C
CD 17 :
Johannes Brahms (1822-1897)
Piano Sonata No. 1 Op. 1 in C
Franz Liszt (1811-1886)
Hungarian Rhapsody No. 17
Scherzo & March R 20/G 177
Etudes d'execution - Harmonies du Soir
Franz Schubert (1797-1828)
Scherzo No. 2 in D-flat, D. 593
Andante in A, D. 604
Four Landler, D. 366
CD 18 :
Ludwig van Beethoven (1770-1827)
Piano Concerto No. 1 in C major, Op. 15
Frederic Chopin (1810-1849)
Etude No. 1 in C major, Op. 10/1
Etude No. 2 in A minor, Op. 10/2
Etude No. 3 in E major, Op. 10/3, "Tristesse"
Etude No. 4 in C sharp minor, Op. 10/4
Etude No. 6 in E flat minor, Op. 10/6
Etude No. 11 in E flat major, Op. 10/11
Etude No. 12 in C minor, Op. 10/12, "Revolutionary"
Исполнители:
Sviatoslav Richter - piano
Chicago Symphony Orchestra, Eric Leinsdorf (CD 1)
Boston Symphony Orchestra, Charles Munch (CD 11)
Orchestra of the Schleswig-Holstein Musik Festival, Christoph Eschenbach (CD 18)

Лог создания рипа

CD1

скрытый текст

Exact Audio Copy V1.0 beta 3 from 29. August 2011
EAC extraction logfile from 15. January 2015, 18:44
Sviatoslav Richter / RCA and Columbia Collection Vol. 1
Used drive : TSSTcorpCDDVDW SH-S223L Adapter: 6 ID: 0
Read mode : Secure
Utilize accurate stream : Yes
Defeat audio cache : Yes
Make use of C2 pointers : No
Read offset correction : 6
Overread into Lead-In and Lead-Out : No
Fill up missing offset samples with silence : Yes
Delete leading and trailing silent blocks : No
Null samples used in CRC calculations : Yes
Used interface : Native Win32 interface for Win NT & 2000
Gap handling : Appended to previous track
Used output format : User Defined Encoder
Selected bitrate : 1024 kBit/s
Quality : High
Add ID3 tag : No
Command line compressor : C:\Program Files (x86)\Exact Audio Copy\Flac\flac.exe
Additional command line options : -8 -V -T "ARTIST=%artist%" -T "TITLE=%title%" -T "ALBUM=%albumtitle%" -T "DATE=%year%" -T "TRACKNUMBER=%tracknr%" -T "GENRE=%genre%" -T "PERFORMER=%albuminterpret%" -T "COMPOSER=%composer%" %haslyrics%--tag-from-file=LYRICS="%lyricsfile%"%haslyrics% -T "ALBUMARTIST=%albumartist%" -T "DISCNUMBER=%cdnumber%" -T "TOTALDISCS=%totalcds%" -T "TOTALTRACKS=%numtracks%" -T "COMMENT=%comment%" %source% -o %dest%
TOC of the extracted CD
Track | Start | Length | Start sector | End sector
---------------------------------------------------------
1 | 0:00.00 | 16:45.08 | 0 | 75382
2 | 16:45.08 | 8:37.17 | 75383 | 114174
3 | 25:22.25 | 12:41.29 | 114175 | 171278
4 | 38:03.54 | 8:46.16 | 171279 | 210744
Track 1
Filename D:\Rips\01 - [Brahms] Piano Concerto No. 2 in B-flat, Op. 83, I. Allegro non troppo.wav
Pre-gap length 0:00:02.00
Peak level 99.4 %
Extraction speed 2.1 X
Track quality 100.0 %
Test CRC 6C1F4173
Copy CRC 6C1F4173
Track not present in AccurateRip database
Copy OK
Track 2
Filename D:\Rips\02 - II. Allegro appassionato.wav
Peak level 78.0 %
Extraction speed 2.4 X
Track quality 99.9 %
Test CRC 4C510CB2
Copy CRC 4C510CB2
Track not present in AccurateRip database
Copy OK
Track 3
Filename D:\Rips\03 - III. Andante.wav
Peak level 58.7 %
Extraction speed 3.0 X
Track quality 100.0 %
Test CRC 6AAEF13B
Copy CRC 6AAEF13B
Track not present in AccurateRip database
Copy OK
Track 4
Filename D:\Rips\04 - IV. Allegretto grazioso.wav
Peak level 71.6 %
Extraction speed 2.9 X
Track quality 99.9 %
Test CRC FE234A1F
Copy CRC FE234A1F
Track not present in AccurateRip database
Copy OK
None of the tracks are present in the AccurateRip database
No errors occurred
End of status report
---- CUETools DB Plugin V2.1.3
[CTDB TOCID: 5UVdZH1S8ejOMdhW1gF1eni.Iv8-] found, Submit result: 5UVdZH1S8ejOMdhW1gF1eni.Iv8- has been confirmed
[12593527] (2/2) Accurately ripped
==== Log checksum 1292129BFE385B98D311DCDC30297056719A17F02BFDD0E90268B402DD1D8E89 ====
CD2

скрытый текст

Exact Audio Copy V1.0 beta 3 from 29. August 2011
EAC extraction logfile from 15. January 2015, 19:11
Sviatoslav Richter / RCA and Columbia Collection Vol. 2
Used drive : TSSTcorpCDDVDW SH-S223L Adapter: 6 ID: 0
Read mode : Secure
Utilize accurate stream : Yes
Defeat audio cache : Yes
Make use of C2 pointers : No
Read offset correction : 6
Overread into Lead-In and Lead-Out : No
Fill up missing offset samples with silence : Yes
Delete leading and trailing silent blocks : No
Null samples used in CRC calculations : Yes
Used interface : Native Win32 interface for Win NT & 2000
Gap handling : Appended to previous track
Used output format : User Defined Encoder
Selected bitrate : 1024 kBit/s
Quality : High
Add ID3 tag : No
Command line compressor : C:\Program Files (x86)\Exact Audio Copy\Flac\flac.exe
Additional command line options : -8 -V -T "ARTIST=%artist%" -T "TITLE=%title%" -T "ALBUM=%albumtitle%" -T "DATE=%year%" -T "TRACKNUMBER=%tracknr%" -T "GENRE=%genre%" -T "PERFORMER=%albuminterpret%" -T "COMPOSER=%composer%" %haslyrics%--tag-from-file=LYRICS="%lyricsfile%"%haslyrics% -T "ALBUMARTIST=%albumartist%" -T "DISCNUMBER=%cdnumber%" -T "TOTALDISCS=%totalcds%" -T "TOTALTRACKS=%numtracks%" -T "COMMENT=%comment%" %source% -o %dest%
TOC of the extracted CD
Track | Start | Length | Start sector | End sector
---------------------------------------------------------
1 | 0:00.00 | 9:47.00 | 0 | 44024
2 | 9:47.00 | 7:26.68 | 44025 | 77542
3 | 17:13.68 | 3:14.34 | 77543 | 92126
4 | 20:28.27 | 4:38.07 | 92127 | 112983
5 | 25:06.34 | 6:20.48 | 112984 | 141531
6 | 31:27.07 | 6:15.43 | 141532 | 169699
7 | 37:42.50 | 3:06.12 | 169700 | 183661
8 | 40:48.62 | 6:36.22 | 183662 | 213383
9 | 47:25.09 | 2:44.55 | 213384 | 225738
10 | 50:09.64 | 5:41.53 | 225739 | 251366
11 | 55:51.42 | 2:48.23 | 251367 | 263989
Track 1
Filename D:\Rips\01 - [Beethoven] Sonata No. 3 in C major, Op.2 No. 3 - I. Allegro con brio.wav
Pre-gap length 0:00:02.00
Peak level 82.0 %
Extraction speed 4.8 X
Track quality 100.0 %
Test CRC 9B4D3EE5
Copy CRC 9B4D3EE5
Track not present in AccurateRip database
Copy OK
Track 2
Filename D:\Rips\02 - II. Adagio.wav
Peak level 80.7 %
Extraction speed 5.6 X
Track quality 100.0 %
Test CRC FD52A0FC
Copy CRC FD52A0FC
Track not present in AccurateRip database
Copy OK
Track 3
Filename D:\Rips\03 - III. Scherzo. Allegro - Trio.wav
Peak level 78.2 %
Extraction speed 5.5 X
Track quality 100.0 %
Test CRC E2843662
Copy CRC E2843662
Track not present in AccurateRip database
Copy OK
Track 4
Filename D:\Rips\04 - IV. Allegro assai.wav
Peak level 80.3 %
Extraction speed 6.1 X
Track quality 100.0 %
Test CRC D0627026
Copy CRC D0627026
Track not present in AccurateRip database
Copy OK
Track 5
Filename D:\Rips\05 - Sonata No. 9 in E major, Op. 14 No. 1 - I. Allegro.wav
Peak level 86.6 %
Extraction speed 6.7 X
Track quality 100.0 %
Test CRC 8C110187
Copy CRC 8C110187
Track not present in AccurateRip database
Copy OK
Track 6
Filename D:\Rips\06 - II. Allegretto.wav
Peak level 45.4 %
Extraction speed 7.1 X
Track quality 100.0 %
Test CRC 8235879C
Copy CRC 8235879C
Track not present in AccurateRip database
Copy OK
Track 7
Filename D:\Rips\07 - III. Rondo. Allegro comodo.wav
Peak level 70.6 %
Extraction speed 6.8 X
Track quality 100.0 %
Test CRC 053E1D27
Copy CRC 053E1D27
Track not present in AccurateRip database
Copy OK
Track 8
Filename D:\Rips\08 - Sonata No. 12 in A-flat major, Op. 26 - I. Andante con variazioni.wav
Peak level 83.0 %
Extraction speed 7.7 X
Track quality 100.0 %
Test CRC 57C72E42
Copy CRC 57C72E42
Track not present in AccurateRip database
Copy OK
Track 9
Filename D:\Rips\09 - II. Scherzo (Allegro molto).wav
Peak level 82.5 %
Extraction speed 7.1 X
Track quality 100.0 %
Test CRC 9E7ED8B5
Copy CRC 9E7ED8B5
Track not present in AccurateRip database
Copy OK
Track 10
Filename D:\Rips\10 - III. Marcia funebre sulla morte d'un Eroe (Maestoso andante).wav
Peak level 91.0 %
Extraction speed 8.1 X
Track quality 100.0 %
Test CRC FEFAE6A7
Copy CRC FEFAE6A7
Track not present in AccurateRip database
Copy OK
Track 11
Filename D:\Rips\11 - IV. Allegro.wav
Peak level 95.0 %
Extraction speed 5.5 X
Track quality 99.9 %
Test CRC 8D2D2F43
Copy CRC 8D2D2F43
Track not present in AccurateRip database
Copy OK
None of the tracks are present in the AccurateRip database
No errors occurred
End of status report
---- CUETools DB Plugin V2.1.3
[CTDB TOCID: NGtd39Khr8U7cZjLUWOSs5LQjkk-] found, Submit result: NGtd39Khr8U7cZjLUWOSs5LQjkk- has been confirmed
[c8a04711] (2/2) Accurately ripped
==== Log checksum B4E6A9497C0375FB4A404DDBB3CB71600A82FC1A9AC4FB5FD5627196B58AA03F ====
CD3

скрытый текст

Exact Audio Copy V1.0 beta 3 from 29. August 2011
EAC extraction logfile from 15. January 2015, 19:38
Sviatoslav Richter / RCA and Columbia Collection Vol. 3
Used drive : TSSTcorpCDDVDW SH-S223L Adapter: 6 ID: 0
Read mode : Secure
Utilize accurate stream : Yes
Defeat audio cache : Yes
Make use of C2 pointers : No
Read offset correction : 6
Overread into Lead-In and Lead-Out : No
Fill up missing offset samples with silence : Yes
Delete leading and trailing silent blocks : No
Null samples used in CRC calculations : Yes
Used interface : Native Win32 interface for Win NT & 2000
Gap handling : Appended to previous track
Used output format : User Defined Encoder
Selected bitrate : 1024 kBit/s
Quality : High
Add ID3 tag : No
Command line compressor : C:\Program Files (x86)\Exact Audio Copy\Flac\flac.exe
Additional command line options : -8 -V -T "ARTIST=%artist%" -T "TITLE=%title%" -T "ALBUM=%albumtitle%" -T "DATE=%year%" -T "TRACKNUMBER=%tracknr%" -T "GENRE=%genre%" -T "PERFORMER=%albuminterpret%" -T "COMPOSER=%composer%" %haslyrics%--tag-from-file=LYRICS="%lyricsfile%"%haslyrics% -T "ALBUMARTIST=%albumartist%" -T "DISCNUMBER=%cdnumber%" -T "TOTALDISCS=%totalcds%" -T "TOTALTRACKS=%numtracks%" -T "COMMENT=%comment%" %source% -o %dest%
TOC of the extracted CD
Track | Start | Length | Start sector | End sector
---------------------------------------------------------
1 | 0:00.00 | 5:45.01 | 0 | 25875
2 | 5:45.01 | 5:13.48 | 25876 | 49398
3 | 10:58.49 | 9:52.10 | 49399 | 93808
4 | 20:50.59 | 5:53.67 | 93809 | 120350
5 | 26:44.51 | 7:34.20 | 120351 | 154420
6 | 34:18.71 | 7:34.46 | 154421 | 188516
7 | 41:53.42 | 3:03.04 | 188517 | 202245
8 | 44:56.46 | 2:15.72 | 202246 | 212442
9 | 47:12.43 | 2:48.58 | 212443 | 225100
Track 1
Filename D:\Rips\01 - [Beethoven] Sonata No. 22 in F major, Op. 54 - I. In tempo d'un Menuetto.wav
Pre-gap length 0:00:02.00
Peak level 75.6 %
Extraction speed 4.4 X
Track quality 100.0 %
Test CRC CDC2EE20
Copy CRC CDC2EE20
Track not present in AccurateRip database
Copy OK
Track 2
Filename D:\Rips\02 - II. Allegretto - Piu allegro.wav
Peak level 76.3 %
Extraction speed 4.9 X
Track quality 100.0 %
Test CRC 80D0CE3D
Copy CRC 80D0CE3D
Track not present in AccurateRip database
Copy OK
Track 3
Filename D:\Rips\03 - Sonata No. 23 in F minor, Op. 57 - I. Allegro assai - Piu allegro.wav
Peak level 74.1 %
Extraction speed 6.0 X
Track quality 100.0 %
Test CRC 4CF35E18
Copy CRC 4CF35E18
Track not present in AccurateRip database
Copy OK
Track 4
Filename D:\Rips\04 - II. Andante con moto.wav
Peak level 54.3 %
Extraction speed 5.4 X
Track quality 99.9 %
Test CRC AA84299C
Copy CRC AA84299C
Track not present in AccurateRip database
Copy OK
Track 5
Filename D:\Rips\05 - III. Allegro ma non troppo - Presto.wav
Peak level 84.4 %
Extraction speed 7.0 X
Track quality 100.0 %
Test CRC 35477498
Copy CRC 35477498
Track not present in AccurateRip database
Copy OK
Track 6
Filename D:\Rips\06 - [Schubert] Impromptu in A-flat major, D. 899.wav
Peak level 89.8 %
Extraction speed 7.4 X
Track quality 100.0 %
Test CRC 6992A36B
Copy CRC 6992A36B
Track not present in AccurateRip database
Copy OK
Track 7
Filename D:\Rips\07 - [Schumann] Fantasiestucke Op. 12 - II. Aufschwung.wav
Peak level 83.4 %
Extraction speed 7.0 X
Track quality 100.0 %
Test CRC F20EE459
Copy CRC F20EE459
Track not present in AccurateRip database
Copy OK
Track 8
Filename D:\Rips\08 - [Chopin] Etude in C major, Op. 10 No. 1.wav
Peak level 65.6 %
Extraction speed 6.7 X
Track quality 100.0 %
Test CRC C9E80AF8
Copy CRC C9E80AF8
Track not present in AccurateRip database
Copy OK
Track 9
Filename D:\Rips\09 - Etude in C minor, Op. 10 No. 12.wav
Peak level 76.8 %
Extraction speed 7.2 X
Track quality 100.0 %
Test CRC 1B5E5CB0
Copy CRC 1B5E5CB0
Track not present in AccurateRip database
Copy OK
None of the tracks are present in the AccurateRip database
No errors occurred
End of status report
---- CUETools DB Plugin V2.1.3
[CTDB TOCID: RRlOXxO9_vX9TtVTcweXqVaBiUU-] found, Submit result: RRlOXxO9_vX9TtVTcweXqVaBiUU- has been confirmed
[ec6c9fd2] (2/2) Accurately ripped
==== Log checksum E0B53F536B4E94AA52E5D6B9883BF3EFF68F3B5ABAC1B89FA46F9C3299130C3C ====
CD4

скрытый текст

Exact Audio Copy V1.0 beta 3 from 29. August 2011
EAC extraction logfile from 15. January 2015, 20:01
Sviatoslav Richter / RCA and Columbia Collection Vol. 4
Used drive : TSSTcorpCDDVDW SH-S223L Adapter: 6 ID: 0
Read mode : Secure
Utilize accurate stream : Yes
Defeat audio cache : Yes
Make use of C2 pointers : No
Read offset correction : 6
Overread into Lead-In and Lead-Out : No
Fill up missing offset samples with silence : Yes
Delete leading and trailing silent blocks : No
Null samples used in CRC calculations : Yes
Used interface : Native Win32 interface for Win NT & 2000
Gap handling : Appended to previous track
Used output format : User Defined Encoder
Selected bitrate : 1024 kBit/s
Quality : High
Add ID3 tag : No
Command line compressor : C:\Program Files (x86)\Exact Audio Copy\Flac\flac.exe
Additional command line options : -8 -V -T "ARTIST=%artist%" -T "TITLE=%title%" -T "ALBUM=%albumtitle%" -T "DATE=%year%" -T "TRACKNUMBER=%tracknr%" -T "GENRE=%genre%" -T "PERFORMER=%albuminterpret%" -T "COMPOSER=%composer%" %haslyrics%--tag-from-file=LYRICS="%lyricsfile%"%haslyrics% -T "ALBUMARTIST=%albumartist%" -T "DISCNUMBER=%cdnumber%" -T "TOTALDISCS=%totalcds%" -T "TOTALTRACKS=%numtracks%" -T "COMMENT=%comment%" %source% -o %dest%
TOC of the extracted CD
Track | Start | Length | Start sector | End sector
---------------------------------------------------------
1 | 0:00.00 | 5:09.04 | 0 | 23178
2 | 5:09.04 | 3:10.46 | 23179 | 37474
3 | 8:19.50 | 6:33.28 | 37475 | 66977
4 | 14:53.03 | 8:31.04 | 66978 | 105306
5 | 23:24.07 | 3:56.31 | 105307 | 123037
6 | 27:20.38 | 6:49.65 | 123038 | 153777
7 | 34:10.28 | 6:39.59 | 153778 | 183761
Track 1
Filename D:\Rips\01 - [Prokofiev] Sonatine Pastorale Op. 59 No. 3.wav
Pre-gap length 0:00:02.00
Peak level 58.1 %
Extraction speed 3.7 X
Track quality 99.9 %
Test CRC DE4C53E0
Copy CRC DE4C53E0
Track not present in AccurateRip database
Copy OK
Track 2
Filename D:\Rips\02 - Paysage Op. 59 No. 2.wav
Peak level 64.7 %
Extraction speed 4.5 X
Track quality 100.0 %
Test CRC DCC0F4BD
Copy CRC DCC0F4BD
Track not present in AccurateRip database
Copy OK
Track 3
Filename D:\Rips\03 - Pensee No. 3, Op. 62 No. 3.wav
Peak level 96.7 %
Extraction speed 4.7 X
Track quality 99.9 %
Test CRC 6D4F22E2
Copy CRC 6D4F22E2
Track not present in AccurateRip database
Copy OK
Track 4
Filename D:\Rips\04 - Sonata No. 6 in A major, Op. 82 - I. Allegro moderato.wav
Peak level 79.7 %
Extraction speed 6.2 X
Track quality 100.0 %
Test CRC AFBBF0F9
Copy CRC AFBBF0F9
Track not present in AccurateRip database
Copy OK
Track 5
Filename D:\Rips\05 - II. Allegretto.wav
Peak level 72.6 %
Extraction speed 6.1 X
Track quality 100.0 %
Test CRC C4F55CBF
Copy CRC C4F55CBF
Track not present in AccurateRip database
Copy OK
Track 6
Filename D:\Rips\06 - III. Tempo di valzer lentissimo.wav
Peak level 92.0 %
Extraction speed 6.9 X
Track quality 100.0 %
Test CRC 39AD6056
Copy CRC 39AD6056
Track not present in AccurateRip database
Copy OK
Track 7
Filename D:\Rips\07 - IV. Vivace.wav
Peak level 92.3 %
Extraction speed 7.3 X
Track quality 100.0 %
Test CRC 2E766854
Copy CRC 2E766854
Track not present in AccurateRip database
Copy OK
None of the tracks are present in the AccurateRip database
No errors occurred
End of status report
---- CUETools DB Plugin V2.1.3
[CTDB TOCID: sv37rbhKM66iKmqB98qBD2nAmOM-] found, Submit result: sv37rbhKM66iKmqB98qBD2nAmOM- has been confirmed
[07c82afd] (1/1) Accurately ripped
==== Log checksum 520983A72F7D81DFC14A69D8BFDB7FAAF0F87012CF1D55CEC26048E094E2DEF7 ====
CD5

скрытый текст

Exact Audio Copy V1.0 beta 3 from 29. August 2011
EAC extraction logfile from 15. January 2015, 20:33
Sviatoslav Richter / RCA and Columbia Collection Vol. 5
Used drive : TSSTcorpCDDVDW SH-S223L Adapter: 6 ID: 0
Read mode : Secure
Utilize accurate stream : Yes
Defeat audio cache : Yes
Make use of C2 pointers : No
Read offset correction : 6
Overread into Lead-In and Lead-Out : No
Fill up missing offset samples with silence : Yes
Delete leading and trailing silent blocks : No
Null samples used in CRC calculations : Yes
Used interface : Native Win32 interface for Win NT & 2000
Gap handling : Appended to previous track
Used output format : User Defined Encoder
Selected bitrate : 1024 kBit/s
Quality : High
Add ID3 tag : No
Command line compressor : C:\Program Files (x86)\Exact Audio Copy\Flac\flac.exe
Additional command line options : -8 -V -T "ARTIST=%artist%" -T "TITLE=%title%" -T "ALBUM=%albumtitle%" -T "DATE=%year%" -T "TRACKNUMBER=%tracknr%" -T "GENRE=%genre%" -T "PERFORMER=%albuminterpret%" -T "COMPOSER=%composer%" %haslyrics%--tag-from-file=LYRICS="%lyricsfile%"%haslyrics% -T "ALBUMARTIST=%albumartist%" -T "DISCNUMBER=%cdnumber%" -T "TOTALDISCS=%totalcds%" -T "TOTALTRACKS=%numtracks%" -T "COMMENT=%comment%" %source% -o %dest%
TOC of the extracted CD
Track | Start | Length | Start sector | End sector
---------------------------------------------------------
1 | 0:00.00 | 16:16.05 | 0 | 73204
2 | 16:16.05 | 3:50.24 | 73205 | 90478
3 | 20:06.29 | 9:38.08 | 90479 | 133836
4 | 29:44.37 | 10:00.56 | 133837 | 178892
Track 1
Filename D:\Rips\01 - [Prokofiev] Sonata No. 8 in B-flat major, Op. 84 - I. Andante dolce.wav
Pre-gap length 0:00:02.00
Peak level 96.8 %
Extraction speed 2.1 X
Track quality 99.9 %
Test CRC AACEF5BD
Copy CRC AACEF5BD
Track not present in AccurateRip database
Copy OK
Track 2
Filename D:\Rips\02 - II. Andante sognando.wav
Peak level 52.6 %
Extraction speed 2.3 X
Track quality 100.0 %
Test CRC AF7A3094
Copy CRC AF7A3094
Track not present in AccurateRip database
Copy OK
Track 3
Filename D:\Rips\03 - III. Vivace - Allegro ben marcato.wav
Peak level 93.7 %
Extraction speed 2.8 X
Track quality 100.0 %
Test CRC 4894255A
Copy CRC 4894255A
Track not present in AccurateRip database
Copy OK
Track 4
Filename D:\Rips\04 - III. Vivace - Allegro ben marcato [encore].wav
Peak level 94.0 %
Extraction speed 3.1 X
Track quality 100.0 %
Test CRC A58BF3A3
Copy CRC A58BF3A3
Track not present in AccurateRip database
Copy OK
None of the tracks are present in the AccurateRip database
No errors occurred
End of status report
---- CUETools DB Plugin V2.1.3
[CTDB TOCID: rkz.HznPiLtzlQMtn.5c0wOPgrM-] found, Submit result: rkz.HznPiLtzlQMtn.5c0wOPgrM- has been confirmed
[aba55c3f] (1/1) Accurately ripped
==== Log checksum 77BF8D7A52E66430E64B3A121C960BF9BA2B52AA060CD91BB36620785BF4F9AC ====
CD6

скрытый текст

Exact Audio Copy V1.0 beta 3 from 29. August 2011
EAC extraction logfile from 16. January 2015, 16:35
Sviatoslav Richter / RCA and Columbia Collection Vol. 6
Used drive : TSSTcorpCDDVDW SH-S223L Adapter: 6 ID: 0
Read mode : Secure
Utilize accurate stream : Yes
Defeat audio cache : Yes
Make use of C2 pointers : No
Read offset correction : 6
Overread into Lead-In and Lead-Out : No
Fill up missing offset samples with silence : Yes
Delete leading and trailing silent blocks : No
Null samples used in CRC calculations : Yes
Used interface : Native Win32 interface for Win NT & 2000
Gap handling : Appended to previous track
Used output format : User Defined Encoder
Selected bitrate : 1024 kBit/s
Quality : High
Add ID3 tag : No
Command line compressor : C:\Program Files (x86)\Exact Audio Copy\Flac\flac.exe
Additional command line options : -8 -V -T "ARTIST=%artist%" -T "TITLE=%title%" -T "ALBUM=%albumtitle%" -T "DATE=%year%" -T "TRACKNUMBER=%tracknr%" -T "GENRE=%genre%" -T "PERFORMER=%albuminterpret%" -T "COMPOSER=%composer%" %haslyrics%--tag-from-file=LYRICS="%lyricsfile%"%haslyrics% -T "ALBUMARTIST=%albumartist%" -T "DISCNUMBER=%cdnumber%" -T "TOTALDISCS=%totalcds%" -T "TOTALTRACKS=%numtracks%" -T "COMMENT=%comment%" %source% -o %dest%
TOC of the extracted CD
Track | Start | Length | Start sector | End sector
---------------------------------------------------------
1 | 0:00.00 | 9:28.29 | 0 | 42628
2 | 9:28.29 | 6:19.63 | 42629 | 71116
3 | 15:48.17 | 2:53.08 | 71117 | 84099
4 | 18:41.25 | 5:26.45 | 84100 | 108594
5 | 24:07.70 | 5:39.54 | 108595 | 134073
6 | 29:47.49 | 11:16.09 | 134074 | 184782
Track 1
Filename D:\Rips\01 - [Haydn] Sonata in C major, Hob. XVI-50 - I. Allegro.wav
Pre-gap length 0:00:02.00
Peak level 70.7 %
Extraction speed 4.4 X
Track quality 99.9 %
Test CRC BA6BBFF2
Copy CRC BA6BBFF2
Track not present in AccurateRip database
Copy OK
Track 2
Filename D:\Rips\02 - II. Adagio.wav
Peak level 43.4 %
Extraction speed 5.5 X
Track quality 100.0 %
Test CRC F7E6B85F
Copy CRC F7E6B85F
Track not present in AccurateRip database
Copy OK
Track 3
Filename D:\Rips\03 - III. Allegro molto.wav
Peak level 62.8 %
Extraction speed 5.3 X
Track quality 100.0 %
Test CRC 8FD49CF2
Copy CRC 8FD49CF2
Track not present in AccurateRip database
Copy OK
Track 4
Filename D:\Rips\04 - [Schumann] Novellette Op. 21 No. 1 in F major.wav
Peak level 80.8 %
Extraction speed 6.2 X
Track quality 100.0 %
Test CRC 33A2D93C
Copy CRC 33A2D93C
Track not present in AccurateRip database
Copy OK
Track 5
Filename D:\Rips\05 - Novellette Op. 21 No. 2 in D major.wav
Peak level 62.5 %
Extraction speed 6.6 X
Track quality 100.0 %
Test CRC 4A0CA714
Copy CRC 4A0CA714
Track not present in AccurateRip database
Copy OK
Track 6
Filename D:\Rips\06 - Novellette Op. 21 No. 8 in F-sharp minor.wav
Peak level 80.8 %
Extraction speed 7.5 X
Track quality 100.0 %
Test CRC CBB3D453
Copy CRC CBB3D453
Track not present in AccurateRip database
Copy OK
None of the tracks are present in the AccurateRip database
No errors occurred
End of status report
---- CUETools DB Plugin V2.1.3
[CTDB TOCID: xYktXJ8dw5kU.RUL8jhXMVu3ODk-] found, Submit result: already submitted
[e707e533] (2/2) Accurately ripped
==== Log checksum 04ADC279968571F0D8646AF8ADB683816A6A6786D3DFEA603CDBE5ED6FA21FC5 ====
CD7

скрытый текст

Exact Audio Copy V1.0 beta 3 from 29. August 2011
EAC extraction logfile from 15. January 2015, 21:19
Sviatoslav Richter / RCA and Columbia Collection Vol. 7
Used drive : TSSTcorpCDDVDW SH-S223L Adapter: 6 ID: 0
Read mode : Secure
Utilize accurate stream : Yes
Defeat audio cache : Yes
Make use of C2 pointers : No
Read offset correction : 6
Overread into Lead-In and Lead-Out : No
Fill up missing offset samples with silence : Yes
Delete leading and trailing silent blocks : No
Null samples used in CRC calculations : Yes
Used interface : Native Win32 interface for Win NT & 2000
Gap handling : Appended to previous track
Used output format : User Defined Encoder
Selected bitrate : 1024 kBit/s
Quality : High
Add ID3 tag : No
Command line compressor : C:\Program Files (x86)\Exact Audio Copy\Flac\flac.exe
Additional command line options : -8 -V -T "ARTIST=%artist%" -T "TITLE=%title%" -T "ALBUM=%albumtitle%" -T "DATE=%year%" -T "TRACKNUMBER=%tracknr%" -T "GENRE=%genre%" -T "PERFORMER=%albuminterpret%" -T "COMPOSER=%composer%" %haslyrics%--tag-from-file=LYRICS="%lyricsfile%"%haslyrics% -T "ALBUMARTIST=%albumartist%" -T "DISCNUMBER=%cdnumber%" -T "TOTALDISCS=%totalcds%" -T "TOTALTRACKS=%numtracks%" -T "COMMENT=%comment%" %source% -o %dest%
TOC of the extracted CD
Track | Start | Length | Start sector | End sector
---------------------------------------------------------
1 | 0:00.00 | 5:04.68 | 0 | 22867
2 | 5:04.68 | 3:40.21 | 22868 | 39388
3 | 8:45.14 | 5:38.66 | 39389 | 64804
4 | 14:24.05 | 3:39.15 | 64805 | 81244
5 | 18:03.20 | 5:06.32 | 81245 | 104226
6 | 23:09.52 | 7:25.38 | 104227 | 137639
7 | 30:35.15 | 3:16.19 | 137640 | 152358
8 | 33:51.34 | 5:57.46 | 152359 | 179179
9 | 39:49.05 | 5:23.25 | 179180 | 203429
10 | 45:12.30 | 2:11.71 | 203430 | 213325
11 | 47:24.26 | 3:15.46 | 213326 | 227996
Track 1
Filename D:\Rips\01 - [Debussy] Suite Bergamasque - I. Prelude.wav
Pre-gap length 0:00:02.00
Peak level 63.7 %
Extraction speed 4.4 X
Track quality 100.0 %
Test CRC D2167031
Copy CRC D2167031
Track not present in AccurateRip database
Copy OK
Track 2
Filename D:\Rips\02 - II. Menuet.wav
Peak level 59.8 %
Extraction speed 4.6 X
Track quality 100.0 %
Test CRC 0F4D3D2F
Copy CRC 0F4D3D2F
Track not present in AccurateRip database
Copy OK
Track 3
Filename D:\Rips\03 - III. Clair de lune.wav
Peak level 43.2 %
Extraction speed 5.4 X
Track quality 100.0 %
Test CRC E09ADDB0
Copy CRC E09ADDB0
Track not present in AccurateRip database
Copy OK
Track 4
Filename D:\Rips\04 - IV. Passepied.wav
Peak level 72.5 %
Extraction speed 5.5 X
Track quality 100.0 %
Test CRC 7213E024
Copy CRC 7213E024
Track not present in AccurateRip database
Copy OK
Track 5
Filename D:\Rips\05 - Images, Book 1 - I. Relfets dans l'eau.wav
Peak level 70.4 %
Extraction speed 5.1 X
Track quality 99.9 %
Test CRC 711A82E2
Copy CRC 711A82E2
Track not present in AccurateRip database
Copy OK
Track 6
Filename D:\Rips\06 - II. Hommage a Rameau.wav
Peak level 69.2 %
Extraction speed 5.9 X
Track quality 99.9 %
Test CRC 68604629
Copy CRC 68604629
Track not present in AccurateRip database
Copy OK
Track 7
Filename D:\Rips\07 - III. Mouvement.wav
Peak level 82.7 %
Extraction speed 6.5 X
Track quality 100.0 %
Test CRC 011393E9
Copy CRC 011393E9
Track not present in AccurateRip database
Copy OK
Track 8
Filename D:\Rips\08 - L'isle Joyeuse.wav
Peak level 85.7 %
Extraction speed 7.3 X
Track quality 100.0 %
Test CRC 4F9385E7
Copy CRC 4F9385E7
Track not present in AccurateRip database
Copy OK
Track 9
Filename D:\Rips\09 - Images, Book 2 - I. Cloches a travers les feuilles.wav
Peak level 72.3 %
Extraction speed 6.4 X
Track quality 99.9 %
Test CRC E88314A7
Copy CRC E88314A7
Track not present in AccurateRip database
Copy OK
Track 10
Filename D:\Rips\10 - Preludes, Book 1 - III. Le Vent dans la plaine.wav
Peak level 62.2 %
Extraction speed 6.8 X
Track quality 100.0 %
Test CRC B7D8CE5F
Copy CRC B7D8CE5F
Track not present in AccurateRip database
Copy OK
Track 11
Filename D:\Rips\11 - V. Les Collines d'Anacapri.wav
Peak level 77.8 %
Extraction speed 7.4 X
Track quality 100.0 %
Test CRC ED065A3B
Copy CRC ED065A3B
Track not present in AccurateRip database
Copy OK
None of the tracks are present in the AccurateRip database
No errors occurred
End of status report
---- CUETools DB Plugin V2.1.3
[CTDB TOCID: WwhJx_bHQynbq0g6QLdAc7Us660-] found, Submit result: WwhJx_bHQynbq0g6QLdAc7Us660- has been confirmed
[b0d51d06] (1/1) Accurately ripped
==== Log checksum CCF632B64254E4514A21718B6ECA310CBE6BC66D9D6B3360B2CD4C512A492BC8 ====
CD8

скрытый текст

Exact Audio Copy V1.0 beta 3 from 29. August 2011
EAC extraction logfile from 15. January 2015, 21:49
Sviatoslav Richter / RCA and Columbia Collection Vol. 8
Used drive : TSSTcorpCDDVDW SH-S223L Adapter: 6 ID: 0
Read mode : Secure
Utilize accurate stream : Yes
Defeat audio cache : Yes
Make use of C2 pointers : No
Read offset correction : 6
Overread into Lead-In and Lead-Out : No
Fill up missing offset samples with silence : Yes
Delete leading and trailing silent blocks : No
Null samples used in CRC calculations : Yes
Used interface : Native Win32 interface for Win NT & 2000
Gap handling : Appended to previous track
Used output format : User Defined Encoder
Selected bitrate : 1024 kBit/s
Quality : High
Add ID3 tag : No
Command line compressor : C:\Program Files (x86)\Exact Audio Copy\Flac\flac.exe
Additional command line options : -8 -V -T "ARTIST=%artist%" -T "TITLE=%title%" -T "ALBUM=%albumtitle%" -T "DATE=%year%" -T "TRACKNUMBER=%tracknr%" -T "GENRE=%genre%" -T "PERFORMER=%albuminterpret%" -T "COMPOSER=%composer%" %haslyrics%--tag-from-file=LYRICS="%lyricsfile%"%haslyrics% -T "ALBUMARTIST=%albumartist%" -T "DISCNUMBER=%cdnumber%" -T "TOTALDISCS=%totalcds%" -T "TOTALTRACKS=%numtracks%" -T "COMMENT=%comment%" %source% -o %dest%
TOC of the extracted CD
Track | Start | Length | Start sector | End sector
---------------------------------------------------------
1 | 0:00.00 | 6:44.08 | 0 | 30307
2 | 6:44.08 | 8:49.11 | 30308 | 69993
3 | 15:33.19 | 2:53.40 | 69994 | 83008
4 | 18:26.59 | 4:07.53 | 83009 | 101586
5 | 22:34.37 | 5:12.13 | 101587 | 124999
6 | 27:46.50 | 5:34.26 | 125000 | 150075
7 | 33:21.01 | 10:48.05 | 150076 | 198680
Track 1
Filename D:\Rips\01 - [Beethoven] Sonata No. 7 in D major, Op. 10 No. 3 - I. Presto.wav
Pre-gap length 0:00:02.00
Peak level 73.9 %
Extraction speed 4.5 X
Track quality 100.0 %
Test CRC 260F74CA
Copy CRC 260F74CA
Track not present in AccurateRip database
Copy OK
Track 2
Filename D:\Rips\02 - II. Largo e mesto.wav
Peak level 69.2 %
Extraction speed 5.5 X
Track quality 100.0 %
Test CRC 4B947AAB
Copy CRC 4B947AAB
Track not present in AccurateRip database
Copy OK
Track 3
Filename D:\Rips\03 - III. Menuetto (Allegro).wav
Peak level 73.5 %
Extraction speed 5.3 X
Track quality 100.0 %
Test CRC BAB1ADB2
Copy CRC BAB1ADB2
Track not present in AccurateRip database
Copy OK
Track 4
Filename D:\Rips\04 - IV. Rondo (Allegro).wav
Peak level 93.7 %
Extraction speed 5.8 X
Track quality 100.0 %
Test CRC 147312EE
Copy CRC 147312EE
Track not present in AccurateRip database
Copy OK
Track 5
Filename D:\Rips\05 - [Schumann] Novellette Op. 21 No. 1 in F major.wav
Peak level 76.3 %
Extraction speed 6.4 X
Track quality 100.0 %
Test CRC 41910B3C
Copy CRC 41910B3C
Track not present in AccurateRip database
Copy OK
Track 6
Filename D:\Rips\06 - Novellette Op. 21 No. 2 in D major.wav
Peak level 69.0 %
Extraction speed 6.7 X
Track quality 100.0 %
Test CRC CE30E76D
Copy CRC CE30E76D
Track not present in AccurateRip database
Copy OK
Track 7
Filename D:\Rips\07 - Novellette Op. 21 No. 8 in F-sharp minor.wav
Peak level 78.7 %
Extraction speed 7.0 X
Track quality 99.9 %
Test CRC 452517E2
Copy CRC 452517E2
Track not present in AccurateRip database
Copy OK
None of the tracks are present in the AccurateRip database
No errors occurred
End of status report
---- CUETools DB Plugin V2.1.3
[CTDB TOCID: BPZ1jlxlsMCEH6.ZqZviQ5yaCHY-] disk not present in database, Submit result: BPZ1jlxlsMCEH6.ZqZviQ5yaCHY- has been uploaded
==== Log checksum AEBE2D3FE124344743C590CFF74872DC65476C985DF89358B88FF49878A0B34F ====
CD9

скрытый текст

Exact Audio Copy V1.0 beta 3 from 29. August 2011
EAC extraction logfile from 15. January 2015, 22:44
Sviatoslav Richter / RCA and Columbia Collection Vol. 9
Used drive : TSSTcorpCDDVDW SH-S223L Adapter: 6 ID: 0
Read mode : Secure
Utilize accurate stream : Yes
Defeat audio cache : Yes
Make use of C2 pointers : No
Read offset correction : 6
Overread into Lead-In and Lead-Out : No
Fill up missing offset samples with silence : Yes
Delete leading and trailing silent blocks : No
Null samples used in CRC calculations : Yes
Used interface : Native Win32 interface for Win NT & 2000
Gap handling : Appended to previous track
Used output format : User Defined Encoder
Selected bitrate : 1024 kBit/s
Quality : High
Add ID3 tag : No
Command line compressor : C:\Program Files (x86)\Exact Audio Copy\Flac\flac.exe
Additional command line options : -8 -V -T "ARTIST=%artist%" -T "TITLE=%title%" -T "ALBUM=%albumtitle%" -T "DATE=%year%" -T "TRACKNUMBER=%tracknr%" -T "GENRE=%genre%" -T "PERFORMER=%albuminterpret%" -T "COMPOSER=%composer%" %haslyrics%--tag-from-file=LYRICS="%lyricsfile%"%haslyrics% -T "ALBUMARTIST=%albumartist%" -T "DISCNUMBER=%cdnumber%" -T "TOTALDISCS=%totalcds%" -T "TOTALTRACKS=%numtracks%" -T "COMMENT=%comment%" %source% -o %dest%
TOC of the extracted CD
Track | Start | Length | Start sector | End sector
---------------------------------------------------------
1 | 0:00.00 | 4:04.73 | 0 | 18372
2 | 4:04.73 | 2:22.45 | 18373 | 29067
3 | 6:27.43 | 5:19.22 | 29068 | 53014
4 | 11:46.65 | 2:12.32 | 53015 | 62946
5 | 13:59.22 | 2:52.60 | 62947 | 75906
6 | 16:52.07 | 1:06.22 | 75907 | 80878
7 | 17:58.29 | 2:50.17 | 80879 | 93645
8 | 20:48.46 | 1:16.37 | 93646 | 99382
9 | 22:05.08 | 1:58.41 | 99383 | 108273
10 | 24:03.49 | 3:26.55 | 108274 | 123778
11 | 27:30.29 | 4:41.44 | 123779 | 144897
12 | 32:11.73 | 4:01.47 | 144898 | 163019
13 | 36:13.45 | 2:39.24 | 163020 | 174968
14 | 38:52.69 | 4:27.70 | 174969 | 195063
15 | 43:20.64 | 2:45.49 | 195064 | 207487
16 | 46:06.38 | 5:04.43 | 207488 | 230330
17 | 51:11.06 | 2:43.22 | 230331 | 242577
Track 1
Filename D:\Rips\01 - [Rachmaninoff] Prelude in F-sharp minor, Op. 23 No. 1.wav
Pre-gap length 0:00:02.00
Peak level 65.3 %
Extraction speed 4.2 X
Track quality 100.0 %
Test CRC E8FFE01D
Copy CRC E8FFE01D
Track not present in AccurateRip database
Copy OK
Track 2
Filename D:\Rips\02 - Prelude in A major, Op. 32 No. 9.wav
Peak level 75.1 %
Extraction speed 4.1 X
Track quality 100.0 %
Test CRC 649E59EC
Copy CRC 649E59EC
Track not present in AccurateRip database
Copy OK
Track 3
Filename D:\Rips\03 - Prelude in B minor, Op. 32 No. 10.wav
Peak level 82.0 %
Extraction speed 5.0 X
Track quality 100.0 %
Test CRC E612A081
Copy CRC E612A081
Track not present in AccurateRip database
Copy OK
Track 4
Filename D:\Rips\04 - Prelude in G-sharp minor, Op. 32 No. 12.wav
Peak level 56.7 %
Extraction speed 4.7 X
Track quality 100.0 %
Test CRC 17FCC853
Copy CRC 17FCC853
Track not present in AccurateRip database
Copy OK
Track 5
Filename D:\Rips\05 - Prelude in A-flat major, Op. 23 No. 8.wav
Peak level 41.3 %
Extraction speed 5.2 X
Track quality 100.0 %
Test CRC EF3CE263
Copy CRC EF3CE263
Track not present in AccurateRip database
Copy OK
Track 6
Filename D:\Rips\06 - Prelude in C major, Op. 32 No. 1.wav
Peak level 63.1 %
Extraction speed 4.1 X
Track quality 100.0 %
Test CRC FBA95ECF
Copy CRC FBA95ECF
Track not present in AccurateRip database
Copy OK
Track 7
Filename D:\Rips\07 - Prelude in B-flat minor, Op. 32 No. 2.wav
Peak level 47.3 %
Extraction speed 5.5 X
Track quality 100.0 %
Test CRC 297E7D54
Copy CRC 297E7D54
Track not present in AccurateRip database
Copy OK
Track 8
Filename D:\Rips\08 - Prelude in F minor, Op. 32 No. 6.wav
Peak level 63.2 %
Extraction speed 4.6 X
Track quality 100.0 %
Test CRC 05B9C478
Copy CRC 05B9C478
Track not present in AccurateRip database
Copy OK
Track 9
Filename D:\Rips\09 - Prelude in F major, Op. 32 No. 7.wav
Peak level 40.7 %
Extraction speed 3.7 X
Track quality 99.9 %
Test CRC 7AA1FFA7
Copy CRC 7AA1FFA7
Track not present in AccurateRip database
Copy OK
Track 10
Filename D:\Rips\10 - Prelude in B-flat major, Op. 23 No. 2.wav
Peak level 86.1 %
Extraction speed 6.0 X
Track quality 100.0 %
Test CRC 2262FFE0
Copy CRC 2262FFE0
Track not present in AccurateRip database
Copy OK
Track 11
Filename D:\Rips\11 - Prelude in D major, Op. 23 No. 4.wav
Peak level 62.6 %
Extraction speed 6.6 X
Track quality 100.0 %
Test CRC E67CAA15
Copy CRC E67CAA15
Track not present in AccurateRip database
Copy OK
Track 12
Filename D:\Rips\12 - Prelude in G minor, Op. 23 No. 5.wav
Peak level 81.2 %
Extraction speed 6.7 X
Track quality 100.0 %
Test CRC 805CEB7C
Copy CRC 805CEB7C
Track not present in AccurateRip database
Copy OK
Track 13
Filename D:\Rips\13 - Prelude in C minor, Op. 23 No. 7.wav
Peak level 72.2 %
Extraction speed 6.5 X
Track quality 100.0 %
Test CRC E737D15B
Copy CRC E737D15B
Track not present in AccurateRip database
Copy OK
Track 14
Filename D:\Rips\14 - [Chopin] Etude in E major, Op. 10 No. 3.wav
Peak level 86.8 %
Extraction speed 5.9 X
Track quality 99.9 %
Test CRC 5D1D536F
Copy CRC 5D1D536F
Track not present in AccurateRip database
Copy OK
Track 15
Filename D:\Rips\15 - Mazurka in C major, Op. 24 No. 2.wav
Peak level 76.6 %
Extraction speed 5.2 X
Track quality 99.9 %
Test CRC E719C006
Copy CRC E719C006
Track not present in AccurateRip database
Copy OK
Track 16
Filename D:\Rips\16 - [Debussy] Images Book 2 - I. Cloches a travers les feuilles.wav
Peak level 61.2 %
Extraction speed 7.8 X
Track quality 100.0 %
Test CRC 6234E605
Copy CRC 6234E605
Track not present in AccurateRip database
Copy OK
Track 17
Filename D:\Rips\17 - [Prokofiev] Gavotte Op. 95 No. 2.wav
Peak level 79.0 %
Extraction speed 7.3 X
Track quality 100.0 %
Test CRC 70C61BEC
Copy CRC 70C61BEC
Track not present in AccurateRip database
Copy OK
None of the tracks are present in the AccurateRip database
No errors occurred
End of status report
---- CUETools DB Plugin V2.1.3
[CTDB TOCID: V6LblwC4LY7vgxJkKRtp6ltQIIM-] disk not present in database, Submit result: V6LblwC4LY7vgxJkKRtp6ltQIIM- has been uploaded
==== Log checksum A2C343EE5A7578B69D294C0A8AFC4AEA1524C57711E446C5A0499E6DD2A6D89B ====
CD10

скрытый текст

Exact Audio Copy V1.0 beta 3 from 29. August 2011
EAC extraction logfile from 16. January 2015, 16:17
Sviatoslav Richter / RCA and Columbia Collection Vol. 10
Used drive : TSSTcorpCDDVDW SH-S223L Adapter: 6 ID: 0
Read mode : Secure
Utilize accurate stream : Yes
Defeat audio cache : Yes
Make use of C2 pointers : No
Read offset correction : 6
Overread into Lead-In and Lead-Out : No
Fill up missing offset samples with silence : Yes
Delete leading and trailing silent blocks : No
Null samples used in CRC calculations : Yes
Used interface : Native Win32 interface for Win NT & 2000
Gap handling : Appended to previous track
Used output format : User Defined Encoder
Selected bitrate : 1024 kBit/s
Quality : High
Add ID3 tag : No
Command line compressor : C:\Program Files (x86)\Exact Audio Copy\Flac\flac.exe
Additional command line options : -8 -V -T "ARTIST=%artist%" -T "TITLE=%title%" -T "ALBUM=%albumtitle%" -T "DATE=%year%" -T "TRACKNUMBER=%tracknr%" -T "GENRE=%genre%" -T "PERFORMER=%albuminterpret%" -T "COMPOSER=%composer%" %haslyrics%--tag-from-file=LYRICS="%lyricsfile%"%haslyrics% -T "ALBUMARTIST=%albumartist%" -T "DISCNUMBER=%cdnumber%" -T "TOTALDISCS=%totalcds%" -T "TOTALTRACKS=%numtracks%" -T "COMMENT=%comment%" %source% -o %dest%
TOC of the extracted CD
Track | Start | Length | Start sector | End sector
---------------------------------------------------------
1 | 0:00.00 | 13:54.02 | 0 | 62551
2 | 13:54.02 | 6:34.40 | 62552 | 92141
3 | 20:28.42 | 11:11.69 | 92142 | 142535
4 | 31:40.36 | 11:40.60 | 142536 | 195095
5 | 43:21.21 | 7:38.03 | 195096 | 229448
6 | 50:59.24 | 4:51.54 | 229449 | 251327
7 | 55:51.03 | 3:53.60 | 251328 | 268862
8 | 59:44.63 | 10:19.71 | 268863 | 315358
9 | 70:04.59 | 2:52.70 | 315359 | 328328
Track 1
Filename D:\Rips\01 - [Schumann] Fantasy in C major, Op. 17 - I. Durchaus Fantastich.wav
Pre-gap length 0:00:02.00
Peak level 84.6 %
Extraction speed 5.4 X
Track quality 100.0 %
Test CRC BF975ECA
Copy CRC BF975ECA
Track not present in AccurateRip database
Copy OK
Track 2
Filename D:\Rips\02 - II. Massig.wav
Peak level 99.7 %
Extraction speed 6.1 X
Track quality 100.0 %
Test CRC 23E98513
Copy CRC 23E98513
Track not present in AccurateRip database
Copy OK
Track 3
Filename D:\Rips\03 - III. Langsam getragen.wav
Peak level 81.8 %
Extraction speed 6.5 X
Track quality 99.9 %
Test CRC 25169D4C
Copy CRC 25169D4C
Track not present in AccurateRip database
Copy OK
Track 4
Filename D:\Rips\04 - [Chopin] Scherzo No. 4 in E Minor, Op. 54.wav
Peak level 83.2 %
Extraction speed 7.9 X
Track quality 100.0 %
Test CRC 3D29A6F8
Copy CRC 3D29A6F8
Track not present in AccurateRip database
Copy OK
Track 5
Filename D:\Rips\05 - [Ravel] Pavane pour une infante defunte.wav
Peak level 71.9 %
Extraction speed 8.4 X
Track quality 100.0 %
Test CRC DEC508AD
Copy CRC DEC508AD
Track not present in AccurateRip database
Copy OK
Track 6
Filename D:\Rips\06 - Jeux d'eau.wav
Peak level 53.5 %
Extraction speed 8.4 X
Track quality 100.0 %
Test CRC EF5322E7
Copy CRC EF5322E7
Track not present in AccurateRip database
Copy OK
Track 7
Filename D:\Rips\07 - Miroirs No. 2 - Oiseaux Tristes.wav
Peak level 51.4 %
Extraction speed 8.2 X
Track quality 100.0 %
Test CRC DB46DC77
Copy CRC DB46DC77
Track not present in AccurateRip database
Copy OK
Track 8
Filename D:\Rips\08 - [Scriabin] Sonata No. 5 in F-sharp major, Op. 53.wav
Peak level 80.1 %
Extraction speed 9.4 X
Track quality 100.0 %
Test CRC 04D882D5
Copy CRC 04D882D5
Track not present in AccurateRip database
Copy OK
Track 9
Filename D:\Rips\09 - [Rachmaninoff] Prelude in G-sharp minor, Op. 32 No. 12.wav
Peak level 69.0 %
Extraction speed 8.6 X
Track quality 100.0 %
Test CRC 69702ADB
Copy CRC 69702ADB
Track not present in AccurateRip database
Copy OK
None of the tracks are present in the AccurateRip database
No errors occurred
End of status report
---- CUETools DB Plugin V2.1.3
[CTDB TOCID: 6gEnzNaRDPe7EHlMWSY8IwJbhPA-] found, Submit result: already submitted
[a8b77a86] (1/1) Accurately ripped
==== Log checksum CB62EEA92C54FB11E3BCADA01C6AF09B6FEE31D6709018B1CDE8568CF9EC9D64 ====
CD11

скрытый текст

Exact Audio Copy V1.0 beta 3 from 29. August 2011
EAC extraction logfile from 16. January 2015, 15:53
Sviatoslav Richter / RCA and Columbia Collection Vol. 1
Used drive : TSSTcorpCDDVDW SH-S223L Adapter: 6 ID: 0
Read mode : Secure
Utilize accurate stream : Yes
Defeat audio cache : Yes
Make use of C2 pointers : No
Read offset correction : 6
Overread into Lead-In and Lead-Out : No
Fill up missing offset samples with silence : Yes
Delete leading and trailing silent blocks : No
Null samples used in CRC calculations : Yes
Used interface : Native Win32 interface for Win NT & 2000
Gap handling : Appended to previous track
Used output format : User Defined Encoder
Selected bitrate : 1024 kBit/s
Quality : High
Add ID3 tag : No
Command line compressor : C:\Program Files (x86)\Exact Audio Copy\Flac\flac.exe
Additional command line options : -8 -V -T "ARTIST=%artist%" -T "TITLE=%title%" -T "ALBUM=%albumtitle%" -T "DATE=%year%" -T "TRACKNUMBER=%tracknr%" -T "GENRE=%genre%" -T "PERFORMER=%albuminterpret%" -T "COMPOSER=%composer%" %haslyrics%--tag-from-file=LYRICS="%lyricsfile%"%haslyrics% -T "ALBUMARTIST=%albumartist%" -T "DISCNUMBER=%cdnumber%" -T "TOTALDISCS=%totalcds%" -T "TOTALTRACKS=%numtracks%" -T "COMMENT=%comment%" %source% -o %dest%
TOC of the extracted CD
Track | Start | Length | Start sector | End sector
---------------------------------------------------------
1 | 0:00.00 | 16:29.28 | 0 | 74202
2 | 16:29.28 | 11:48.15 | 74203 | 127317
3 | 28:17.43 | 8:49.08 | 127318 | 167000
4 | 37:06.51 | 5:55.72 | 167001 | 193697
5 | 43:02.48 | 4:57.53 | 193698 | 216025
Track 1
Filename D:\Rips\01 - [Beethoven] Piano Concerto No. 1, Op. 15 - I Allegro con brio.wav
Pre-gap length 0:00:02.00
Peak level 84.9 %
Extraction speed 5.0 X
Track quality 99.9 %
Test CRC 816543B9
Copy CRC 816543B9
Track not present in AccurateRip database
Copy OK
Track 2
Filename D:\Rips\02 - II. Largo.wav
Peak level 77.7 %
Extraction speed 6.6 X
Track quality 100.0 %
Test CRC 0E699A21
Copy CRC 0E699A21
Track not present in AccurateRip database
Copy OK
Track 3
Filename D:\Rips\03 - III. Rondo. Allegro Scherzando.wav
Peak level 85.5 %
Extraction speed 7.2 X
Track quality 100.0 %
Test CRC 48D2BF6B
Copy CRC 48D2BF6B
Track not present in AccurateRip database
Copy OK
Track 4
Filename D:\Rips\04 - Sonata No. 22 in F major, Op. 54 - I. In tempo d'un Menuetto.wav
Pre-gap length 0:00:06.00
Peak level 94.4 %
Extraction speed 7.4 X
Track quality 100.0 %
Test CRC 7C8E5326
Copy CRC 7C8E5326
Track not present in AccurateRip database
Copy OK
Track 5
Filename D:\Rips\05 - II. Allegretto. Piu allegro.wav
Peak level 96.4 %
Extraction speed 7.6 X
Track quality 100.0 %
Test CRC E066F5E8
Copy CRC E066F5E8
Track not present in AccurateRip database
Copy OK
None of the tracks are present in the AccurateRip database
No errors occurred
End of status report
---- CUETools DB Plugin V2.1.3
[CTDB TOCID: 8OhmYJN0yQvQGWkB7sQFMgAM1Sw-] found, Submit result: already submitted
[b9d31faf] (1/1) Accurately ripped
==== Log checksum B3BB6D0BE4616AAB358FDA27CF45EA19C92BAF18066BD5467EB3F222DC448894 ====
Cd12

скрытый текст

Exact Audio Copy V1.0 beta 3 from 29. August 2011
EAC extraction logfile from 16. January 2015, 0:22
Sviatoslav Richter / RCA and Columbia Collection Vol. 12
Used drive : TSSTcorpCDDVDW SH-S223L Adapter: 6 ID: 0
Read mode : Secure
Utilize accurate stream : Yes
Defeat audio cache : Yes
Make use of C2 pointers : No
Read offset correction : 6
Overread into Lead-In and Lead-Out : No
Fill up missing offset samples with silence : Yes
Delete leading and trailing silent blocks : No
Null samples used in CRC calculations : Yes
Used interface : Native Win32 interface for Win NT & 2000
Gap handling : Appended to previous track
Used output format : User Defined Encoder
Selected bitrate : 1024 kBit/s
Quality : High
Add ID3 tag : No
Command line compressor : C:\Program Files (x86)\Exact Audio Copy\Flac\flac.exe
Additional command line options : -8 -V -T "ARTIST=%artist%" -T "TITLE=%title%" -T "ALBUM=%albumtitle%" -T "DATE=%year%" -T "TRACKNUMBER=%tracknr%" -T "GENRE=%genre%" -T "PERFORMER=%albuminterpret%" -T "COMPOSER=%composer%" %haslyrics%--tag-from-file=LYRICS="%lyricsfile%"%haslyrics% -T "ALBUMARTIST=%albumartist%" -T "DISCNUMBER=%cdnumber%" -T "TOTALDISCS=%totalcds%" -T "TOTALTRACKS=%numtracks%" -T "COMMENT=%comment%" %source% -o %dest%
TOC of the extracted CD
Track | Start | Length | Start sector | End sector
---------------------------------------------------------
1 | 0:00.00 | 10:42.10 | 0 | 48159
2 | 10:42.10 | 5:56.43 | 48160 | 74902
3 | 16:38.53 | 7:13.17 | 74903 | 107394
4 | 23:51.70 | 1:23.55 | 107395 | 113674
5 | 25:15.50 | 1:04.13 | 113675 | 118487
6 | 26:19.63 | 0:48.37 | 118488 | 122124
7 | 27:08.25 | 1:10.70 | 122125 | 127444
8 | 28:19.20 | 0:51.48 | 127445 | 131317
9 | 29:10.68 | 1:47.10 | 131318 | 139352
10 | 30:58.03 | 2:53.33 | 139353 | 152360
11 | 33:51.36 | 6:11.05 | 152361 | 180190
12 | 40:02.41 | 2:15.00 | 180191 | 190315
Track 1
Filename D:\Rips\01 - [Beethoven] Sonata No. 23 in F minor, Op. 57 - I. Allegro assai - Piu allegro.wav
Pre-gap length 0:00:02.00
Peak level 97.9 %
Extraction speed 5.0 X
Track quality 100.0 %
Test CRC 13CD698D
Copy CRC 13CD698D
Track not present in AccurateRip database
Copy OK
Track 2
Filename D:\Rips\02 - II. Andante con moto.wav
Peak level 51.2 %
Extraction speed 4.9 X
Track quality 99.9 %
Test CRC 7E30FB02
Copy CRC 7E30FB02
Track not present in AccurateRip database
Copy OK
Track 3
Filename D:\Rips\03 - III. Allegro ma non troppo - Presto.wav
Peak level 95.5 %
Extraction speed 5.5 X
Track quality 99.9 %
Test CRC C045814E
Copy CRC C045814E
Track not present in AccurateRip database
Copy OK
Track 4
Filename D:\Rips\04 - Sonata No. 12 in A-flat major, Op. 26 - I. Andante con variazioni.wav
Pre-gap length 0:00:10.10
Peak level 38.0 %
Extraction speed 4.9 X
Track quality 100.0 %
Test CRC 4B43660C
Copy CRC 4B43660C
Track not present in AccurateRip database
Copy OK
Track 5
Filename D:\Rips\05 - Variation I.wav
Peak level 67.1 %
Extraction speed 4.6 X
Track quality 100.0 %
Test CRC 56667A69
Copy CRC 56667A69
Track not present in AccurateRip database
Copy OK
Track 6
Filename D:\Rips\06 - Variation II.wav
Peak level 93.8 %
Extraction speed 4.0 X
Track quality 100.0 %
Test CRC BA011DDA
Copy CRC BA011DDA
Track not present in AccurateRip database
Copy OK
Track 7
Filename D:\Rips\07 - Variation III.wav
Peak level 79.0 %
Extraction speed 4.9 X
Track quality 100.0 %
Test CRC 351A1057
Copy CRC 351A1057
Track not present in AccurateRip database
Copy OK
Track 8
Filename D:\Rips\08 - Variation IV.wav
Peak level 74.3 %
Extraction speed 4.4 X
Track quality 100.0 %
Test CRC 9D74BBE6
Copy CRC 9D74BBE6
Track not present in AccurateRip database
Copy OK
Track 9
Filename D:\Rips\09 - Variation V.wav
Peak level 61.8 %
Extraction speed 5.6 X
Track quality 100.0 %
Test CRC 524B5423
Copy CRC 524B5423
Track not present in AccurateRip database
Copy OK
Track 10
Filename D:\Rips\10 - II. Scherzo. Allegro molto.wav
Peak level 93.0 %
Extraction speed 6.4 X
Track quality 100.0 %
Test CRC DD6557B7
Copy CRC DD6557B7
Track not present in AccurateRip database
Copy OK
Track 11
Filename D:\Rips\11 - III. Marcia funebre sulla morte d'un Eroe. Maestoso andante.wav
Peak level 95.3 %
Extraction speed 7.5 X
Track quality 100.0 %
Test CRC FF4005B2
Copy CRC FF4005B2
Track not present in AccurateRip database
Copy OK
Track 12
Filename D:\Rips\12 - IV. Allegro.wav
Peak level 85.8 %
Extraction speed 6.5 X
Track quality 100.0 %
Test CRC 3329F63E
Copy CRC 3329F63E
Track not present in AccurateRip database
Copy OK
None of the tracks are present in the AccurateRip database
No errors occurred
End of status report
---- CUETools DB Plugin V2.1.3
[CTDB TOCID: 2rUuAOvM9S5H3zDDXINhjC0QbfU-] disk not present in database, Submit result: 2rUuAOvM9S5H3zDDXINhjC0QbfU- has been uploaded
==== Log checksum E0D206489C8C2FB43B324965D1DBADF3FEDE8B1DDCB509B7B69B3EC69A6C3983 ====
Cd13

скрытый текст

Exact Audio Copy V1.0 beta 3 from 29. August 2011
EAC extraction logfile from 16. January 2015, 13:30
Sviatoslav Richter / RCA and Columbia Collection Vol. 13
Used drive : TSSTcorpCDDVDW SH-S223L Adapter: 6 ID: 0
Read mode : Secure
Utilize accurate stream : Yes
Defeat audio cache : Yes
Make use of C2 pointers : No
Read offset correction : 6
Overread into Lead-In and Lead-Out : No
Fill up missing offset samples with silence : Yes
Delete leading and trailing silent blocks : No
Null samples used in CRC calculations : Yes
Used interface : Native Win32 interface for Win NT & 2000
Gap handling : Appended to previous track
Used output format : User Defined Encoder
Selected bitrate : 1024 kBit/s
Quality : High
Add ID3 tag : No
Command line compressor : C:\Program Files (x86)\Exact Audio Copy\Flac\flac.exe
Additional command line options : -8 -V -T "ARTIST=%artist%" -T "TITLE=%title%" -T "ALBUM=%albumtitle%" -T "DATE=%year%" -T "TRACKNUMBER=%tracknr%" -T "GENRE=%genre%" -T "PERFORMER=%albuminterpret%" -T "COMPOSER=%composer%" %haslyrics%--tag-from-file=LYRICS="%lyricsfile%"%haslyrics% -T "ALBUMARTIST=%albumartist%" -T "DISCNUMBER=%cdnumber%" -T "TOTALDISCS=%totalcds%" -T "TOTALTRACKS=%numtracks%" -T "COMMENT=%comment%" %source% -o %dest%
TOC of the extracted CD
Track | Start | Length | Start sector | End sector
---------------------------------------------------------
1 | 0:00.00 | 0:16.65 | 0 | 1264
2 | 0:16.65 | 9:03.40 | 1265 | 42029
3 | 9:20.30 | 6:02.42 | 42030 | 69221
4 | 15:22.72 | 2:47.30 | 69222 | 81776
5 | 18:10.27 | 11:13.20 | 81777 | 132271
6 | 29:23.47 | 7:28.10 | 132272 | 165881
7 | 36:51.57 | 3:52.42 | 165882 | 183323
8 | 40:44.24 | 2:24.45 | 183324 | 194168
9 | 43:08.69 | 5:28.03 | 194169 | 218771
10 | 48:36.72 | 2:26.30 | 218772 | 229751
11 | 51:03.27 | 4:32.30 | 229752 | 250181
12 | 55:35.57 | 6:31.19 | 250182 | 279525
Track 1
Filename D:\Rips\01 - Applause.wav
Pre-gap length 0:00:02.00
Peak level 51.5 %
Extraction speed 1.3 X
Track quality 100.0 %
Test CRC 95BF13C4
Copy CRC 95BF13C4
Track not present in AccurateRip database
Copy OK
Track 2
Filename D:\Rips\02 - [Haydn] Sonata No. 60 in C major, Hob. XVI-50 - I. Allegro.wav
Peak level 83.2 %
Extraction speed 4.8 X
Track quality 100.0 %
Test CRC FCCEFA84
Copy CRC FCCEFA84
Track not present in AccurateRip database
Copy OK
Track 3
Filename D:\Rips\03 - II. Adagio.wav
Peak level 43.9 %
Extraction speed 4.7 X
Track quality 99.9 %
Test CRC 72B9FA64
Copy CRC 72B9FA64
Track not present in AccurateRip database
Copy OK
Track 4
Filename D:\Rips\04 - III. Allegro molto.wav
Peak level 65.6 %
Extraction speed 5.3 X
Track quality 100.0 %
Test CRC F08992BE
Copy CRC F08992BE
Track not present in AccurateRip database
Copy OK
Track 5
Filename D:\Rips\05 - [Chopin] Scherzo No. 4 in E major, Op. 54.wav
Pre-gap length 0:00:18.06
Peak level 86.5 %
Extraction speed 6.2 X
Track quality 99.9 %
Test CRC 3345F57D
Copy CRC 3345F57D
Track not present in AccurateRip database
Copy OK
Track 6
Filename D:\Rips\06 - Ballade No. 3 in A-flat major, Op. 47.wav
Pre-gap length 0:00:17.24
Peak level 97.2 %
Extraction speed 7.2 X
Track quality 100.0 %
Test CRC 9DF8DD54
Copy CRC 9DF8DD54
Track not present in AccurateRip database
Copy OK
Track 7
Filename D:\Rips\07 - [Rachmaninoff] Prelude in F-sharp minor, Op. 23 No. 1.wav
Pre-gap length 0:00:18.73
Peak level 63.3 %
Extraction speed 7.1 X
Track quality 100.0 %
Test CRC 51A38C39
Copy CRC 51A38C39
Track not present in AccurateRip database
Copy OK
Track 8
Filename D:\Rips\08 - Prelude in A major, Op. 32 No. 9.wav
Peak level 80.3 %
Extraction speed 6.7 X
Track quality 100.0 %
Test CRC 3074DA34
Copy CRC 3074DA34
Track not present in AccurateRip database
Copy OK
Track 9
Filename D:\Rips\09 - Prelude in B minor, Op. 32 No. 10.wav
Peak level 92.7 %
Extraction speed 7.7 X
Track quality 100.0 %
Test CRC 2B5AB15A
Copy CRC 2B5AB15A
Track not present in AccurateRip database
Copy OK
Track 10
Filename D:\Rips\10 - Prelude in G-sharp minor, Op. 32 No. 12.wav
Peak level 79.9 %
Extraction speed 5.1 X
Track quality 99.9 %
Test CRC 72B3C91B
Copy CRC 72B3C91B
Track not present in AccurateRip database
Copy OK
Track 11
Filename D:\Rips\11 - [Ravel] Jeax d'eau.wav
Pre-gap length 0:00:17.77
Peak level 71.6 %
Extraction speed 8.0 X
Track quality 100.0 %
Test CRC DB17B1E0
Copy CRC DB17B1E0
Track not present in AccurateRip database
Copy OK
Track 12
Filename D:\Rips\12 - Miroirs No. 5 - La Vallee des cloches.wav
Pre-gap length 0:00:21.24
Peak level 63.7 %
Extraction speed 8.6 X
Track quality 100.0 %
Test CRC B2A1BC46
Copy CRC B2A1BC46
Track not present in AccurateRip database
Copy OK
None of the tracks are present in the AccurateRip database
No errors occurred
End of status report
---- CUETools DB Plugin V2.1.3
[CTDB TOCID: oh8s0xUwL497ja9in5wrlQw7LLE-] disk not present in database, Submit result: oh8s0xUwL497ja9in5wrlQw7LLE- has been uploaded
==== Log checksum A521967D97D0BA93BAA31E9EEE8CED35EB1E6DB726B295216836615B06E746AA ====
CD14

скрытый текст

Exact Audio Copy V1.0 beta 3 from 29. August 2011
EAC extraction logfile from 16. January 2015, 15:33
Sviatoslav Richter / RCA and Columbia Collection Vol. 14
Used drive : TSSTcorpCDDVDW SH-S223L Adapter: 6 ID: 0
Read mode : Secure
Utilize accurate stream : Yes
Defeat audio cache : Yes
Make use of C2 pointers : No
Read offset correction : 6
Overread into Lead-In and Lead-Out : No
Fill up missing offset samples with silence : Yes
Delete leading and trailing silent blocks : No
Null samples used in CRC calculations : Yes
Used interface : Native Win32 interface for Win NT & 2000
Gap handling : Appended to previous track
Used output format : User Defined Encoder
Selected bitrate : 1024 kBit/s
Quality : High
Add ID3 tag : No
Command line compressor : C:\Program Files (x86)\Exact Audio Copy\Flac\flac.exe
Additional command line options : -8 -V -T "ARTIST=%artist%" -T "TITLE=%title%" -T "ALBUM=%albumtitle%" -T "DATE=%year%" -T "TRACKNUMBER=%tracknr%" -T "GENRE=%genre%" -T "PERFORMER=%albuminterpret%" -T "COMPOSER=%composer%" %haslyrics%--tag-from-file=LYRICS="%lyricsfile%"%haslyrics% -T "ALBUMARTIST=%albumartist%" -T "DISCNUMBER=%cdnumber%" -T "TOTALDISCS=%totalcds%" -T "TOTALTRACKS=%numtracks%" -T "COMMENT=%comment%" %source% -o %dest%
TOC of the extracted CD
Track | Start | Length | Start sector | End sector
---------------------------------------------------------
1 | 0:00.00 | 0:16.52 | 0 | 1251
2 | 0:16.52 | 8:33.68 | 1252 | 39794
3 | 8:50.45 | 3:47.15 | 39795 | 56834
4 | 12:37.60 | 6:57.60 | 56835 | 88169
5 | 19:35.45 | 6:44.30 | 88170 | 118499
6 | 26:20.00 | 1:14.67 | 118500 | 124116
7 | 27:34.67 | 0:51.23 | 124117 | 127964
8 | 28:26.15 | 0:29.45 | 127965 | 130184
9 | 28:55.60 | 0:23.27 | 130185 | 131936
10 | 29:19.12 | 1:43.08 | 131937 | 139669
11 | 31:02.20 | 1:10.47 | 139670 | 144966
12 | 32:12.67 | 0:54.02 | 144967 | 149018
13 | 33:06.69 | 0:53.02 | 149019 | 152995
14 | 33:59.71 | 0:53.58 | 152996 | 157028
15 | 34:53.54 | 2:00.65 | 157029 | 166093
Track 1
Filename D:\Rips\01 - Applause.wav
Pre-gap length 0:00:02.00
Peak level 64.7 %
Extraction speed 0.7 X
Track quality 100.0 %
Test CRC D09A8C66
Copy CRC D09A8C66
Track not present in AccurateRip database
Copy OK
Track 2
Filename D:\Rips\02 - [Prokofiev] Sonata No. 6 in A major, Op. 82 - I. Allegro moderato.wav
Peak level 90.1 %
Extraction speed 2.1 X
Track quality 99.9 %
Test CRC 57CCB1C2
Copy CRC 57CCB1C2
Track not present in AccurateRip database
Copy OK
Track 3
Filename D:\Rips\03 - II. Allegretto.wav
Peak level 70.0 %
Extraction speed 2.0 X
Track quality 100.0 %
Test CRC B873C84E
Copy CRC B873C84E
Track not present in AccurateRip database
Copy OK
Track 4
Filename D:\Rips\04 - III. Tempo di valzer lentissimo.wav
Peak level 80.3 %
Extraction speed 2.2 X
Track quality 100.0 %
Test CRC E19E2D96
Copy CRC E19E2D96
Track not present in AccurateRip database
Copy OK
Track 5
Filename D:\Rips\05 - IV. Vivace.wav
Peak level 73.2 %
Extraction speed 2.0 X
Track quality 99.9 %
Test CRC 41176E6C
Copy CRC 41176E6C
Track not present in AccurateRip database
Copy OK
Track 6
Filename D:\Rips\06 - Visions fugitives, Op. 22 - III. Allegretto.wav
Pre-gap length 0:00:30.00
Peak level 24.7 %
Extraction speed 1.5 X
Track quality 100.0 %
Test CRC 5CEDFAFD
Copy CRC 5CEDFAFD
Track not present in AccurateRip database
Copy OK
Track 7
Filename D:\Rips\07 - IV. Animato.wav
Peak level 60.2 %
Extraction speed 1.3 X
Track quality 100.0 %
Test CRC A2DEEF29
Copy CRC A2DEEF29
Track not present in AccurateRip database
Copy OK
Track 8
Filename D:\Rips\08 - V. Molto giocoso.wav
Peak level 71.4 %
Extraction speed 1.0 X
Track quality 100.0 %
Test CRC 01A24A24
Copy CRC 01A24A24
Track not present in AccurateRip database
Copy OK
Track 9
Filename D:\Rips\09 - VI. Con eleganza.wav
Pre-gap length 0:00:12.40
Peak level 13.3 %
Extraction speed 0.9 X
Track quality 100.0 %
Test CRC CBAE6503
Copy CRC CBAE6503
Track not present in AccurateRip database
Copy OK
Track 10
Filename D:\Rips\10 - VIII. Comodo.wav
Peak level 67.2 %
Extraction speed 1.7 X
Track quality 100.0 %
Test CRC DD9632D7
Copy CRC DD9632D7
Track not present in AccurateRip database
Copy OK
Track 11
Filename D:\Rips\11 - IX. Allegretto tranquillo.wav
Pre-gap length 0:00:12.52
Peak level 77.0 %
Extraction speed 1.5 X
Track quality 100.0 %
Test CRC C3CEEFB9
Copy CRC C3CEEFB9
Track not present in AccurateRip database
Copy OK
Track 12
Filename D:\Rips\12 - XI. Con vivacita.wav
Pre-gap length 0:00:18.13
Peak level 31.7 %
Extraction speed 1.3 X
Track quality 100.0 %
Test CRC 21A85DFC
Copy CRC 21A85DFC
Track not present in AccurateRip database
Copy OK
Track 13
Filename D:\Rips\13 - XIV. Feroce.wav
Peak level 89.5 %
Extraction speed 1.4 X
Track quality 100.0 %
Test CRC 783815E8
Copy CRC 783815E8
Track not present in AccurateRip database
Copy OK
Track 14
Filename D:\Rips\14 - XV. Inquieto.wav
Peak level 80.7 %
Extraction speed 1.0 X
Track quality 99.8 %
Test CRC DB9D2BB9
Copy CRC DB9D2BB9
Track not present in AccurateRip database
Copy OK
Track 15
Filename D:\Rips\15 - XVIII. Con una dolce lentezza.wav
Pre-gap length 0:00:19.93
Peak level 74.7 %
Extraction speed 1.4 X
Track quality 99.9 %
Test CRC 5AD412C3
Copy CRC 5AD412C3
Track not present in AccurateRip database
Copy OK
None of the tracks are present in the AccurateRip database
No errors occurred
End of status report
---- CUETools DB Plugin V2.1.3
[CTDB TOCID: zn97MOJpLgWYAPaKvgqcYuA8MU4-] found, Submit result: already submitted
[33286b36] (1/1) Accurately ripped
==== Log checksum 9874D48B596ADC18FEFA38205DA0DC55A562B8F03EC2B2C97E134E2B986B86E2 ====
CD15[spoiler="скры
[teatrix.ru].t9706.torrent 
Торрент: Зарегистрирован [ 2015-10-23 17:11 ] · 4D2CF797044F1B97D070A2EE17D7C9DFA22A8AFB

Скачать .torrent

Скачать

37 KB

Статус: проверено
Скачан: 1 раз
Размер: 3.17 GB
terms.php



Быстрый ответ

Имя:

      
Для отправки сообщений необходимо включить JavaScript
Показать сообщения:    

Текущее время: 07-Дек 13:37

Часовой пояс: UTC + 3


Вы можете начинать темы
Вы можете отвечать на сообщения
Вы не можете редактировать свои сообщения
Вы не можете удалять свои сообщения
Вы не можете голосовать в опросах
Вы не можете прикреплять файлы к сообщениям
Вы можете скачивать файлы