(classical) [CD] Annie Fischer - The Complete London Studio Recordings: Mozart, Beethoven, Schubert, Schumann, Liszt, Bartok [8CD Set](EU 2014 Warner Classic, ICON 2564 63412-3), FLAC (tracks+.cue), lossless


Статистика раздачи [Обновить пиров]
Размер:  2.35 GB   |    Зарегистрирован:  1 год 1 месяц   |    Скачан:  1 раз

Полного источника не было: 1 месяц 6 дней

Личеров:  1  [  0 KB/s  ]   Подробная статистика пиров
 
   
 
 
 

[Цитировать]

-Annie Fischer - Philharmonia Orchestra: Sir Adrian Boult, Wolfgang Sawallisch, Otto Klemperer / New Philharmonia Orchestra: Efrem Kurtz / London Symphony Orchestra: Igor Markevitch - The Complete London Studio Recordings: Wolfgang Amadeus Mozart, Ludwig van Beethoven, Franz Schubert, Robert Schumann, Franz Liszt, Bela Bartok [8CD Set]- -Жанр: classical
Страна-производитель диска: EU
Год издания диска: 2014
Издатель (лейбл): Warner Classic, ICON
Номер по каталогу: 2564 63412-3
Дата записи: 1955 - 1966-Аудиокодек: FLAC
Тип рипа: tracks+.cue
Битрейт аудио: lossless
Продолжительность: 09:00:23
Источник: net
сайт-источник/ник/другое: macropus
Наличие сканов в содержимом раздачи: да-Исполнители:
Annie Fischer
Philharmonia Orchestra: Sir Adrian Boult / Wolfgang Sawallisch / Otto Klemperer
New Philharmonia Orchestra: Efrem Kurtz
London Symphony Orchestra: Igor Markevitch-Доп. информация:
This set of Annie Fischer's complete EMI recordings represents her during a particular decade, when she solidified her reputation in Europe. These recordings helped spread that reputation and increased her prominence among pianists. As studio recordings, they form an unusual part of Fischer's legacy; during most of her time as a performer, Fischer avoided recording studios as she did not believe in playing in a studio without the presence of an audience. She shared this view with her eminent colleague Sviatoslav Richter, who said of her, 'Annie Fischer is a great artist, imbued with a spirit of greatness and genuine profundity.'
From 1955 to 1966, Fischer made a series of recordings for EMI. It began with Bartok's Third Piano Concerto, the only work she recorded in 1955, and concluded with two of the six Mozart Piano Concertos. They were all made at Abbey Road Studios in London, with the exception of Schumann's Kinderszenen and Kreisleriana, which were recorded in Vienna.-Треклист:

CD 1: Mozart: Piano Concertos Nos. 20 & 23 - Philharmonia Orchestra / Sir Adrian Boult

Продолжительность: 00:57:37
Mozart Piano Concerto No.20 in D minor K466
01. I. Allegro [00:13:58]
02. II. Romanze [00:09:58]
03. III. Rondo: Allegro assai (cadenza: Beethoven) [00:07:38]
Mozart Piano Concerto No.23 in A K488
04. I. Allegro [00:10:54]
05. II. Adagio [00:06:48]
06. III. Allegro assai [00:08:18]

Отчёт EAC

Exact Audio Copy V1.0 beta 3 from 29. August 2011
EAC extraction logfile from 14. October 2014, 15:52
Annie Fischer / Complete London Studio Recordings
Used drive : TSSTcorpCDDVDW SH-S223L Adapter: 6 ID: 0
Read mode : SecureUtilize accurate stream : YesDefeat audio cache : YesMake use of C2 pointers : No
Read offset correction : 6Overread into Lead-In and Lead-Out : NoFill up missing offset samples with silence : YesDelete leading and trailing silent blocks : NoNull samples used in CRC calculations : YesUsed interface : Native Win32 interface for Win NT & 2000Gap handling : Appended to previous track
Used output format : User Defined EncoderSelected bitrate : 1024 kBit/sQuality : HighAdd ID3 tag : NoCommand line compressor : C:\Program Files (x86)\Exact Audio Copy\Flac\flac.exeAdditional command line options : -8 -V -T "ARTIST=%artist%" -T "TITLE=%title%" -T "ALBUM=%albumtitle%" -T "DATE=%year%" -T "TRACKNUMBER=%tracknr%" -T "GENRE=%genre%" -T "PERFORMER=%albuminterpret%" -T "COMPOSER=%composer%" %haslyrics%--tag-from-file=LYRICS="%lyricsfile%"%haslyrics% -T "ALBUMARTIST=%albumartist%" -T "DISCNUMBER=%cdnumber%" -T "TOTALDISCS=%totalcds%" -T "TOTALTRACKS=%numtracks%" -T "COMMENT=%comment%" %source% -o %dest%
TOC of the extracted CD
Track | Start | Length | Start sector | End sector --------------------------------------------------------- 1 | 0:00.00 | 13:58.61 | 0 | 62910 2 | 13:58.61 | 9:58.12 | 62911 | 107772 3 | 23:56.73 | 7:38.68 | 107773 | 142190 4 | 31:35.66 | 10:54.22 | 142191 | 191262 5 | 42:30.13 | 6:48.51 | 191263 | 221913 6 | 49:18.64 | 8:18.46 | 221914 | 259309
Track 1
Filename D:\Rips\01 - [Mozart] Piano Concerto No. 20 in D minor, K.466 - I. Allegro.wav
Pre-gap length 0:00:02.00
Peak level 99.8 % Extraction speed 5.4 X Track quality 100.0 % Test CRC A5984991 Copy CRC A5984991 Accurately ripped (confidence 1) [5460AFC9] (AR v2) Copy OK
Track 2
Filename D:\Rips\02 - II. Romanze.wav
Peak level 63.0 % Extraction speed 6.5 X Track quality 100.0 % Test CRC 79F7FFAA Copy CRC 79F7FFAA Accurately ripped (confidence 1) [8CE95753] (AR v2) Copy OK
Track 3
Filename D:\Rips\03 - III. Rondo- Allegro Assai.wav
Peak level 90.2 % Extraction speed 7.1 X Track quality 100.0 % Test CRC 19760ACE Copy CRC 19760ACE Accurately ripped (confidence 1) [C58C42EC] (AR v2) Copy OK
Track 4
Filename D:\Rips\04 - Piano Concerto No. 24 in A major, K.488 - I. Allegro.wav
Pre-gap length 0:00:04.89
Peak level 98.8 % Extraction speed 7.9 X Track quality 100.0 % Test CRC 10FE91E6 Copy CRC 10FE91E6 Accurately ripped (confidence 1) [9C708402] (AR v2) Copy OK
Track 5
Filename D:\Rips\05 - II. Adagio.wav
Peak level 63.0 % Extraction speed 7.1 X Track quality 99.9 % Test CRC 80876DB8 Copy CRC 80876DB8 Accurately ripped (confidence 1) [EFD6E4A5] (AR v2) Copy OK
Track 6
Filename D:\Rips\06 - III. Allegro Assai.wav
Peak level 95.7 % Extraction speed 8.8 X Track quality 100.0 % Test CRC AA217E7F Copy CRC AA217E7F Accurately ripped (confidence 1) [58B926D1] (AR v2) Copy OK
All tracks accurately ripped
No errors occurred
End of status report
---- CUETools DB Plugin V2.1.3
[CTDB TOCID: KrsS_41WAiBoYFbhUzNF7P1lCdg-] found, Submit result: KrsS_41WAiBoYFbhUzNF7P1lCdg- has been confirmed[cfd13e9e] (6/6) Accurately ripped
==== Log checksum 0DF4BF537A31F89B7A418B022C1FAD4A20F53F0CCCB777C0A0F2492C1F22EBA5 ====

Содержание индексной карты (.CUE)

REM GENRE ClassicalREM DATE 2014PERFORMER "Annie Fischer"TITLE "The Complete London Studio Recordings [CD 1](EU 2014 Warner Classic, ICON 2564 63412-3)"FILE "01 - [Mozart] Piano Concerto No. 20 in D minor, K.466 - I. Allegro.flac" WAVE TRACK 01 AUDIO TITLE "Mozart Piano Concerto No.20 in D minor K466 - I. Allegro" PERFORMER "Annie Fischer" INDEX 01 00:00:00FILE "02 - II. Romanze.flac" WAVE TRACK 02 AUDIO TITLE "Mozart Piano Concerto No.20 in D minor K466 - II. Romanze" PERFORMER "Annie Fischer" INDEX 01 00:00:00FILE "03 - III. Rondo- Allegro Assai.flac" WAVE TRACK 03 AUDIO TITLE "Mozart Piano Concerto No.20 in D minor K466 - III. Rondo: Allegro assai (cadenza: Beethoven)" PERFORMER "Annie Fischer" INDEX 01 00:00:00FILE "04 - Piano Concerto No. 24 in A major, K.488 - I. Allegro.flac" WAVE TRACK 04 AUDIO TITLE "Mozart Piano Concerto No.23 in A K488 - I. Allegro" PERFORMER "Annie Fischer" INDEX 01 00:00:00FILE "05 - II. Adagio.flac" WAVE TRACK 05 AUDIO TITLE "Mozart Piano Concerto No.23 in A K488 - II. Adagio" PERFORMER "Annie Fischer" INDEX 01 00:00:00FILE "06 - III. Allegro Assai.flac" WAVE TRACK 06 AUDIO TITLE "Mozart Piano Concerto No.23 in A K488 - III. Allegro assai" PERFORMER "Annie Fischer" INDEX 01 00:00:00

DR динамический диапазон

foobar2000 1.3.7 / Dynamic Range Meter 1.1.1log date: 2015-01-27 22:42:17
--------------------------------------------------------------------------------Analyzed: Annie Fischer / The Complete London Studio Recordings [CD 1](EU 2014 Warner Classic, ICON 2564 63412-3)--------------------------------------------------------------------------------
DR Peak RMS Duration Track--------------------------------------------------------------------------------DR13 -0.01 dB -18.21 dB 13:59 01-Mozart Piano Concerto No.20 in D minor K466 - I. AllegroDR13 -4.01 dB -22.67 dB 9:58 02-Mozart Piano Concerto No.20 in D minor K466 - II. RomanzeDR12 -0.89 dB -18.19 dB 7:39 03-Mozart Piano Concerto No.20 in D minor K466 - III. Rondo: Allegro assai (cadenza: Beethoven)DR13 -0.10 dB -17.83 dB 10:54 04-Mozart Piano Concerto No.23 in A K488 - I. AllegroDR14 -4.01 dB -23.53 dB 6:49 05-Mozart Piano Concerto No.23 in A K488 - II. AdagioDR12 -0.37 dB -17.01 dB 8:19 06-Mozart Piano Concerto No.23 in A K488 - III. Allegro assai--------------------------------------------------------------------------------
Number of tracks: 6Official DR value: DR13
Samplerate: 44100 HzChannels: 2Bits per sample: 16Bitrate: 708 kbpsCodec: FLAC================================================================================

auCDtect

-----------------------
DON'T MODIFY THIS FILE
-----------------------
PERFORMER: auCDtect Task Manager, ver. 1.6.0 RC1 build 1.6.0.1Copyright (c) 2008-2010 y-soft. All rights reservedhttp://y-soft.org
ANALYZER: auCDtect: CD records authenticity detector, version 0.8.2Copyright (c) 2004 Oleg Berngardt. All rights reserved.Copyright (c) 2004 Alexander Djourik. All rights reserved.
FILE: 06 - III. Allegro Assai.flac Size: 44149146 Hash: 33B988C3E58F70A56ED773D087617C3A Accuracy: -m0 Conclusion: CDDA 100% Signature: A7F0C66737012E9DECBCFA95937FB91BB9CAEA0AFILE: 05 - II. Adagio.flac Size: 32735686 Hash: E5287AEFA073073A282E6430858F545E Accuracy: -m0 Conclusion: CDDA 100% Signature: 989929F636E0C2BE58EDA3C0B020F5E5EEAE64ABFILE: 04 - Piano Concerto No. 24 in A major, K.488 - I. Allegro.flac Size: 57910852 Hash: 7766B02E1502F2FD014A81DEAA793D41 Accuracy: -m0 Conclusion: CDDA 100% Signature: DFA6B0B30AF4014711BD7A6FC56A34F4398E69FCFILE: 03 - III. Rondo- Allegro Assai.flac Size: 38835993 Hash: A21492E3FB31818C1791FD171A802F74 Accuracy: -m0 Conclusion: CDDA 100% Signature: 8B3ACB959F9C85D3CA9B674827CBCE58B579D009FILE: 02 - II. Romanze.flac Size: 46897969 Hash: 4A0C67C353C578F661D6700D1EB083C1 Accuracy: -m0 Conclusion: CDDA 99% Signature: D5E58581A2CF3B5F2CB985C7DA80C1038452A85CFILE: 01 - [Mozart] Piano Concerto No. 20 in D minor, K.466 - I. Allegro.flac Size: 70333979 Hash: 3599134BEFC0668F2BC2D19401966F9E Accuracy: -m0 Conclusion: CDDA 100% Signature: B1E68568564B103D7F4041E633563EC96050338B

Скриншот спектра частот, etc

CD 2: Mozart: Piano Concertos Nos. 21 & 22 - Philharmonia Orchestra / Wolfgang Sawallisch

Продолжительность: 01:04:30
Mozart Piano Concerto No.21 in C K467
01. I. Allegro maestoso [00:15:09]
02. II. Andante [00:07:40]
03. III. Allegro vivace assai (candenzas: Busoni) [00:07:25]
Mozart Piano Concerto No.22 in E flat K482
04. I. Allegro [00:13:53]
05. II. Andante [00:09:37]
06. III. Rondo: allegro [00:10:44]

Отчёт EAC

Exact Audio Copy V1.0 beta 3 from 29. August 2011
EAC extraction logfile from 14. October 2014, 17:20
Annie Fischer / Complete London Studio Recordings
Used drive : TSSTcorpCDDVDW SH-S223L Adapter: 6 ID: 0
Read mode : SecureUtilize accurate stream : YesDefeat audio cache : YesMake use of C2 pointers : No
Read offset correction : 6Overread into Lead-In and Lead-Out : NoFill up missing offset samples with silence : YesDelete leading and trailing silent blocks : NoNull samples used in CRC calculations : YesUsed interface : Native Win32 interface for Win NT & 2000Gap handling : Appended to previous track
Used output format : User Defined EncoderSelected bitrate : 1024 kBit/sQuality : HighAdd ID3 tag : NoCommand line compressor : C:\Program Files (x86)\Exact Audio Copy\Flac\flac.exeAdditional command line options : -8 -V -T "ARTIST=%artist%" -T "TITLE=%title%" -T "ALBUM=%albumtitle%" -T "DATE=%year%" -T "TRACKNUMBER=%tracknr%" -T "GENRE=%genre%" -T "PERFORMER=%albuminterpret%" -T "COMPOSER=%composer%" %haslyrics%--tag-from-file=LYRICS="%lyricsfile%"%haslyrics% -T "ALBUMARTIST=%albumartist%" -T "DISCNUMBER=%cdnumber%" -T "TOTALDISCS=%totalcds%" -T "TOTALTRACKS=%numtracks%" -T "COMMENT=%comment%" %source% -o %dest%
TOC of the extracted CD
Track | Start | Length | Start sector | End sector --------------------------------------------------------- 1 | 0:00.00 | 15:09.32 | 0 | 68206 2 | 15:09.32 | 7:40.33 | 68207 | 102739 3 | 22:49.65 | 7:25.70 | 102740 | 136184 4 | 30:15.60 | 13:53.10 | 136185 | 198669 5 | 44:08.70 | 9:37.62 | 198670 | 242006 6 | 53:46.57 | 10:44.08 | 242007 | 290314
Track 1
Filename D:\Rips\01 - [Mozart] Piano Concerto No. 21 in C major, K.467 - I. Allegro Maestoso.wav
Pre-gap length 0:00:02.00
Peak level 92.2 % Extraction speed 5.9 X Track quality 100.0 % Test CRC E5A363E3 Copy CRC E5A363E3 Accurately ripped (confidence 4) [7513E2C2] (AR v2) Copy OK
Track 2
Filename D:\Rips\02 - II. Andante.wav
Peak level 62.5 % Extraction speed 6.0 X Track quality 99.9 % Test CRC 2E5E8741 Copy CRC 2E5E8741 Accurately ripped (confidence 4) [F3781B45] (AR v2) Copy OK
Track 3
Filename D:\Rips\03 - III. Allegro Vivace Assai.wav
Peak level 93.8 % Extraction speed 7.4 X Track quality 100.0 % Test CRC 7ACC6EB2 Copy CRC 7ACC6EB2 Accurately ripped (confidence 4) [E32EE8F5] (AR v2) Copy OK
Track 4
Filename D:\Rips\04 - Piano Concerto No. 22 in E flat Major, K.482 - I. Allegro.wav
Pre-gap length 0:00:09.53
Peak level 87.6 % Extraction speed 8.5 X Track quality 100.0 % Test CRC A4A9E48A Copy CRC A4A9E48A Accurately ripped (confidence 4) [91FDF08F] (AR v2) Copy OK
Track 5
Filename D:\Rips\05 - II. Andante.wav
Peak level 69.5 % Extraction speed 9.2 X Track quality 100.0 % Test CRC 55FC9A1D Copy CRC 55FC9A1D Accurately ripped (confidence 4) [858CB3E9] (AR v2) Copy OK
Track 6
Filename D:\Rips\06 - III. Rondo- allegro.wav
Peak level 95.9 % Extraction speed 8.8 X Track quality 99.9 % Test CRC 1AD0DBED Copy CRC 1AD0DBED Accurately ripped (confidence 4) [C85431A2] (AR v2) Copy OK
All tracks accurately ripped
No errors occurred
End of status report
---- CUETools DB Plugin V2.1.3
[CTDB TOCID: D3T785RhDs_ip6jYViRfTD_C2Zs-] found, Submit result: D3T785RhDs_ip6jYViRfTD_C2Zs- has been confirmed[6f9d9f1b] (12/12) Accurately ripped
==== Log checksum B302C4742DF9C7882C6B11C10D2AB62A65CFEC968A91C5312BA9F9A6BD8E6FF2 ====

Содержание индексной карты (.CUE)

REM GENRE ClassicalREM DATE 2014PERFORMER "Annie Fischer"TITLE "The Complete London Studio Recordings [CD 2](EU 2014 Warner Classic, ICON 2564 63412-3)"FILE "01 - [Mozart] Piano Concerto No. 21 in C major, K.467 - I. Allegro Maestoso.flac" WAVE TRACK 01 AUDIO TITLE "Mozart Piano Concerto No.21 in C K467 - I. Allegro maestoso" PERFORMER "Annie Fischer" INDEX 01 00:00:00FILE "02 - II. Andante.flac" WAVE TRACK 02 AUDIO TITLE "Mozart Piano Concerto No.21 in C K467 - II. Andante" PERFORMER "Annie Fischer" INDEX 01 00:00:00FILE "03 - III. Allegro Vivace Assai.flac" WAVE TRACK 03 AUDIO TITLE "Mozart Piano Concerto No.21 in C K467 - III. Allegro vivace assai (candenzas: Busoni)" PERFORMER "Annie Fischer" INDEX 01 00:00:00FILE "04 - Piano Concerto No. 22 in E flat Major, K.482 - I. Allegro.flac" WAVE TRACK 04 AUDIO TITLE "Mozart Piano Concerto No.22 in E flat K482 - I. Allegro" PERFORMER "Annie Fischer" INDEX 01 00:00:00FILE "05 - II. Andante.flac" WAVE TRACK 05 AUDIO TITLE "Mozart Piano Concerto No.22 in E flat K482 - II. Andante" PERFORMER "Annie Fischer" INDEX 01 00:00:00FILE "06 - III. Rondo- allegro.flac" WAVE TRACK 06 AUDIO TITLE "Mozart Piano Concerto No.22 in E flat K482 - III. Rondo: allegro" PERFORMER "Annie Fischer" INDEX 01 00:00:00

DR динамический диапазон

foobar2000 1.3.7 / Dynamic Range Meter 1.1.1log date: 2015-01-27 22:42:22
--------------------------------------------------------------------------------Analyzed: Annie Fischer / The Complete London Studio Recordings [CD 2](EU 2014 Warner Classic, ICON 2564 63412-3)--------------------------------------------------------------------------------
DR Peak RMS Duration Track--------------------------------------------------------------------------------DR11 -0.70 dB -17.59 dB 15:09 01-Mozart Piano Concerto No.21 in C K467 - I. Allegro maestosoDR14 -4.08 dB -22.99 dB 7:40 02-Mozart Piano Concerto No.21 in C K467 - II. AndanteDR13 -0.55 dB -19.25 dB 7:26 03-Mozart Piano Concerto No.21 in C K467 - III. Allegro vivace assai (candenzas: Busoni)DR12 -1.14 dB -18.74 dB 13:53 04-Mozart Piano Concerto No.22 in E flat K482 - I. AllegroDR14 -3.15 dB -23.56 dB 9:38 05-Mozart Piano Concerto No.22 in E flat K482 - II. AndanteDR13 -0.36 dB -20.13 dB 10:44 06-Mozart Piano Concerto No.22 in E flat K482 - III. Rondo: allegro--------------------------------------------------------------------------------
Number of tracks: 6Official DR value: DR13
Samplerate: 44100 HzChannels: 2Bits per sample: 16Bitrate: 671 kbpsCodec: FLAC================================================================================

auCDtect

-----------------------
DON'T MODIFY THIS FILE
-----------------------
PERFORMER: auCDtect Task Manager, ver. 1.6.0 RC1 build 1.6.0.1Copyright (c) 2008-2010 y-soft. All rights reservedhttp://y-soft.org
ANALYZER: auCDtect: CD records authenticity detector, version 0.8.2Copyright (c) 2004 Oleg Berngardt. All rights reserved.Copyright (c) 2004 Alexander Djourik. All rights reserved.
FILE: 06 - III. Rondo- allegro.flac Size: 54030823 Hash: AE50B04200F9456182BF52B97620625F Accuracy: -m0 Conclusion: CDDA 100% Signature: 60909553595D8790BC23CC93806E151FC1925B73FILE: 05 - II. Andante.flac Size: 46720982 Hash: EF0F0661239433267092EAAD3172E581 Accuracy: -m0 Conclusion: CDDA 99% Signature: 4915477110412041D915FC6FE00EBEE854A0EE69FILE: 04 - Piano Concerto No. 22 in E flat Major, K.482 - I. Allegro.flac Size: 71636079 Hash: B3FC894AF29CC2E48EFB93C655CB7163 Accuracy: -m0 Conclusion: CDDA 100% Signature: 7B81CE5A2927DDA25749E1CEE542891CED3B7466FILE: 03 - III. Allegro Vivace Assai.flac Size: 37626106 Hash: AF904432497B120A79841C089863B7C0 Accuracy: -m0 Conclusion: CDDA 100% Signature: 61BD6474EF8C6A2EDE95F2A88723AD06229BD95AFILE: 02 - II. Andante.flac Size: 37849121 Hash: 9ACEB07AD05DFD8F7CF39BF72EA4FDF7 Accuracy: -m0 Conclusion: CDDA 100% Signature: BE538727CCE98CD9A2B8EA3B6A4BCA1069A0C316FILE: 01 - [Mozart] Piano Concerto No. 21 in C major, K.467 - I. Allegro Maestoso.flac Size: 79435479 Hash: DAA6C6F6374E7C1586C6E003D3E89F50 Accuracy: -m0 Conclusion: CDDA 100% Signature: 56A80E59CD71CD06AD5DA41380C62CBF8DBBCADC

Скриншот спектра частот, etc

CD 3: Mozart: Piano Concertos Nos. 24 & 27 - New Philharmonia Orchestra / Efrem Kurtz

Продолжительность: 01:00:19
Mozart Piano Concerto No.24 in C minor K491
01. I. Allegro (cadenza: Hummel) [00:13:54]
02. II. Larghetto [00:08:38]
03. III. Allegretto [00:08:32]
Mozart Piano Concerto No.27 in B flat K595
04. I. Allegro [00:12:56]
05. II. Larghetto [00:08:16]
06. III. Allegro [00:08:00]

Отчёт EAC

Exact Audio Copy V1.0 beta 3 from 29. August 2011
EAC extraction logfile from 14. October 2014, 17:43
Annie Fischer / Complete London Studio Recordings
Used drive : TSSTcorpCDDVDW SH-S223L Adapter: 6 ID: 0
Read mode : SecureUtilize accurate stream : YesDefeat audio cache : YesMake use of C2 pointers : No
Read offset correction : 6Overread into Lead-In and Lead-Out : NoFill up missing offset samples with silence : YesDelete leading and trailing silent blocks : NoNull samples used in CRC calculations : YesUsed interface : Native Win32 interface for Win NT & 2000Gap handling : Appended to previous track
Used output format : User Defined EncoderSelected bitrate : 1024 kBit/sQuality : HighAdd ID3 tag : NoCommand line compressor : C:\Program Files (x86)\Exact Audio Copy\Flac\flac.exeAdditional command line options : -8 -V -T "ARTIST=%artist%" -T "TITLE=%title%" -T "ALBUM=%albumtitle%" -T "DATE=%year%" -T "TRACKNUMBER=%tracknr%" -T "GENRE=%genre%" -T "PERFORMER=%albuminterpret%" -T "COMPOSER=%composer%" %haslyrics%--tag-from-file=LYRICS="%lyricsfile%"%haslyrics% -T "ALBUMARTIST=%albumartist%" -T "DISCNUMBER=%cdnumber%" -T "TOTALDISCS=%totalcds%" -T "TOTALTRACKS=%numtracks%" -T "COMMENT=%comment%" %source% -o %dest%
TOC of the extracted CD
Track | Start | Length | Start sector | End sector --------------------------------------------------------- 1 | 0:00.32 | 13:54.23 | 32 | 62604 2 | 13:54.55 | 8:38.00 | 62605 | 101454 3 | 22:32.55 | 8:32.65 | 101455 | 139919 4 | 31:05.45 | 12:56.62 | 139920 | 198181 5 | 44:02.32 | 8:16.33 | 198182 | 235414 6 | 52:18.65 | 8:00.65 | 235415 | 271479
Track 1
Filename D:\Rips\01 - [Mozart] Piano Concerto No. 24 in C minor, K.491 - I. Allegro.wav
Pre-gap length 0:00:02.42
Peak level 85.0 % Extraction speed 5.3 X Track quality 99.9 % Test CRC 19ED79AE Copy CRC 19ED79AE Accurately ripped (confidence 4) [06FA1D8F] (AR v2) Copy OK
Track 2
Filename D:\Rips\02 - II. Larghetto.wav
Peak level 43.1 % Extraction speed 6.7 X Track quality 100.0 % Test CRC C5761131 Copy CRC C5761131 Accurately ripped (confidence 4) [0944AC9F] (AR v2) Copy OK
Track 3
Filename D:\Rips\03 - III. Allegretto.wav
Peak level 67.6 % Extraction speed 7.4 X Track quality 100.0 % Test CRC 303FB409 Copy CRC 303FB409 Accurately ripped (confidence 4) [BE8552A0] (AR v2) Copy OK
Track 4
Filename D:\Rips\04 - Piano Concerto No. 27 in B flat major, K.595 - I. Allegro.wav
Pre-gap length 0:00:07.00
Peak level 58.2 % Extraction speed 8.4 X Track quality 100.0 % Test CRC 64102C61 Copy CRC 64102C61 Accurately ripped (confidence 4) [3C1C975B] (AR v2) Copy OK
Track 5
Filename D:\Rips\05 - II. Larghetto.wav
Peak level 42.8 % Extraction speed 8.8 X Track quality 100.0 % Test CRC 4750FA3B Copy CRC 4750FA3B Cannot be verified as accurate (confidence 3) [4B98260D], AccurateRip returned [AAFB1002] (AR v2) Copy OK
Track 6
Filename D:\Rips\06 - III. Allegro.wav
Peak level 66.5 % Extraction speed 9.3 X Track quality 100.0 % Test CRC C50CE396 Copy CRC C50CE396 Cannot be verified as accurate (confidence 3) [FAFF6612], AccurateRip returned [1553ED3F] (AR v2) Copy OK
4 track(s) accurately ripped 2 track(s) could not be verified as accurate
Some tracks could not be verified as accurate
No errors occurred
End of status report
==== Log checksum E63C4D664D037D10C6CDDA140362BF2E255D4D0062E65BAC67C803B68A1B0B59 ====

Содержание индексной карты (.CUE)

REM GENRE ClassicalREM DATE 2014PERFORMER "Annie Fischer"TITLE "The Complete London Studio Recordings [CD 3](EU 2014 Warner Classic, ICON 2564 63412-3)"FILE "01 - [Mozart] Piano Concerto No. 24 in C minor, K.491 - I. Allegro.flac" WAVE TRACK 01 AUDIO TITLE "Mozart Piano Concerto No.24 in C minor K491 - I. Allegro (cadenza: Hummel)" PERFORMER "Annie Fischer" INDEX 01 00:00:00FILE "02 - II. Larghetto.flac" WAVE TRACK 02 AUDIO TITLE "Mozart Piano Concerto No.24 in C minor K491 - II. Larghetto" PERFORMER "Annie Fischer" INDEX 01 00:00:00FILE "03 - III. Allegretto.flac" WAVE TRACK 03 AUDIO TITLE "Mozart Piano Concerto No.24 in C minor K491 - III. Allegretto" PERFORMER "Annie Fischer" INDEX 01 00:00:00FILE "04 - Piano Concerto No. 27 in B flat major, K.595 - I. Allegro.flac" WAVE TRACK 04 AUDIO TITLE "Mozart Piano Concerto No.27 in B flat K595 - I. Allegro" PERFORMER "Annie Fischer" INDEX 01 00:00:00FILE "05 - II. Larghetto.flac" WAVE TRACK 05 AUDIO TITLE "Mozart Piano Concerto No.27 in B flat K595 - II. Larghetto" PERFORMER "Annie Fischer" INDEX 01 00:00:00FILE "06 - III. Allegro.flac" WAVE TRACK 06 AUDIO TITLE "Mozart Piano Concerto No.27 in B flat K595 - III. Allegro" PERFORMER "Annie Fischer" INDEX 01 00:00:00

DR динамический диапазон

foobar2000 1.3.7 / Dynamic Range Meter 1.1.1log date: 2015-01-27 22:42:27
--------------------------------------------------------------------------------Analyzed: Annie Fischer / The Complete London Studio Recordings [CD 3](EU 2014 Warner Classic, ICON 2564 63412-3)--------------------------------------------------------------------------------
DR Peak RMS Duration Track--------------------------------------------------------------------------------DR11 -1.41 dB -17.75 dB 13:54 01-Mozart Piano Concerto No.24 in C minor K491 - I. Allegro (cadenza: Hummel)DR13 -7.30 dB -25.66 dB 8:38 02-Mozart Piano Concerto No.24 in C minor K491 - II. LarghettoDR10 -3.40 dB -19.82 dB 8:33 03-Mozart Piano Concerto No.24 in C minor K491 - III. AllegrettoDR11 -4.70 dB -21.01 dB 12:57 04-Mozart Piano Concerto No.27 in B flat K595 - I. AllegroDR12 -7.36 dB -24.99 dB 8:16 05-Mozart Piano Concerto No.27 in B flat K595 - II. LarghettoDR11 -3.53 dB -19.34 dB 8:01 06-Mozart Piano Concerto No.27 in B flat K595 - III. Allegro--------------------------------------------------------------------------------
Number of tracks: 6Official DR value: DR11
Samplerate: 44100 HzChannels: 2Bits per sample: 16Bitrate: 638 kbpsCodec: FLAC================================================================================

auCDtect

-----------------------
DON'T MODIFY THIS FILE
-----------------------
PERFORMER: auCDtect Task Manager, ver. 1.6.0 RC1 build 1.6.0.1Copyright (c) 2008-2010 y-soft. All rights reservedhttp://y-soft.org
ANALYZER: auCDtect: CD records authenticity detector, version 0.8.2Copyright (c) 2004 Oleg Berngardt. All rights reserved.Copyright (c) 2004 Alexander Djourik. All rights reserved.
FILE: 06 - III. Allegro.flac Size: 38359138 Hash: D2083FFE897BE4A8DC82FFFD1564AB28 Accuracy: -m0 Conclusion: CDDA 100% Signature: 24299FB50A7218CFC7C2D997EC40CC73C9511C44FILE: 05 - II. Larghetto.flac Size: 36100563 Hash: 2932817775AC64C79E0D78A39F0F6E89 Accuracy: -m0 Conclusion: CDDA 100% Signature: 03D686CCFEC86AF84D42A10E5831CF89C20D46B9FILE: 04 - Piano Concerto No. 27 in B flat major, K.595 - I. Allegro.flac Size: 61454130 Hash: 2432C1FEBB8AFDA6BFF0A7FCCF6AF3F6 Accuracy: -m0 Conclusion: CDDA 100% Signature: D08E8727A53393C926A9448CD7E4ACD5FFF325A3FILE: 03 - III. Allegretto.flac Size: 40096316 Hash: 4A2B651F1ABA177612669251AD7E63AE Accuracy: -m0 Conclusion: CDDA 100% Signature: BB3FE81C852F73D4EEC757BA82532C2EDFC9CF4EFILE: 02 - II. Larghetto.flac Size: 36969795 Hash: 48AB73B7B8AC26B820F4ADECC5915FAD Accuracy: -m0 Conclusion: CDDA 100% Signature: FE7321B0A25D6B12F655A681DCED888E9AF5487EFILE: 01 - [Mozart] Piano Concerto No. 24 in C minor, K.491 - I. Allegro.flac Size: 66391709 Hash: 96DC5ED033A22E5E6E13CA534401F0A3 Accuracy: -m0 Conclusion: CDDA 100% Signature: 45D47422E9F45147439105BACFE1711F0091B5F3

Скриншот спектра частот, etc

-
[teatrix.ru].t9707.torrent 
Торрент: Зарегистрирован [ 2015-10-23 17:11 ] · 0A4CF7435A2EBE2F7A0EDE0DA302A49B5BBC7A85

Скачать .torrent

Скачать

24 KB

Статус: проверено
Скачан: 1 раз
Размер: 2.35 GB
terms.php



Быстрый ответ

Имя:

      
Для отправки сообщений необходимо включить JavaScript
Показать сообщения:    

Текущее время: 08-Дек 14:52

Часовой пояс: UTC + 3


Вы можете начинать темы
Вы можете отвечать на сообщения
Вы не можете редактировать свои сообщения
Вы не можете удалять свои сообщения
Вы не можете голосовать в опросах
Вы не можете прикреплять файлы к сообщениям
Вы можете скачивать файлы