(Orchestral) Andre Jolivet - Selected works: Flute concerto • Cello concerto No.2 • Symphony No.1 etc. (A.Jolivet • М.Ростропович • Г.Рождественский • В.Полянский • В.Синайский) - 2014, FLAC (image+.cue) lossless


Статистика раздачи [Обновить пиров]
Размер:  634 MB   |    Зарегистрирован:  1 год 1 месяц   |    Скачан:  2 раза

Полного источника не было: 5 дней

Личеров:  1  [  0 KB/s  ]   Подробная статистика пиров
 
   
 
 
 

[Цитировать]

-ANDRÉ JOLIVET
SELECTED WORKS
- Жанр: Orchestral
Страна-производитель диска: Россия
Год издания диска: 2014
Издатель (лейбл): Мелодия
Дата записи: 1960-80s
Аудиокодек: FLAC
Тип рипа: image+.cue
Битрейт аудио: lossless
Продолжительность: 2:20'38''
Источник: собственный рип
Наличие сканов в содержимом раздачи: да
Треклист:

CD1

[01] Concerto for flute and string orchestra: I. Andante cantabile
[02] II. Allegro scherzando
[03] III. Largo
[04] IV. Allegro risoluto
[05] Concerto for cello and string orchestra No.2
[06] Concerto for bassoon and chamber orchestra: I. Recitativo. Allegro giovale
[07] II. Largo cantabile. Fugato
[08] Concerto for piano and orchestra: I. Allegro deciso
[09] II. Andante con moto
[10] III. Allegro frenetico
А.Корнеев - флейта [1-4]
М.Ростропович - виолончель [5]
Большой Симфонический Оркестр Всесоюзного Радио [1-4]
Симфонический Оркестр Французского Радио [5]
А.Жоливье [1-5]
В.Попов - фагот [6-7]
Государственный Симфонический Оркестр СССР - Г.Рождественский [6-7]
В.Кастельский - фортепиано [8-10]
Оркестр Латвийской ССР - В.Синайский [8-10]

Лог создания рипа

Exact Audio Copy V1.0 beta 3 from 29. August 2011
EAC extraction logfile from 21. November 2014, 20:39
Andre Jolivet / Andre Jolivet. Selected works CD1
Used drive : HL-DT-STDVD+-RW GU90N Adapter: 0 ID: 0
Read mode : SecureUtilize accurate stream : YesDefeat audio cache : YesMake use of C2 pointers : No
Read offset correction : 102Overread into Lead-In and Lead-Out : NoFill up missing offset samples with silence : YesDelete leading and trailing silent blocks : NoNull samples used in CRC calculations : YesUsed interface : Native Win32 interface for Win NT & 2000
Used output format : User Defined EncoderSelected bitrate : 1024 kBit/sQuality : HighAdd ID3 tag : NoCommand line compressor : C:\Program Files (x86)\FLAC\flac.exeAdditional command line options : -T "COMMENT=rip by el coronel" -8 -V %source%
TOC of the extracted CD
Track | Start | Length | Start sector | End sector --------------------------------------------------------- 1 | 0:00.00 | 3:16.00 | 0 | 14699 2 | 3:16.00 | 4:03.23 | 14700 | 32947 3 | 7:19.23 | 1:48.26 | 32948 | 41073 4 | 9:07.49 | 4:05.72 | 41074 | 59520 5 | 13:13.46 | 21:27.04 | 59521 | 156049 6 | 34:40.50 | 7:26.08 | 156050 | 189507 7 | 42:06.58 | 7:59.12 | 189508 | 225444 8 | 50:05.70 | 6:57.62 | 225445 | 256781 9 | 57:03.57 | 8:19.60 | 256782 | 294266 10 | 65:23.42 | 5:24.51 | 294267 | 318617
Range status and errors
Selected range
Filename F:\Music\Jolivet - Selected works\CD1.wav
Peak level 93.5 % Extraction speed 4.9 X Range quality 100.0 % Test CRC 93849D67 Copy CRC 93849D67 Copy OK
No errors occurred
AccurateRip summary
Track 1 not present in databaseTrack 2 not present in databaseTrack 3 not present in databaseTrack 4 not present in databaseTrack 5 not present in databaseTrack 6 not present in databaseTrack 7 not present in databaseTrack 8 not present in databaseTrack 9 not present in databaseTrack 10 not present in database
None of the tracks are present in the AccurateRip database
End of status report
==== Log checksum 1B137FD47A0C6E4234EF8D24AEFD75A1DE0EF0FFDA8A339A6770F92471FD0BCC ====

Содержание индексной карты (.CUE)

REM GENRE AvantgardeREM DATE 2014REM DISCID 8C10980AREM COMMENT "ExactAudioCopy v1.0b3"PERFORMER "Andre Jolivet"TITLE "Andre Jolivet. Selected works CD1"FILE "CD1.flac" WAVE TRACK 01 AUDIO TITLE "Concerto for flute and string orchestra: I. Andante cantabile" PERFORMER "Korneev, Moscow Radio Symphony Orchestra - Jolivet" INDEX 01 00:00:00 TRACK 02 AUDIO TITLE "II. Allegro scherzando" PERFORMER "Korneev, Moscow Radio Symphony Orchestra - Jolivet" INDEX 01 03:16:00 TRACK 03 AUDIO TITLE "III. Largo" PERFORMER "Korneev, Moscow Radio Symphony Orchestra - Jolivet" INDEX 01 07:19:23 TRACK 04 AUDIO TITLE "IV. Allegro risoluto" PERFORMER "Korneev, Moscow Radio Symphony Orchestra - Jolivet" INDEX 01 09:07:49 TRACK 05 AUDIO TITLE "Concerto for cello and string orchestra No.2" PERFORMER "Rostropovich, Orchestre National de la Radiodiffusion Francaise - Jolivet" INDEX 01 13:13:46 TRACK 06 AUDIO TITLE "Concerto for bassoon and chamber orchestra: I. Recitativo. Allegro giovale " PERFORMER "Popov, State Symphony Orchestra - Rozhdestvensky" INDEX 01 34:40:50 TRACK 07 AUDIO TITLE "II. Largo cantabile. Fugato" PERFORMER "Popov, State Symphony Orchestra - Rozhdestvensky" INDEX 01 42:06:58 TRACK 08 AUDIO TITLE "Concerto for piano and orchestra: I. Allegro deciso" PERFORMER "Kastelsky, Latvian SSR State Symphony Orchestra - V.Sinaisky" INDEX 01 50:05:70 TRACK 09 AUDIO TITLE "II. Andante con moto" PERFORMER "Kastelsky, Latvian SSR State Symphony Orchestra - V.Sinaisky" INDEX 01 57:03:57 TRACK 10 AUDIO TITLE "III. Allegro frenetico" PERFORMER "Kastelsky, Latvian SSR State Symphony Orchestra - V.Sinaisky" INDEX 01 65:23:42

CD2

[01] Symphony No.1: I. Allegro strepitoso
[02] II. Adagio
[03] III. Allegro veloce
[04] IV. Allegro corruscante
[05] 5 Danses Rituelles for orchestra: I. Danse initiatique
[06] II. Danse du Heros
[07] III. Danse nuptiale
[08] IV. Danse du rapt
[09] V. Danse funeraire
[10] Rapsodie a 7 for winds, strings & percussion: I. Resoliu
[11] II. Hieratique
[12] III. Incisif
Большой Симфонический Оркестр Всесоюзного Радио - А.Жоливье [1-9]
А.Мусаэлян - скрипка • В.Соколов - кларнет • В.Попов - фагот • Л.Володин - труба • Г.Херсонский - тромбон • Р.Комачков - контрабас • В.Снегирев - ударные • В.Полянский - дирижёр [10-11]

Лог создания рипа

Exact Audio Copy V1.0 beta 3 from 29. August 2011
EAC extraction logfile from 21. November 2014, 21:14
Andre Jolivet / Andre Jolivet. Selected works CD2
Used drive : HL-DT-STDVD+-RW GU90N Adapter: 0 ID: 0
Read mode : SecureUtilize accurate stream : YesDefeat audio cache : YesMake use of C2 pointers : No
Read offset correction : 102Overread into Lead-In and Lead-Out : NoFill up missing offset samples with silence : YesDelete leading and trailing silent blocks : NoNull samples used in CRC calculations : YesUsed interface : Native Win32 interface for Win NT & 2000
Used output format : User Defined EncoderSelected bitrate : 1024 kBit/sQuality : HighAdd ID3 tag : NoCommand line compressor : C:\Program Files (x86)\FLAC\flac.exeAdditional command line options : -T "COMMENT=rip by el coronel" -8 -V %source%
TOC of the extracted CD
Track | Start | Length | Start sector | End sector --------------------------------------------------------- 1 | 0:00.00 | 6:22.23 | 0 | 28672 2 | 6:22.23 | 7:10.66 | 28673 | 60988 3 | 13:33.14 | 4:41.21 | 60989 | 82084 4 | 18:14.35 | 5:56.29 | 82085 | 108813 5 | 24:10.64 | 7:29.44 | 108814 | 142532 6 | 31:40.33 | 4:01.06 | 142533 | 160613 7 | 35:41.39 | 4:25.61 | 160614 | 180549 8 | 40:07.25 | 2:15.09 | 180550 | 190683 9 | 42:22.34 | 6:47.02 | 190684 | 221210 10 | 49:09.36 | 7:21.40 | 221211 | 254325 11 | 56:31.01 | 8:15.26 | 254326 | 291476 12 | 64:46.27 | 5:03.31 | 291477 | 314232
Range status and errors
Selected range
Filename F:\Music\Jolivet - Selected works\CD2.wav
Peak level 96.5 % Extraction speed 4.9 X Range quality 100.0 % Test CRC 39EF30D9 Copy CRC 39EF30D9 Copy OK
No errors occurred
AccurateRip summary
Track 1 not present in databaseTrack 2 not present in databaseTrack 3 not present in databaseTrack 4 not present in databaseTrack 5 not present in databaseTrack 6 not present in databaseTrack 7 not present in databaseTrack 8 not present in databaseTrack 9 not present in databaseTrack 10 not present in databaseTrack 11 not present in databaseTrack 12 not present in database
None of the tracks are present in the AccurateRip database
End of status report
==== Log checksum 953D4A4286CC876573C5AB78BECC9D64EBDDB30DB86F88BBB71EB2C9C46C3CF2 ====

Содержание индексной карты (.CUE)

REM GENRE AvantgardeREM DATE 2014REM DISCID AD105D0CREM COMMENT "ExactAudioCopy v1.0b3"PERFORMER "Andre Jolivet"TITLE "Andre Jolivet. Selected works CD2"FILE "CD2.flac" WAVE TRACK 01 AUDIO TITLE "Symphony No.1: I. Allegro strepitoso" PERFORMER "Moscow Radio Symphony Orchestra - Jolivet" INDEX 01 00:00:00 TRACK 02 AUDIO TITLE "II. Adagio" PERFORMER "Moscow Radio Symphony Orchestra - Jolivet" INDEX 01 06:22:23 TRACK 03 AUDIO TITLE "III. Allegro veloce" PERFORMER "Moscow Radio Symphony Orchestra - Jolivet" INDEX 01 13:33:14 TRACK 04 AUDIO TITLE "IV. Allegro corruscante" PERFORMER "Moscow Radio Symphony Orchestra - Jolivet" INDEX 01 18:14:35 TRACK 05 AUDIO TITLE "5 Danses Rituelles for orchestra: I. Danse initiatique" PERFORMER "Moscow Radio Symphony Orchestra - Jolivet" INDEX 01 24:10:64 TRACK 06 AUDIO TITLE "II. Danse du Heros" PERFORMER "Moscow Radio Symphony Orchestra - Jolivet" INDEX 01 31:40:33 TRACK 07 AUDIO TITLE "III. Danse nuptiale" PERFORMER "Moscow Radio Symphony Orchestra - Jolivet" INDEX 01 35:41:39 TRACK 08 AUDIO TITLE "IV. Danse du rapt" PERFORMER "Moscow Radio Symphony Orchestra - Jolivet" INDEX 01 40:07:25 TRACK 09 AUDIO TITLE "V. Danse funeraire" PERFORMER "Moscow Radio Symphony Orchestra - Jolivet" INDEX 01 42:22:34 TRACK 10 AUDIO TITLE "Rapsodie a 7 for winds, strings & percussion: I. Resoliu" PERFORMER "Musaelyan, Sokolov, Popov, Volodin, Khersonsky, Komachkov, Snegirev, Polyansky" INDEX 01 49:09:36 TRACK 11 AUDIO TITLE "II. Hieratique" PERFORMER "Musaelyan, Sokolov, Popov, Volodin, Khersonsky, Komachkov, Snegirev, Polyansky" INDEX 01 56:31:01 TRACK 12 AUDIO TITLE "III. Incisif" PERFORMER "Musaelyan, Sokolov, Popov, Volodin, Khersonsky, Komachkov, Snegirev, Polyansky" INDEX 01 64:46:27
-В творчестве французского композитора Андре Жоливе соединились разнохарактерные черты искусства ХХ в. – новые музыкальные средства (политональность, атональность), отголоски джаза и внеевропейских музыкальных культур (к ним Жоливе питал особое пристрастие, отсюда – его отношение к музыке как к «магическому священнодейству»), с другой стороны – хоровая полифония эрпохи Ренессанса и свойственная французскому искусству ясность и четкость изложения мыслей не без доли театральной аффектации. Возможно, именно потому одним из главных жанров для него оставался концерт в его самых различных вариантах. Композитор имел большие дружеские связи с нашей страной и неоднократно приезжал в СССР с авторскими концертами.
[teatrix.ru].t9710.torrent 
Торрент: Зарегистрирован [ 2015-10-23 17:11 ] · C5F27DB012CDAA8A1E102B1729DCC8812F365460

Скачать .torrent

Скачать

13 KB

Статус: проверено
Скачан: 2 раз
Размер: 634 MB
terms.php



Быстрый ответ

Имя:

      
Для отправки сообщений необходимо включить JavaScript
Показать сообщения:    

Текущее время: 03-Дек 07:39

Часовой пояс: UTC + 3


Вы можете начинать темы
Вы можете отвечать на сообщения
Вы не можете редактировать свои сообщения
Вы не можете удалять свои сообщения
Вы не можете голосовать в опросах
Вы не можете прикреплять файлы к сообщениям
Вы можете скачивать файлы