(Classical) Liszt: The Complete Piano Music - (Leslie Howard) 2011,(BOX SET 99CD) FLAC (tracks+.cue) lossless


Статистика раздачи [Обновить пиров]
Размер:  20.68 GB   |    Зарегистрирован:  1 год 3 месяца   |    Скачан:  1 раз
Сидов:  15  [  0 KB/s  ]   Личеров:  6  [  0 KB/s  ]   Подробная статистика пиров
 
   
 
 

[Цитировать]

Franz Liszt: The Complete Piano Music (BOX SET 99CD) Жанр: Classical
Год издания диска: 2011
Издатель (лейбл): Hyperion
Номер по каталогу: CDS44501/98
Аудиокодек: FLAC
Тип рипа: tracks+.cue
Битрейт аудио: lossless
Продолжительность: 7255 minutes 52 seconds
Источник: вата (MrHudson)
Наличие сканов в содержимом раздачи: да
Треклист:
vol. 1 - The Waltzes
vol. 2 - Ballades, Legends and Polonaises
vol. 3 - BACH Fantasy, Variations, Odes, Konzertsolo
vol. 4 - Transcendental Йtudes, etc.
vol. 5 - Berlioz, Chopin and Saint-Saлns Transcriptions
vol. 6 - Liszt at the Opera - I [2 CDs]
vol. 7 - Harmonies poйtiques et religieuses, etc. [2 CDs]
vol. 8 - Christmas Tree, Via Crucis and Chorales
vol. 9 - Sonata, Elegies, Gretchen, Consolations, Totentanz
vol. 10 - Hexamйron, Symphonie fantastique
vol. 11 - The Late Pieces
vol. 12 - Troisiиme Annйe de pиlerinage, etc.
vol. 13 - A la Chapelle Sixtine, Bach Transcriptions
vol. 14 - St. Elizabeth, Christus and St. Stanislaus pieces
vol. 15 - Songs without Words - 60 Transcriptions [2 CDs]
vol. 16 - Bunte Reihe
vol. 17 - Liszt at the Opera - II [2 CDs]
vol. 18 - Liszt at the Theatre
vol. 19 - Liebestrдume and the Songbooks
vol. 20 - Album d'un voyageur, etc. [2 CDs]
vol. 21 - Soirйes musicales, Soirйes italiennes, etc. [2 CDs]
vol. 22 - Beethoven Symphonies [5 CDs]
vol. 23 - Harold in Italy, etc.
vol. 24 - Beethoven/Hummel Septets, Choral transcriptions [2CDs]
vol. 25 - Canticle of the Sun, From the Cradle to the Grave, etc.
vol. 26 - The Young Liszt; Album-Leaves and Apparitions [2 CDs]
vol. 27 - Fantasies on National Songs and Anthems
vol. 28 - Dances and Marches [2 CDs]
vol. 29 - Magyar Dalok; Magyar Rapszуdiбk [2 CDs]
vol. 30 - Liszt at the Opera - III [2 CDs]
vol. 31 - The Schubert Transcriptions - I [3CDs]
vol. 32 - The Schubert Transcriptions - II [3CDs]
vol. 33 - The Schubert Transcriptions - III [3CDs]
vol. 34 - Douze Grandes Йtudes
vol. 35 - Arabesques, etc.
vol. 36 - Excelsior!, etc.
vol. 37 - Tanzmomente, etc.
vol. 38 - Les Prйludes, etc.
vol. 39 - Premiиre Annйe de pиlerinage
vol. 40 - Gaudeamus igitur - Piиces d'occasion
vol. 41 - The Recitations with piano
vol. 42 - Liszt at the Opera - IV [2 CDs]
vol. 43 - Deuxiиme Annйe de pиlerinage
vol. 44 - The Early Beethoven Transcriptions [3 CDs]
vol. 45 - Rapsodie espagnole and other Spanish pieces
vol. 46 - Meditations: Responsories and Antiphons [2 CDs]
vol. 47 - Litanies de Marie
vol. 48 - Complete Paganini Йtudes
vol. 49 - Schubert and Weber transcriptions
vol. 50 - Liszt at the Opera - V [2 CDs]
vol. 51 - Paralipomиnes [2 CDs]
vol. 52 - Ungarischer Romanzero
vol. 53a – Music for Piano and Orchestra I [2 CDs]
vol. 53b – Music for Piano and Orchestra II [2 CDs + bonus CD]
vol. 54 – Liszt at the Opera VI [2 CDs]
vol. 55 – Grande Fantaisie sur La clochette, etc. [3 CDs]
vol. 56 – Rarities, Curiosities, Album-Leaves & Fragments [4 CDs]
vol. 57 – Rapsodies hongroises [2 CDs]
THE ESSENTIAL LISZT [2 CD sampler of the series]
NEW DISCOVERIES 1 inc. Zigeuner-Epos
NEW DISCOVERIES 2 inc. Concerto sans orchestre & 8 Preludes
NEW DISCOVERIES 3 [2 CDs]THE COMPLETE PIANO MUSIC OF LISZT [99 CD boxed set]
Исполнители:
Leslie Howard - Piano

CD1Лог создания рипа

X Lossless Decoder version 20131102 (145.0)
XLD extraction logfile from 2014-01-06 19:23:36 +0100
Franz Liszt / Liszt: The Complete Piano Music
Used drive : MATSHITA DVD-R UJ-898 (revision HC10)Media type : Pressed CD
Ripper mode : XLD Secure RipperDisable audio cache : OK for the drive with a cache less than 1375KiBMake use of C2 pointers : NORead offset correction : 102Max retry count : 100Gap status : Analyzed, Appended (except HTOA)
TOC of the extracted CD Track | Start | Length | Start sector | End sector --------------------------------------------------------- 1 | 00:00:00 | 01:59:00 | 0 | 8924 2 | 01:59:00 | 01:11:00 | 8925 | 14249 3 | 03:10:00 | 07:26:00 | 14250 | 47699 4 | 10:36:00 | 14:41:00 | 47700 | 113774 5 | 25:17:00 | 09:19:00 | 113775 | 155699 6 | 34:36:00 | 12:14:00 | 155700 | 210749 7 | 46:50:00 | 09:08:00 | 210750 | 251849 8 | 55:58:00 | 12:09:00 | 251850 | 306524
List of alternate offset correction values # | Absolute | Relative | Confidence ------------------------------------------ 1 | -1348 | -1450 | 6 2 | 120 | 18 | 2
AccurateRip Summary (DiscID: 0010ede3-007a1eb3-5d0ff708) Track 01 : OK (v1+v2, confidence 17/25) Track 02 : OK (v1+v2, confidence 17/25) Track 03 : OK (v1+v2, confidence 17/25) Track 04 : OK (v1+v2, confidence 17/25) Track 05 : OK (v1+v2, confidence 17/25) Track 06 : OK (v1+v2, confidence 17/25) Track 07 : OK (v1+v2, confidence 17/25) Track 08 : OK (v1+v2, confidence 16/23) ->All tracks accurately ripped.
All Tracks Album gain : 0.66 dB Peak : 0.999969 Statistics Read error : 0 Jitter error (maybe fixed) : 0 Retry sector count : 0 Damaged sector count : 0
Track 01 Filename : /Users/Home/XLD/FLAC/Franz Liszt - Liszt: The Complete Piano Music (2011) [FLAC]/01 Variation über einen Walzer von Diabelli, S147.flac Pre-gap length : 00:02:00
Track gain : -1.90 dB Peak : 0.790741 CRC32 hash (test run) : 7E473E36 CRC32 hash : 7E473E36 CRC32 hash (skip zero) : E229AB2B AccurateRip v1 signature : 0D8BD2FA AccurateRip v2 signature : 88AE2100 ->Accurately ripped (v1+v2, confidence 6+11/25) Statistics Read error : 0 Jitter error (maybe fixed) : 0 Retry sector count : 0 Damaged sector count : 0
Track 02 Filename : /Users/Home/XLD/FLAC/Franz Liszt - Liszt: The Complete Piano Music (2011) [FLAC]/02 Walzer, S208a.flac
Track gain : 5.52 dB Peak : 0.431122 CRC32 hash (test run) : 77C6951B CRC32 hash : 77C6951B CRC32 hash (skip zero) : 64995B37 AccurateRip v1 signature : C97043E4 AccurateRip v2 signature : 31B9C38A ->Accurately ripped (v1+v2, confidence 6+11/25) Statistics Read error : 0 Jitter error (maybe fixed) : 0 Retry sector count : 0 Damaged sector count : 0
Track 03 Filename : /Users/Home/XLD/FLAC/Franz Liszt - Liszt: The Complete Piano Music (2011) [FLAC]/03 Fünf Variationen über die Romanze aus der Oper Joseph von Méhul.flac
Track gain : 2.09 dB Peak : 0.661987 CRC32 hash (test run) : E4A4D0D1 CRC32 hash : E4A4D0D1 CRC32 hash (skip zero) : 762A5988 AccurateRip v1 signature : 075CCA9D AccurateRip v2 signature : B8F07D16 ->Accurately ripped (v1+v2, confidence 6+11/25) Statistics Read error : 0 Jitter error (maybe fixed) : 0 Retry sector count : 0 Damaged sector count : 0
Track 04 Filename : /Users/Home/XLD/FLAC/Franz Liszt - Liszt: The Complete Piano Music (2011) [FLAC]/04 Huit Variations (on an original theme), S148 Op 1.flac
Track gain : 2.64 dB Peak : 0.717010 CRC32 hash (test run) : 926B5C14 CRC32 hash : 926B5C14 CRC32 hash (skip zero) : B8E9CC48 AccurateRip v1 signature : A8AF1C86 AccurateRip v2 signature : 8D12105F ->Accurately ripped (v1+v2, confidence 6+11/25) Statistics Read error : 0 Jitter error (maybe fixed) : 0 Retry sector count : 0 Damaged sector count : 0
Track 05 Filename : /Users/Home/XLD/FLAC/Franz Liszt - Liszt: The Complete Piano Music (2011) [FLAC]/05 Sept Variations brillantes sur un thème de Rossini (from Ermione), S149 Op 2.flac
Track gain : 0.57 dB Peak : 0.793732 CRC32 hash (test run) : BA278C25 CRC32 hash : BA278C25 CRC32 hash (skip zero) : 93173D24 AccurateRip v1 signature : 108F5B91 AccurateRip v2 signature : 0F014DBE ->Accurately ripped (v1+v2, confidence 6+11/25) Statistics Read error : 0 Jitter error (maybe fixed) : 0 Retry sector count : 0 Damaged sector count : 0
Track 06 Filename : /Users/Home/XLD/FLAC/Franz Liszt - Liszt: The Complete Piano Music (2011) [FLAC]/06 Impromptu brillant sur des thèmes de Rossini et Spontini, S150 Op 3.flac
Track gain : 0.98 dB Peak : 0.999969 CRC32 hash (test run) : 9CFD3085 CRC32 hash : 9CFD3085 CRC32 hash (skip zero) : C856024E AccurateRip v1 signature : EED0EC5C AccurateRip v2 signature : 9146B5E8 ->Accurately ripped (v1+v2, confidence 6+11/25) Statistics Read error : 0 Jitter error (maybe fixed) : 0 Retry sector count : 0 Damaged sector count : 0
Track 07 Filename : /Users/Home/XLD/FLAC/Franz Liszt - Liszt: The Complete Piano Music (2011) [FLAC]/07 Allegro di bravura, S151 Op 4 No 1.flac
Track gain : 0.27 dB Peak : 0.830048 CRC32 hash (test run) : 0AF2C07A CRC32 hash : 0AF2C07A CRC32 hash (skip zero) : 113083D6 AccurateRip v1 signature : B901200B AccurateRip v2 signature : 1AAC69F4 ->Accurately ripped (v1+v2, confidence 6+11/25) Statistics Read error : 0 Jitter error (maybe fixed) : 0 Retry sector count : 0 Damaged sector count : 0
Track 08 Filename : /Users/Home/XLD/FLAC/Franz Liszt - Liszt: The Complete Piano Music (2011) [FLAC]/08 Rondo di bravura, S152 Op 4 No 2.flac
Track gain : -0.16 dB Peak : 0.920868 CRC32 hash (test run) : 93136880 CRC32 hash : 93136880 CRC32 hash (skip zero) : 80476951 AccurateRip v1 signature : 8F136D2B AccurateRip v2 signature : 98ACD0ED ->Accurately ripped (v1+v2, confidence 5+11/23) Statistics Read error : 0 Jitter error (maybe fixed) : 0 Retry sector count : 0 Damaged sector count : 0
No errors occurred
End of status report
-----BEGIN XLD SIGNATURE-----A86fzBegnrckFI5r38gQC25lHVUhygjeQNWXv77EeYxyt1bujw1_XtmsWMmq11oFdB2NFZXRaTmAeJPemtDjTGVl9LjGyDNQJgTUxDq-----END XLD SIGNATURE-----

Содержание индексной карты (.CUE)

TITLE "Liszt: The Complete Piano Music"PERFORMER "Franz Liszt"CATALOG 0034571145013REM GENRE "Classical"REM DATE "2011"REM DISCNUMBER 1REM TOTALDISCS 99REM DISCID 5D0FF708REM REPLAYGAIN_ALBUM_GAIN 0.66 dBREM REPLAYGAIN_ALBUM_PEAK 0.999969FILE "01 Variation über einen Walzer von Diabelli, S147.flac" WAVE TRACK 01 AUDIO TITLE "Variation über einen Walzer von Diabelli, S147" PERFORMER "Leslie Howard" SONGWRITER "Franz Liszt/Anton Diabelli" ISRC GBAJY9477101 REM REPLAYGAIN_TRACK_GAIN -1.90 dB REM REPLAYGAIN_TRACK_PEAK 0.790741 INDEX 01 00:00:00FILE "02 Walzer, S208a.flac" WAVE TRACK 02 AUDIO TITLE "Walzer, S208a" PERFORMER "Leslie Howard" SONGWRITER "Franz Liszt" ISRC GBAJY9477102 REM REPLAYGAIN_TRACK_GAIN 5.52 dB REM REPLAYGAIN_TRACK_PEAK 0.431122 INDEX 01 00:00:00FILE "03 Fünf Variationen über die Romanze aus der Oper Joseph von Méhul.flac" WAVE TRACK 03 AUDIO TITLE "Fünf Variationen über die Romanze aus der Oper Joseph von Méhul" PERFORMER "Leslie Howard" SONGWRITER "Franz Liszt/Franz Xaver Mozart/Etienne-Nicolas Méhul" ISRC GBAJY9477103 REM REPLAYGAIN_TRACK_GAIN 2.09 dB REM REPLAYGAIN_TRACK_PEAK 0.661987 INDEX 01 00:00:00FILE "04 Huit Variations (on an original theme), S148 Op 1.flac" WAVE TRACK 04 AUDIO TITLE "Huit Variations (on an original theme), S148 Op 1" PERFORMER "Leslie Howard" SONGWRITER "Franz Liszt" ISRC GBAJY9477104 REM REPLAYGAIN_TRACK_GAIN 2.64 dB REM REPLAYGAIN_TRACK_PEAK 0.717010 INDEX 01 00:00:00FILE "05 Sept Variations brillantes sur un thème de Rossini (from Ermione), S149 Op 2.flac" WAVE TRACK 05 AUDIO TITLE "Sept Variations brillantes sur un thème de Rossini (from Ermione), S149 Op 2" PERFORMER "Leslie Howard" SONGWRITER "Franz Liszt/Gioacchino Rossini" ISRC GBAJY9477105 REM REPLAYGAIN_TRACK_GAIN 0.57 dB REM REPLAYGAIN_TRACK_PEAK 0.793732 INDEX 01 00:00:00FILE "06 Impromptu brillant sur des thèmes de Rossini et Spontini, S150 Op 3.flac" WAVE TRACK 06 AUDIO TITLE "Impromptu brillant sur des thèmes de Rossini et Spontini, S150 Op 3" PERFORMER "Leslie Howard" SONGWRITER "Franz Liszt/Gioacchino Rossini/Gaspare Spontini" ISRC GBAJY9477106 REM REPLAYGAIN_TRACK_GAIN 0.98 dB REM REPLAYGAIN_TRACK_PEAK 0.999969 INDEX 01 00:00:00FILE "07 Allegro di bravura, S151 Op 4 No 1.flac" WAVE TRACK 07 AUDIO TITLE "Allegro di bravura, S151 Op 4 No 1" PERFORMER "Leslie Howard" SONGWRITER "Franz Liszt" ISRC GBAJY9477107 REM REPLAYGAIN_TRACK_GAIN 0.27 dB REM REPLAYGAIN_TRACK_PEAK 0.830048 INDEX 01 00:00:00FILE "08 Rondo di bravura, S152 Op 4 No 2.flac" WAVE TRACK 08 AUDIO TITLE "Rondo di bravura, S152 Op 4 No 2" PERFORMER "Leslie Howard" SONGWRITER "Franz Liszt" ISRC GBAJY9477108 REM REPLAYGAIN_TRACK_GAIN -0.16 dB REM REPLAYGAIN_TRACK_PEAK 0.920868 INDEX 01 00:00:00

CD2Лог создания рипа

X Lossless Decoder version 20131102 (145.0)
XLD extraction logfile from 2014-01-06 19:50:08 +0100
Franz Liszt / Liszt: The Complete Piano Music
Used drive : MATSHITA DVD-R UJ-898 (revision HC10)Media type : Pressed CD
Ripper mode : XLD Secure RipperDisable audio cache : OK for the drive with a cache less than 1375KiBMake use of C2 pointers : NORead offset correction : 102Max retry count : 100Gap status : Analyzed, Appended (except HTOA)
TOC of the extracted CD Track | Start | Length | Start sector | End sector --------------------------------------------------------- 1 | 00:00:00 | 01:14:32 | 0 | 5581 2 | 01:14:32 | 01:14:45 | 5582 | 11176 3 | 02:29:02 | 02:20:18 | 11177 | 21694 4 | 04:49:20 | 01:10:50 | 21695 | 26994 5 | 05:59:70 | 02:46:27 | 26995 | 39471 6 | 08:46:22 | 01:23:03 | 39472 | 45699 7 | 10:09:25 | 02:24:35 | 45700 | 56534 8 | 12:33:60 | 01:47:27 | 56535 | 64586 9 | 14:21:12 | 03:17:53 | 64587 | 79414 10 | 17:38:65 | 01:56:05 | 79415 | 88119 11 | 19:34:70 | 02:56:15 | 88120 | 101334 12 | 22:31:10 | 02:13:30 | 101335 | 111339 13 | 24:44:40 | 01:09:10 | 111340 | 116524 14 | 25:53:50 | 02:37:25 | 116525 | 128324 15 | 28:31:00 | 02:51:00 | 128325 | 141149 16 | 31:22:00 | 01:32:00 | 141150 | 148049 17 | 32:54:00 | 00:45:00 | 148050 | 151424 18 | 33:39:00 | 01:02:00 | 151425 | 156074 19 | 34:41:00 | 02:35:00 | 156075 | 167699 20 | 37:16:00 | 00:54:00 | 167700 | 171749 21 | 38:10:00 | 01:03:00 | 171750 | 176474 22 | 39:13:00 | 01:17:00 | 176475 | 182249 23 | 40:30:00 | 04:52:00 | 182250 | 204149 24 | 45:22:00 | 02:24:00 | 204150 | 214949 25 | 47:46:00 | 05:45:00 | 214950 | 240824 26 | 53:31:00 | 02:43:00 | 240825 | 253049 27 | 56:14:00 | 06:21:00 | 253050 | 281624 28 | 62:35:00 | 03:46:00 | 281625 | 298574 29 | 66:21:00 | 07:46:00 | 298575 | 333524
List of alternate offset correction values # | Absolute | Relative | Confidence ------------------------------------------ 1 | -1328 | -1430 | 3 2 | 120 | 18 | 2
AccurateRip Summary (DiscID: 003d50ca-0514eff7-9d115f1d) Track 01 : OK (v1+v2, confidence 16/21) Track 02 : OK (v1+v2, confidence 16/21) Track 03 : OK (v1+v2, confidence 16/21) Track 04 : OK (v1+v2, confidence 16/21) Track 05 : OK (v1+v2, confidence 16/21) Track 06 : OK (v1+v2, confidence 16/21) Track 07 : OK (v1+v2, confidence 16/21) Track 08 : OK (v1+v2, confidence 16/21) Track 09 : OK (v1+v2, confidence 16/21) Track 10 : OK (v1+v2, confidence 16/21) Track 11 : OK (v1+v2, confidence 16/21) Track 12 : OK (v1+v2, confidence 16/21) Track 13 : OK (v1+v2, confidence 16/21) Track 14 : OK (v1+v2, confidence 16/21) Track 15 : OK (v1+v2, confidence 16/21) Track 16 : OK (v1+v2, confidence 16/21) Track 17 : OK (v1+v2, confidence 16/21) Track 18 : OK (v1+v2, confidence 16/21) Track 19 : OK (v1+v2, confidence 16/21) Track 20 : OK (v1+v2, confidence 16/21) Track 21 : OK (v1+v2, confidence 16/21) Track 22 : OK (v1+v2, confidence 16/21) Track 23 : OK (v1+v2, confidence 16/21) Track 24 : OK (v1+v2, confidence 16/21) Track 25 : OK (v1+v2, confidence 16/21) Track 26 : OK (v1+v2, confidence 16/21) Track 27 : OK (v1+v2, confidence 16/21) Track 28 : OK (v1+v2, confidence 16/21) Track 29 : OK (v1+v2, confidence 16/21) ->All tracks accurately ripped.
All Tracks Album gain : 0.97 dB Peak : 0.999969 Statistics Read error : 0 Jitter error (maybe fixed) : 0 Retry sector count : 0 Damaged sector count : 0
Track 01 Filename : /Users/Home/XLD/FLAC/Franz Liszt - Liszt: The Complete Piano Music (2011) [FLAC]/01 Douze Études 'Étude en douze exercices', S136 Op 6 - No 1 in C major.flac Pre-gap length : 00:02:00
Track gain : 0.20 dB Peak : 0.769714 CRC32 hash (test run) : 344164FE CRC32 hash : 344164FE CRC32 hash (skip zero) : 9199481E AccurateRip v1 signature : ADF603E2 AccurateRip v2 signature : C0DE4157 ->Accurately ripped (v1+v2, confidence 6+10/21) Statistics Read error : 0 Jitter error (maybe fixed) : 0 Retry sector count : 0 Damaged sector count : 0
Track 02 Filename : /Users/Home/XLD/FLAC/Franz Liszt - Liszt: The Complete Piano Music (2011) [FLAC]/02 Douze Études 'Étude en douze exercices', S136 Op 6 - No 2 in A minor.flac
Track gain : 0.51 dB Peak : 0.722931 CRC32 hash (test run) : 58C53F85 CRC32 hash : 58C53F85 CRC32 hash (skip zero) : 1F2D7F25 AccurateRip v1 signature : 57060F3F AccurateRip v2 signature : 233B8776 ->Accurately ripped (v1+v2, confidence 6+10/21) Statistics Read error : 0 Jitter error (maybe fixed) : 0 Retry sector count : 0 Damaged sector count : 0
Track 03 Filename : /Users/Home/XLD/FLAC/Franz Liszt - Liszt: The Complete Piano Music (2011) [FLAC]/03 Douze Études 'Étude en douze exercices', S136 Op 6 - No 3 in F major.flac
Track gain : -0.55 dB Peak : 0.874695 CRC32 hash (test run) : 8ED0AF15 CRC32 hash : 8ED0AF15 CRC32 hash (skip zero) : 9C8AAC7F AccurateRip v1 signature : 96E3D8A2 AccurateRip v2 signature : 39F2AC90 ->Accurately ripped (v1+v2, confidence 6+10/21) Statistics Read error : 0 Jitter error (maybe fixed) : 0 Retry sector count : 0 Damaged sector count : 0
Track 04 Filename : /Users/Home/XLD/FLAC/Franz Liszt - Liszt: The Complete Piano Music (2011) [FLAC]/04 Douze Études 'Étude en douze exercices', S136 Op 6 - No 4 in D minor.flac
Track gain : 2.19 dB Peak : 0.887024 CRC32 hash (test run) : 4E6BAFE0 CRC32 hash : 4E6BAFE0 CRC32 hash (skip zero) : F04D8F56 AccurateRip v1 signature : 4BFA1729 AccurateRip v2 signature : 5243918A ->Accurately ripped (v1+v2, confidence 6+10/21) Statistics Read error : 0 Jitter error (maybe fixed) : 0 Retry sector count : 0 Damaged sector count : 0
Track 05 Filename : /Users/Home/XLD/FLAC/Franz Liszt - Liszt: The Complete Piano Music (2011) [FLAC]/05 Douze Études 'Étude en douze exercices', S136 Op 6 - No 5 in B flat major.flac
Track gain : -0.25 dB Peak : 0.750092 CRC32 hash (test run) : 8699CAE6 CRC32 hash : 8699CAE6 CRC32 hash (skip zero) : 35B7439E AccurateRip v1 signature : 58E5F0B2 AccurateRip v2 signature : 46D8B74C ->Accurately ripped (v1+v2, confidence 6+10/21) Statistics Read error : 0 Jitter error (maybe fixed) : 0 Retry sector count : 0 Damaged sector count : 0
Track 06 Filename : /Users/Home/XLD/FLAC/Franz Liszt - Liszt: The Complete Piano Music (2011) [FLAC]/06 Douze Études 'Étude en douze exercices', S136 Op 6 - No 6 in G minor.flac
Track gain : 0.40 dB Peak : 0.675079 CRC32 hash (test run) : E80D2044 CRC32 hash : E80D2044 CRC32 hash (skip zero) : 35DC7EC4 AccurateRip v1 signature : B53818DB AccurateRip v2 signature : 6561E8A5 ->Accurately ripped (v1+v2, confidence 6+10/21) Statistics Read error : 0 Jitter error (maybe fixed) : 0 Retry sector count : 0 Damaged sector count : 0
Track 07 Filename : /Users/Home/XLD/FLAC/Franz Liszt - Liszt: The Complete Piano Music (2011) [FLAC]/07 Douze Études 'Étude en douze exercices', S136 Op 6 - No 7 in E flat major.flac
Track gain : 2.11 dB Peak : 0.529755 CRC32 hash (test run) : DFB3B79C CRC32 hash : DFB3B79C CRC32 hash (skip zero) : F5E9467C AccurateRip v1 signature : 67309A6E AccurateRip v2 signature : F38B5E04 ->Accurately ripped (v1+v2, confidence 6+10/21) Statistics Read error : 0 Jitter error (maybe fixed) : 0 Retry sector count : 0 Damaged sector count : 0
Track 08 Filename : /Users/Home/XLD/FLAC/Franz Liszt - Liszt: The Complete Piano Music (2011) [FLAC]/08 Douze Études 'Étude en douze exercices', S136 Op 6 - No 8 in C minor.flac
Track gain : -0.91 dB Peak : 0.890106 CRC32 hash (test run) : 8D5EF23D CRC32 hash : 8D5EF23D CRC32 hash (skip zero) : 692F6F58 AccurateRip v1 signature : 18F1F654 AccurateRip v2 signature : FE966F6C ->Accurately ripped (v1+v2, confidence 6+10/21) Statistics Read error : 0 Jitter error (maybe fixed) : 0 Retry sector count : 0 Damaged sector count : 0
Track 09 Filename : /Users/Home/XLD/FLAC/Franz Liszt - Liszt: The Complete Piano Music (2011) [FLAC]/09 Douze Études 'Étude en douze exercices', S136 Op 6 - No 9 in A flat major.flac
Track gain : 3.53 dB Peak : 0.497162 CRC32 hash (test run) : EB880EAB CRC32 hash : EB880EAB CRC32 hash (skip zero) : 9CAF9C09 AccurateRip v1 signature : 5A6A1B68 AccurateRip v2 signature : 734F3D9E ->Accurately ripped (v1+v2, confidence 6+10/21) Statistics Read error : 0 Jitter error (maybe fixed) : 0 Retry sector count : 0 Damaged sector count : 0
Track 10 Filename : /Users/Home/XLD/FLAC/Franz Liszt - Liszt: The Complete Piano Music (2011) [FLAC]/10 Douze Études 'Étude en douze exercices', S136 Op 6 - No 10 in F minor.flac
Track gain : -0.91 dB Peak : 0.975922 CRC32 hash (test run) : 1E18685A CRC32 hash : 1E18685A CRC32 hash (skip zero) : 86371971 AccurateRip v1 signature : 21363A19 AccurateRip v2 signature : 97366DDC ->Accurately ripped (v1+v2, confidence 6+10/21) Statistics Read error : 0 Jitter error (maybe fixed) : 0 Retry sector count : 0 Damaged sector count : 0
Track 11 Filename : /Users/Home/XLD/FLAC/Franz Liszt - Liszt: The Complete Piano Music (2011) [FLAC]/11 Douze Études 'Étude en douze exercices', S136 Op 6 - No 11 in D flat major.flac
Track gain : 2.37 dB Peak : 0.570862 CRC32 hash (test run) : A8D1E580 CRC32 hash : A8D1E580 CRC32 hash (skip zero) : 2FA0F837 AccurateRip v1 signature : 7A9B93CC AccurateRip v2 signature : C2A85BBB ->Accurately ripped (v1+v2, confidence 6+10/21) Statistics Read error : 0 Jitter error (maybe fixed) : 0 Retry sector count : 0 Damaged sector count : 0
Track 12 Filename : /Users/Home/XLD/FLAC/Franz Liszt - Liszt: The Complete Piano Music (2011) [FLAC]/12 Douze Études 'Étude en douze exercices', S136 Op 6 - No 12 in B flat minor.flac
Track gain : 0.74 dB Peak : 0.801331 CRC32 hash (test run) : 8CE9E4BA CRC32 hash : 8CE9E4BA CRC32 hash (skip zero) : 512EC71B AccurateRip v1 signature : BED173AD AccurateRip v2 signature : E5A5A2FC ->Accurately ripped (v1+v2, confidence 6+10/21) Statistics Read error : 0 Jitter error (maybe fixed) : 0 Retry sector count : 0 Damaged sector count : 0
Track 13 Filename : /Users/Home/XLD/FLAC/Franz Liszt - Liszt: The Complete Piano Music (2011) [FLAC]/13 Scherzo, S153.flac
Track gain : -0.40 dB Peak : 0.729370 CRC32 hash (test run) : 8ABDDFB2 CRC32 hash : 8ABDDFB2 CRC32 hash (skip zero) : 143F1EB2 AccurateRip v1 signature : 82DF31B4 AccurateRip v2 signature : EA389415 ->Accurately ripped (v1+v2, confidence 6+10/21) Statistics Read error : 0 Jitter error (maybe fixed) : 0 Retry sector count : 0 Damaged sector count : 0
Track 14 Filename : /Users/Home/XLD/FLAC/Franz Liszt - Liszt: The Complete Piano Music (2011) [FLAC]/14 Two Hungarian Recruiting Dances by László Fáy and János Bihari 'Zum Andenken', S241 - No 1 Kinizsi nótája.flac
Track gain : 1.99 dB Peak : 0.509094 CRC32 hash (test run) : 37A03726 CRC32 hash : 37A03726 CRC32 hash (skip zero) : 8C21F86D AccurateRip v1 signature : 30C78A97 AccurateRip v2 signature : 7ACBB5B3 ->Accurately ripped (v1+v2, confidence 6+10/21) Statistics Read error : 0 Jitter error (maybe fixed) : 0 Retry sector count : 0 Damaged sector count : 0
Track 15 Filename : /Users/Home/XLD/FLAC/Franz Liszt - Liszt: The Complete Piano Music (2011) [FLAC]/15 Two Hungarian Recruiting Dances by László Fáy and János Bihari 'Zum Andenken', S241 - No 2 Lassú magyar.flac
Track gain : 0.58 dB Peak : 0.639221 CRC32 hash (test run) : FA687329 CRC32 hash : FA687329 CRC32 hash (skip zero) : B0781564 AccurateRip v1 signature : C63D43C0 AccurateRip v2 signature : 25FC2B6F ->Accurately ripped (v1+v2, confidence 6+10/21) Statistics Read error : 0 Jitter error (maybe fixed) : 0 Retry sector count : 0 Damaged sector count : 0
Track 16 Filename : /Users/Home/XLD/FLAC/Franz Liszt - Liszt: The Complete Piano Music (2011) [FLAC]/16 Galop de bal, S220.flac
Track gain : 2.45 dB Peak : 0.632690 CRC32 hash (test run) : 27B1ADD3 CRC32 hash : 27B1ADD3 CRC32 hash (skip zero) : 984B647B AccurateRip v1 signature : 706B9E20 AccurateRip v2 signature : AE932BF0 ->Accurately ripped (v1+v2, confidence 6+10/21) Statistics Read error : 0 Jitter error (maybe fixed) : 0 Retry sector count : 0 Damaged sector count : 0
Track 17 Filename : /Users/Home/XLD/FLAC/Franz Liszt - Liszt: The Complete Piano Music (2011) [FLAC]/17 Galop de bal, S220.flac
Track gain : -1.64 dB Peak : 0.999969 CRC32 hash (test run) : 26543482 CRC32 hash : 26543482 CRC32 hash (skip zero) : 252440A8 AccurateRip v1 signature : 910BFA4D AccurateRip v2 signature : 83EC5643 ->Accurately ripped (v1+v2, confidence 6+10/21) Statistics Read error : 0 Jitter error (maybe fixed) : 0 Retry sector count : 0 Damaged sector count : 0
Track 18 Filename : /Users/Home/XLD/FLAC/Franz Liszt - Liszt: The Complete Piano Music (2011) [FLAC]/18 Marche hongroise, S233b.flac
Track gain : -1.22 dB Peak : 0.901367 CRC32 hash (test run) : A6788D59 CRC32 hash : A6788D59 CRC32 hash (skip zero) : 0F6E0474 AccurateRip v1 signature : D07E8E6E AccurateRip v2 signature : E50979E4 ->Accurately ripped (v1+v2, confidence 6+10/21) Statistics Read error : 0 Jitter error (maybe fixed) : 0 Retry sector count : 0 Damaged sector count : 0
Track 19 Filename : /Users/Home/XLD/FLAC/Franz Liszt - Liszt: The Complete Piano Music (2011) [FLAC]/19 Klavierstück aus der Bonn Beethoven-Kantate, S507.flac
Track gain : -0.53 dB Peak : 0.804382 CRC32 hash (test run) : 945A834E CRC32 hash : 945A834E CRC32 hash (skip zero) : 5F1A9D2C AccurateRip v1 signature : A35F14A5 AccurateRip v2 signature : 8B08FEA6 ->Accurately ripped (v1+v2, confidence 6+10/21) Statistics Read error : 0 Jitter error (maybe fixed) : 0 Retry sector count : 0 Damaged sector count : 0
Track 20 Filename : /Users/Home/XLD/FLAC/Franz Liszt - Liszt: The Complete Piano Music (2011) [FLAC]/20 Klavierstück, S189b.flac
Track gain : 8.74 dB Peak : 0.252411 CRC32 hash (test run) : EB245EB9 CRC32 hash : EB245EB9 CRC32 hash (skip zero) : F41E5B6F AccurateRip v1 signature : A8DFF4A2 AccurateRip v2 signature : 9854F43A ->Accurately ripped (v1+v2, confidence 6+10/21) Statistics Read error : 0 Jitter error (maybe fixed) : 0 Retry sector count : 0 Damaged sector count : 0
Track 21 Filename : /Users/Home/XLD/FLAC/Franz Liszt - Liszt: The Complete Piano Music (2011) [FLAC]/21 Klavierstück, S189a.flac
Track gain : 3.92 dB Peak : 0.389984 CRC32 hash (test run) : 80C01778 CRC32 hash : 80C01778 CRC32 hash (skip zero) : 3BD235D3 AccurateRip v1 signature : 8F598FB8 AccurateRip v2 signature : 3BED0E2C ->Accurately ripped (v1+v2, confidence 6+10/21) Statistics Read error : 0 Jitter error (maybe fixed) : 0 Retry sector count : 0 Damaged sector count : 0
Track 22 Filename : /Users/Home/XLD/FLAC/Franz Liszt - Liszt: The Complete Piano Music (2011) [FLAC]/22 Gestorben war ich, S540a.flac
Track gain : 9.12 dB Peak : 0.531158 CRC32 hash (test run) : E5FBA385 CRC32 hash : E5FBA385 CRC32 hash (skip zero) : 99EB05DB AccurateRip v1 signature : B25743F6 AccurateRip v2 signature : 16D03F0C ->Accurately ripped (v1+v2, confidence 6+10/21) Statistics Read error : 0 Jitter error (maybe fixed) : 0 Retry sector count : 0 Damaged sector count : 0
Track 23 Filename : /Users/Home/XLD/FLAC/Franz Liszt - Liszt: The Complete Piano Music (2011) [FLAC]/23 Berceuse, S174i.flac
Track gain : 9.10 dB Peak : 0.418091 CRC32 hash (test run) : 5C84963D CRC32 hash : 5C84963D CRC32 hash (skip zero) : 146F1BA1 AccurateRip v1 signature : A5D5B821 AccurateRip v2 signature : 3A3D7FFC ->Accurately ripped (v1+v2, confidence 6+10/21) Statistics Read error : 0 Jitter error (maybe fixed) : 0 Retry sector count : 0 Damaged sector count : 0
Track 24 Filename : /Users/Home/XLD/FLAC/Franz Liszt - Liszt: The Complete Piano Music (2011) [FLAC]/24 Feuille d'album No 1, S164.flac
Track gain : 6.14 dB Peak : 0.406128 CRC32 hash (test run) : 2F4614A2 CRC32 hash : 2F4614A2 CRC32 hash (skip zero) : DD93BDFB AccurateRip v1 signature : C59A8F7F AccurateRip v2 signature : D6F8D63B ->Accurately ripped (v1+v2, confidence 6+10/21) Statistics Read error : 0 Jitter error (maybe fixed) : 0 Retry sector count : 0 Damaged sector count : 0
Track 25 Filename : /Users/Home/XLD/FLAC/Franz Liszt - Liszt: The Complete Piano Music (2011) [FLAC]/25 Feuille d'album No 2, S167.flac
Track gain : 3.90 dB Peak : 0.578247 CRC32 hash (test run) : C04D6418 CRC32 hash : C04D6418 CRC32 hash (skip zero) : 417F64C9 AccurateRip v1 signature : 2E6593A0 AccurateRip v2 signature : 64746E97 ->Accurately ripped (v1+v2, confidence 6+10/21) Statistics Read error : 0 Jitter error (maybe fixed) : 0 Retry sector count : 0 Damaged sector count : 0
Track 26 Filename : /Users/Home/XLD/FLAC/Franz Liszt - Liszt: The Complete Piano Music (2011) [FLAC]/26 Feuilles d'album, S165.flac
Track gain : 1.38 dB Peak : 0.846649 CRC32 hash (test run) : 208559FA CRC32 hash : 208559FA CRC32 hash (skip zero) : 0ED541D2 AccurateRip v1 signature : F810D181 AccurateRip v2 signature : 5AF96517 ->Accurately ripped (v1+v2, confidence 6+10/21) Statistics Read error : 0 Jitter error (maybe fixed) : 0 Retry sector count : 0 Damaged sector count : 0
Track 27 Filename : /Users/Home/XLD/FLAC/Franz Liszt - Liszt: The Complete Piano Music (2011) [FLAC]/27 Apparitions, S155 - No 1 Senza lentezza quasi allegretto.flac
Track gain : 1.86 dB Peak : 0.732849 CRC32 hash (test run) : 332B2EE6 CRC32 hash : 332B2EE6 CRC32 hash (skip zero) : 5A81C27E AccurateRip v1 signature : B42D4EB3 AccurateRip v2 signature : 939F7670 ->Accurately ripped (v1+v2, confidence 6+10/21) Statistics Read error : 0 Jitter error (maybe fixed) : 0 Retry sector count : 0 Damaged sector count : 0
Track 28 Filename : /Users/Home/XLD/FLAC/Franz Liszt - Liszt: The Complete Piano Music (2011) [FLAC]/28 Apparitions, S155 - No 2 Vivamente.flac
Track gain : 3.97 dB Peak : 0.613831 CRC32 hash (test run) : 6E0E15F2 CRC32 hash : 6E0E15F2 CRC32 hash (skip zero) : E4FE3EC6 AccurateRip v1 signature : 56714B42 AccurateRip v2 signature : 5CBAEA65 ->Accurately ripped (v1+v2, confidence 6+10/21) Statistics Read error : 0 Jitter error (maybe fixed) : 0 Retry sector count : 0 Damaged sector count : 0
Track 29 Filename : /Users/Home/XLD/FLAC/Franz Liszt - Liszt: The Complete Piano Music (2011) [FLAC]/29 Apparitions, S155 - No 3 Fantaisie sur une valse de François Schubert.flac
Track gain : -0.45 dB Peak : 0.855804 CRC32 hash (test run) : A1638B41 CRC32 hash : A1638B41 CRC32 hash (skip zero) : FE4F25E0 AccurateRip v1 signature : 5007B7FA AccurateRip v2 signature : 0AA17ECC ->Accurately ripped (v1+v2, confidence 6+10/21) Statistics Read error : 0 Jitter error (maybe fixed) : 0 Retry sector count : 0 Damaged sector count : 0
No errors occurred
End of status report
-----BEGIN XLD SIGNATURE-----ylT5WcGuCNPIqpQqBiHvUk2n7b.WT03SHUiP5riGoLNjQYs2s9XgbpvDOiny1zaSTXV._z3iOmIsyqSzEkZp4CfBVvLkWNLrkM2_hBG-----END XLD SIGNATURE-----

Содержание индексной карты (.CUE)

TITLE "Liszt: The Complete Piano Music"PERFORMER "Franz Liszt"CATALOG 0034571145013REM GENRE "Classical"REM DATE "2011"REM DISCNUMBER 2REM TOTALDISCS 99REM DISCID 9D115F1DREM REPLAYGAIN_ALBUM_GAIN 0.97 dBREM REPLAYGAIN_ALBUM_PEAK 0.999969FILE "01 Douze Études 'Étude en douze exercices', S136 Op 6 - No 1 in C major.flac" WAVE TRACK 01 AUDIO TITLE "Douze Études 'Étude en douze exercices', S136 Op 6 - No 1 in C major" PERFORMER "Leslie Howard" SONGWRITER "Franz Liszt" ISRC GBAJY9477201 REM REPLAYGAIN_TRACK_GAIN 0.20 dB REM REPLAYGAIN_TRACK_PEAK 0.769714 INDEX 01 00:00:00FILE "02 Douze Études 'Étude en douze exercices', S136 Op 6 - No 2 in A minor.flac" WAVE TRACK 02 AUDIO TITLE "Douze Études 'Étude en douze exercices', S136 Op 6 - No 2 in A minor" PERFORMER "Leslie Howard" SONGWRITER "Franz Liszt" ISRC GBAJY9477202 REM REPLAYGAIN_TRACK_GAIN 0.51 dB REM REPLAYGAIN_TRACK_PEAK 0.722931 INDEX 01 00:00:00FILE "03 Douze Études 'Étude en douze exercices', S136 Op 6 - No 3 in F major.flac" WAVE TRACK 03 AUDIO TITLE "Douze Études 'Étude en douze exercices', S136 Op 6 - No 3 in F major" PERFORMER "Leslie Howard" SONGWRITER "Franz Liszt" ISRC GBAJY9477203 REM REPLAYGAIN_TRACK_GAIN -0.55 dB REM REPLAYGAIN_TRACK_PEAK 0.874695 INDEX 01 00:00:00FILE "04 Douze Études 'Étude en douze exercices', S136 Op 6 - No 4 in D minor.flac" WAVE TRACK 04 AUDIO TITLE "Douze Études 'Étude en douze exercices', S136 Op 6 - No 4 in D minor" PERFORMER "Leslie Howard" SONGWRITER "Franz Liszt" ISRC GBAJY9477204 REM REPLAYGAIN_TRACK_GAIN 2.19 dB REM REPLAYGAIN_TRACK_PEAK 0.887024 INDEX 01 00:00:00FILE "05 Douze Études 'Étude en douze exercices', S136 Op 6 - No 5 in B flat major.flac" WAVE TRACK 05 AUDIO TITLE "Douze Études 'Étude en douze exercices', S136 Op 6 - No 5 in B flat major" PERFORMER "Leslie Howard" SONGWRITER "Franz Liszt" ISRC GBAJY9477205 REM REPLAYGAIN_TRACK_GAIN -0.25 dB REM REPLAYGAIN_TRACK_PEAK 0.750092 INDEX 01 00:00:00FILE "06 Douze Études 'Étude en douze exercices', S136 Op 6 - No 6 in G minor.flac" WAVE TRACK 06 AUDIO TITLE "Douze Études 'Étude en douze exercices', S136 Op 6 - No 6 in G minor" PERFORMER "Leslie Howard" SONGWRITER "Franz Liszt" ISRC GBAJY9477206 REM REPLAYGAIN_TRACK_GAIN 0.40 dB REM REPLAYGAIN_TRACK_PEAK 0.675079 INDEX 01 00:00:00FILE "07 Douze Études 'Étude en douze exercices', S136 Op 6 - No 7 in E flat major.flac" WAVE TRACK 07 AUDIO TITLE "Douze Études 'Étude en douze exercices', S136 Op 6 - No 7 in E flat major" PERFORMER "Leslie Howard" SONGWRITER "Franz Liszt" ISRC GBAJY9477207 REM REPLAYGAIN_TRACK_GAIN 2.11 dB REM REPLAYGAIN_TRACK_PEAK 0.529755 INDEX 01 00:00:00FILE "08 Douze Études 'Étude en douze exercices', S136 Op 6 - No 8 in C minor.flac" WAVE TRACK 08 AUDIO TITLE "Douze Études 'Étude en douze exercices', S136 Op 6 - No 8 in C minor" PERFORMER "Leslie Howard" SONGWRITER "Franz Liszt" ISRC GBAJY9477208 REM REPLAYGAIN_TRACK_GAIN -0.91 dB REM REPLAYGAIN_TRACK_PEAK 0.890106 INDEX 01 00:00:00FILE "09 Douze Études 'Étude en douze exercices', S136 Op 6 - No 9 in A flat major.flac" WAVE TRACK 09 AUDIO TITLE "Douze Études 'Étude en douze exercices', S136 Op 6 - No 9 in A flat major" PERFORMER "Leslie Howard" SONGWRITER "Franz Liszt" ISRC GBAJY9477209 REM REPLAYGAIN_TRACK_GAIN 3.53 dB REM REPLAYGAIN_TRACK_PEAK 0.497162 INDEX 01 00:00:00FILE "10 Douze Études 'Étude en douze exercices', S136 Op 6 - No 10 in F minor.flac" WAVE TRACK 10 AUDIO TITLE "Douze Études 'Étude en douze exercices', S136 Op 6 - No 10 in F minor" PERFORMER "Leslie Howard" SONGWRITER "Franz Liszt" ISRC GBAJY9477210 REM REPLAYGAIN_TRACK_GAIN -0.91 dB REM REPLAYGAIN_TRACK_PEAK 0.975922 INDEX 01 00:00:00FILE "11 Douze Études 'Étude en douze exercices', S136 Op 6 - No 11 in D flat major.flac" WAVE TRACK 11 AUDIO TITLE "Douze Études 'Étude en douze exercices', S136 Op 6 - No 11 in D flat major" PERFORMER "Leslie Howard" SONGWRITER "Franz Liszt" ISRC GBAJY9477211 REM REPLAYGAIN_TRACK_GAIN 2.37 dB REM REPLAYGAIN_TRACK_PEAK 0.570862 INDEX 01 00:00:00FILE "12 Douze Études 'Étude en douze exercices', S136 Op 6 - No 12 in B flat minor.flac" WAVE TRACK 12 AUDIO TITLE "Douze Études 'Étude en douze exercices', S136 Op 6 - No 12 in B flat minor" PERFORMER "Leslie Howard" SONGWRITER "Franz Liszt" ISRC GBAJY9477212 REM REPLAYGAIN_TRACK_GAIN 0.74 dB REM REPLAYGAIN_TRACK_PEAK 0.801331 INDEX 01 00:00:00FILE "13 Scherzo, S153.flac" WAVE TRACK 13 AUDIO TITLE "Scherzo, S153" PERFORMER "Leslie Howard" SONGWRITER "Franz Liszt" ISRC GBAJY9477213 REM REPLAYGAIN_TRACK_GAIN -0.40 dB REM REPLAYGAIN_TRACK_PEAK 0.729370 INDEX 01 00:00:00FILE "14 Two Hungarian Recruiting Dances by László Fáy and János Bihari 'Zum Andenken', S241 - No 1 Kinizsi nótája.flac" WAVE TRACK 14 AUDIO TITLE "Two Hungarian Recruiting Dances by László Fáy and János Bihari 'Zum Andenken', S241 - No 1 Kinizsi nótája" PERFORMER "Leslie Howard" SONGWRITER "Franz Liszt" ISRC GBAJY9477214 REM REPLAYGAIN_TRACK_GAIN 1.99 dB REM REPLAYGAIN_TRACK_PEAK 0.509094 INDEX 01 00:00:00FILE "15 Two Hungarian Recruiting Dances by László Fáy and János Bihari 'Zum Andenken', S241 - No 2 Lassú magyar.flac" WAVE TRACK 15 AUDIO TITLE "Two Hungarian Recruiting Dances by László Fáy and János Bihari 'Zum Andenken', S241 - No 2 Lassú magyar" PERFORMER "Leslie Howard" SONGWRITER "Franz Liszt" ISRC GBAJY9477215 REM REPLAYGAIN_TRACK_GAIN 0.58 dB REM REPLAYGAIN_TRACK_PEAK 0.639221 INDEX 01 00:00:00FILE "16 Galop de bal, S220.flac" WAVE TRACK 16 AUDIO TITLE "Galop de bal, S220" PERFORMER "Leslie Howard" SONGWRITER "Franz Liszt" ISRC GBAJY9477216 REM REPLAYGAIN_TRACK_GAIN 2.45 dB REM REPLAYGAIN_TRACK_PEAK 0.632690 INDEX 01 00:00:00FILE "17 Galop de bal, S220.flac" WAVE TRACK 17 AUDIO TITLE "Galop de bal, S220" PERFORMER "Leslie Howard" SONGWRITER "Franz Liszt" ISRC GBAJY9477217 REM REPLAYGAIN_TRACK_GAIN -1.64 dB REM REPLAYGAIN_TRACK_PEAK 0.999969 INDEX 01 00:00:00FILE "18 Marche hongroise, S233b.flac" WAVE TRACK 18 AUDIO TITLE "Marche hongroise, S233b" PERFORMER "Leslie Howard" SONGWRITER "Franz Liszt" ISRC GBAJY9477218 REM REPLAYGAIN_TRACK_GAIN -1.22 dB REM REPLAYGAIN_TRACK_PEAK 0.901367 INDEX 01 00:00:00FILE "19 Klavierstück aus der Bonn Beethoven-Kantate, S507.flac" WAVE TRACK 19 AUDIO TITLE "Klavierstück aus der Bonn Beethoven-Kantate, S507" PERFORMER "Leslie Howard" SONGWRITER "Franz Liszt" ISRC GBAJY9477219 REM REPLAYGAIN_TRACK_GAIN -0.53 dB REM REPLAYGAIN_TRACK_PEAK 0.804382 INDEX 01 00:00:00FILE "20 Klavierstück, S189b.flac" WAVE TRACK 20 AUDIO TITLE "Klavierstück, S189b" PERFORMER "Leslie Howard" SONGWRITER "Franz Liszt" ISRC GBAJY9477220 REM REPLAYGAIN_TRACK_GAIN 8.74 dB REM REPLAYGAIN_TRACK_PEAK 0.252411 INDEX 01 00:00:00FILE "21 Klavierstück, S189a.flac" WAVE TRACK 21 AUDIO TITLE "Klavierstück, S189a" PERFORMER "Leslie Howard" SONGWRITER "Franz Liszt" ISRC GBAJY9477221 REM REPLAYGAIN_TRACK_GAIN 3.92 dB REM REPLAYGAIN_TRACK_PEAK 0.389984 INDEX 01 00:00:00FILE "22 Gestorben war ich, S540a.flac" WAVE TRACK 22 AUDIO TITLE "Gestorben war ich, S540a" PERFORMER "Leslie Howard" SONGWRITER "Franz Liszt" ISRC GBAJY9477222 REM REPLAYGAIN_TRACK_GAIN 9.12 dB REM REPLAYGAIN_TRACK_PEAK 0.531158 INDEX 01 00:00:00FILE "23 Berceuse, S174i.flac" WAVE TRACK 23 AUDIO TITLE "Berceuse, S174i" PERFORMER "Leslie Howard" SONGWRITER "Franz Liszt" ISRC GBAJY9477223 REM REPLAYGAIN_TRACK_GAIN 9.10 dB REM REPLAYGAIN_TRACK_PEAK 0.418091 INDEX 01 00:00:00FILE "24 Feuille d'album No 1, S164.flac" WAVE TRACK 24 AUDIO TITLE "Feuille d'album No 1, S164" PERFORMER "Leslie Howard" SONGWRITER "Franz Liszt" ISRC GBAJY9477224 REM REPLAYGAIN_TRACK_GAIN 6.14 dB REM REPLAYGAIN_TRACK_PEAK 0.406128 INDEX 01 00:00:00FILE "25 Feuille d'album No 2, S167.flac" WAVE TRACK 25 AUDIO TITLE "Feuille d'album No 2, S167" PERFORMER "Leslie Howard" SONGWRITER "Franz Liszt" ISRC GBAJY9477225 REM REPLAYGAIN_TRACK_GAIN 3.90 dB REM REPLAYGAIN_TRACK_PEAK 0.578247 INDEX 01 00:00:00FILE "26 Feuilles d'album, S165.flac" WAVE TRACK 26 AUDIO TITLE "Feuilles d'album, S165" PERFORMER "Leslie Howard" SONGWRITER "Franz Liszt" ISRC GBAJY9477226 REM REPLAYGAIN_TRACK_GAIN 1.38 dB REM REPLAYGAIN_TRACK_PEAK 0.846649 INDEX 01 00:00:00FILE "27 Apparitions, S155 - No 1 Senza lentezza quasi allegretto.flac" WAVE TRACK 27 AUDIO TITLE "Apparitions, S155 - No 1 Senza lentezza quasi allegretto" PERFORMER "Leslie Howard" SONGWRITER "Franz Liszt" ISRC GBAJY9477227 REM REPLAYGAIN_TRACK_GAIN 1.86 dB REM REPLAYGAIN_TRACK_PEAK 0.732849 INDEX 01 00:00:00FILE "28 Apparitions, S155 - No 2 Vivamente.flac" WAVE TRACK 28 AUDIO TITLE "Apparitions, S155 - No 2 Vivamente" PERFORMER "Leslie Howard" SONGWRITER "Franz Liszt" ISRC GBAJY9477228 REM REPLAYGAIN_TRACK_GAIN 3.97 dB REM REPLAYGAIN_TRACK_PEAK 0.613831 INDEX 01 00:00:00FILE "29 Apparitions, S155 - No 3 Fantaisie sur une valse de François Schubert.flac" WAVE TRACK 29 AUDIO TITLE "Apparitions, S155 - No 3 Fantaisie sur une valse de François Schubert" PERFORMER "Leslie Howard" SONGWRITER "Franz Liszt" ISRC GBAJY9477229 REM REPLAYGAIN_TRACK_GAIN -0.45 dB REM REPLAYGAIN_TRACK_PEAK 0.855804 INDEX 01 00:00:00

CD3Лог создания рипа

X Lossless Decoder version 20131102 (145.0)
XLD extraction logfile from 2014-01-06 20:19:58 +0100
Franz Liszt / Liszt: The Complete Piano Music
Used drive : MATSHITA DVD-R UJ-898 (revision HC10)Media type : Pressed CD
Ripper mode : XLD Secure RipperDisable audio cache : OK for the drive with a cache less than 1375KiBMake use of C2 pointers : NORead offset correction : 102Max retry count : 100Gap status : Analyzed, Appended (except HTOA)
TOC of the extracted CD Track | Start | Length | Start sector | End sector --------------------------------------------------------- 1 | 00:00:32 | 00:52:15 | 32 | 3946 2 | 00:52:47 | 02:38:28 | 3947 | 15824 3 | 03:31:00 | 05:13:65 | 15825 | 39364 4 | 08:44:65 | 06:26:22 | 39365 | 68336 5 | 15:11:12 | 04:28:40 | 68337 | 88476 6 | 19:39:52 | 06:44:68 | 88477 | 118844 7 | 26:24:45 | 05:36:25 | 118845 | 144069 8 | 32:00:70 | 07:44:60 | 144070 | 178929 9 | 39:45:55 | 10:25:02 | 178930 | 225806 10 | 50:10:57 | 06:01:40 | 225807 | 252921 11 | 56:12:22 | 09:39:68 | 252922 | 296414 12 | 65:52:15 | 08:22:10 | 296415 | 334074 13 | 74:14:25 | 02:08:43 | 334075 | 343717
AccurateRip Summary (DiscID: 0020352d-01564ad8-ab11e60d) Track 01 : OK (v1+v2, confidence 16/16) Track 02 : OK (v1+v2, confidence 17/17) Track 03 : OK (v1+v2, confidence 17/17) Track 04 : OK (v1+v2, confidence 17/17) Track 05 : OK (v1+v2, confidence 17/17) Track 06 : OK (v1+v2, confidence 17/17) Track 07 : OK (v1+v2, confidence 17/17) Track 08 : OK (v1+v2, confidence 17/17) Track 09 : OK (v1+v2, confidence 17/17) Track 10 : OK (v1+v2, confidence 17/17) Track 11 : OK (v1+v2, confidence 17/17) Track 12 : OK (v1+v2, confidence 17/17) Track 13 : OK (v1+v2, confidence 17/17) ->All tracks accurately ripped.
All Tracks Album gain : 1.24 dB Peak : 0.911591 Statistics Read error : 0 Jitter error (maybe fixed) : 0 Retry sector count : 0 Damaged sector count : 0
Track 01 Filename : /Users/Home/XLD/FLAC/Franz Liszt - Liszt: The Complete Piano Music (2011) [FLAC]/01 Douze Grandes Études, S137 - No 1 in C major: Presto.flac Pre-gap length : 00:02:32
Track gain : 0.08 dB Peak : 0.805542 CRC32 hash (test run) : 51072EF8 CRC32 hash : 51072EF8 CRC32 hash (skip zero) : 0227CEA1 AccurateRip v1 signature : F53D5142 AccurateRip v2 signature : BCE73C38 ->Accurately ripped (v1+v2, confidence 5+11/16) Statistics Read error : 0 Jitter error (maybe fixed) : 0 Retry sector count : 0 Damaged sector count : 0
Track 02 Filename : /Users/Home/XLD/FLAC/Franz Liszt - Liszt: The Complete Piano Music (2011) [FLAC]/02 Douze Grandes Études, S137 - No 2 in A minor: Molto vivace a capriccio.flac
Track gain : -0.85 dB Peak : 0.750122 CRC32 hash (test run) : B0A83C0E CRC32 hash : B0A83C0E CRC32 hash (skip zero) : C267B61D AccurateRip v1 signature : 70E08E40 AccurateRip v2 signature : 768D1AF5 ->Accurately ripped (v1+v2, confidence 6+11/17) Statistics Read error : 0 Jitter error (maybe fixed) : 0 Retry sector count : 0 Damaged sector count : 0
Track 03 Filename : /Users/Home/XLD/FLAC/Franz Liszt - Liszt: The Complete Piano Music (2011) [FLAC]/03 Douze Grandes Études, S137 - No 3 in F major: Poco adagio.flac Pre-gap length : 00:03:40
Track gain : 2.55 dB Peak : 0.663635 CRC32 hash (test run) : DF9DFCBB CRC32 hash : DF9DFCBB CRC32 hash (skip zero) : FF7D38D7 AccurateRip v1 signature : 025958EE AccurateRip v2 signature : E2DEAAAB ->Accurately ripped (v1+v2, confidence 6+11/17) Statistics Read error : 0 Jitter error (maybe fixed) : 0 Retry sector count : 0 Damaged sector count : 0
Track 04 Filename : /Users/Home/XLD/FLAC/Franz Liszt - Liszt: The Complete Piano Music (2011) [FLAC]/04 Douze Grandes Études, S137 - No 4 in D minor: Allegro patetico.flac Pre-gap length : 00:04:10
Track gain : -1.04 dB Peak : 0.911591 CRC32 hash (test run) : A9B5649D CRC32 hash : A9B5649D CRC32 hash (skip zero) : FD58E8FC AccurateRip v1 signature : EDBF3096 AccurateRip v2 signature : D8B7EF8D ->Accurately ripped (v1+v2, confidence 6+11/17) Statistics Read error : 0 Jitter error (maybe fixed) : 0 Retry sector count : 0 Damaged sector count : 0
Track 05 Filename : /Users/Home/XLD/FLAC/Franz Liszt - Liszt: The Complete Piano Music (2011) [FLAC]/05 Douze Grandes Études, S137 - No 5 in B flat major: Equalmente.flac Pre-gap length : 00:03:07
Track gain : 3.87 dB Peak : 0.494659 CRC32 hash (test run) : F502B1A1 CRC32 hash : F502B1A1 CRC32 hash (skip zero) : EC7085E9 AccurateRip v1 signature : 4FD8BC6F AccurateRip v2 signature : 7826522C ->Accurately ripped (v1+v2, confidence 6+11/17) Statistics Read error : 0 Jitter error (maybe fixed) : 0 Retry sector count : 0 Damaged sector count : 0
Track 06 Filename : /Users/Home/XLD/FLAC/Franz Liszt - Liszt: The Complete Piano Music (2011) [FLAC]/06 Douze Grandes Études, S137 - No 6 in G minor: Largo patetico.flac Pre-gap length : 00:02:45
Track gain : 2.11 dB Peak : 0.673279 CRC32 hash (test run) : BFCDF800 CRC32 hash : BFCDF800 CRC32 hash (skip zero) : 01B8974D AccurateRip v1 signature : 8F60143D AccurateRip v2 signature : 3732A913 ->Accurately ripped (v1+v2, confidence 6+11/17) Statistics Read error : 0 Jitter error (maybe fixed) : 0 Retry sector count : 0 Damaged sector count : 0
Track 07 Filename : /Users/Home/XLD/FLAC/Franz Liszt - Liszt: The Complete Piano Music (2011) [FLAC]/07 Douze Grandes Études, S137 - No 7 in E flat major: Allegro deciso.flac Pre-gap length : 00:03:38
Track gain : 1.52 dB Peak : 0.607910 CRC32 hash (test run) : 1D8DB2E0 CRC32 hash : 1D8DB2E0 CRC32 hash (skip zero) : 97DAE01F AccurateRip v1 signature : 5BC4F112 AccurateRip v2 signature : 284F3781 ->Accurately ripped (v1+v2, confidence 6+11/17) Statistics Read error : 0 Jitter error (maybe fixed) : 0 Retry sector count : 0 Damaged sector count : 0
Track 08 Filename : /Users/Home/XLD/FLAC/Franz Liszt - Liszt: The Complete Piano Music (2011) [FLAC]/08 Douze Grandes Études, S137 - No 8 in C minor: Presto strepitoso.flac Pre-gap length : 00:04:20
Track gain : 0.81 dB Peak : 0.640869 CRC32 hash (test run) : 6C0CCB10 CRC32 hash : 6C0CCB10 CRC32 hash (skip zero) : 5FC1667E AccurateRip v1 signature : 9768400F AccurateRip v2 signature : 3CED3FE7 ->Accurately ripped (v1+v2, confidence 6+11/17) Statistics Read error : 0 Jitter error (maybe fixed) : 0 Retry sector count : 0 Damaged sector count : 0
Track 09 Filename : /Users/Home/XLD/FLAC/Franz Liszt - Liszt: The Complete Piano Music (2011) [FLAC]/09 Douze Grandes Études, S137 - No 9 in A flat major: Andantino.flac Pre-gap length : 00:04:18
Track gain : 7.31 dB Peak : 0.574310 CRC32 hash (test run) : 2CD044B5 CRC32 hash : 2CD044B5 CRC32 hash (skip zero) : 19BB41D9 AccurateRip v1 signature : 450B7FEE AccurateRip v2 signature : 77F41B0B ->Accurately ripped (v1+v2, confidence 6+11/17) Statistics Read error : 0 Jitter error (maybe fixed) : 0 Retry sector count : 0 Damaged sector count : 0
Track 10 Filename : /Users/Home/XLD/FLAC/Franz Liszt - Liszt: The Complete Piano Music (2011) [FLAC]/10 Douze Grandes Études, S137 - No 10 in F minor: Presto molto agitato.flac Pre-gap length : 00:02:45
Track gain : 1.31 dB Peak : 0.687561 CRC32 hash (test run) : 48DFF060 CRC32 hash : 48DFF060 CRC32 hash (skip zero) : 9DF4296E AccurateRip v1 signature : 56A27990 AccurateRip v2 signature : 53BBDFE4 ->Accurately ripped (v1+v2, confidence 6+11/17) Statistics Read error : 0 Jitter error (maybe fixed) : 0 Retry sector count : 0 Damaged sector count : 0
Track 11 Filename : /Users/Home/XLD/FLAC/Franz Liszt - Liszt: The Complete Piano Music (2011) [FLAC]/11 Douze Grandes Études, S137 - No 11 in D flat major: Lento assai.flac Pre-gap length : 00:03:52
Track gain : 1.16 dB Peak : 0.681793 CRC32 hash (test run) : CFDD6CE7 CRC32 hash : CFDD6CE7 CRC32 hash (skip zero) : A31FAAF9 AccurateRip v1 signature : 9BBF6AA2 AccurateRip v2 signature : 5F701CD1 ->Accurately ripped (v1+v2, confidence 6+11/17) Statistics Read error : 0 Jitter error (maybe fixed) : 0 Retry sector count : 0 Damaged sector count : 0
Track 12 Filename : /Users/Home/XLD/FLAC/Franz Liszt - Liszt: The Complete Piano Music (2011) [FLAC]/12 Douze Grandes Études, S137 - No 12 in B flat minor: Andantino.flac Pre-gap length : 00:03:68
Track gain : 3.72 dB Peak : 0.555939 CRC32 hash (test run) : 54B7AA7E CRC32 hash : 54B7AA7E CRC32 hash (skip zero) : 1C7EB4E1 AccurateRip v1 signature : 36525609 AccurateRip v2 signature : 6F96A5E8 ->Accurately ripped (v1+v2, confidence 6+11/17) Statistics Read error : 0 Jitter error (maybe fixed) : 0 Retry sector count : 0 Damaged sector count : 0
Track 13 Filename : /Users/Home/XLD/FLAC/Franz Liszt - Liszt: The Complete Piano Music (2011) [FLAC]/13 Morceau de salon – Étude de perfectionnement, S142.flac Pre-gap length : 00:05:03
Track gain : 2.14 dB Peak : 0.626190 CRC32 hash (test run) : 701B15BE CRC32 hash : 701B15BE CRC32 hash (skip zero) : 02D99A3B AccurateRip v1 signature : A4B52947 AccurateRip v2 signature : 47367966 ->Accurately ripped (v1+v2, confidence 6+11/17) Statistics Read error : 0 Jitter error (maybe fixed) : 0 Retry sector count : 0 Damaged sector count : 0
No errors occurred
End of status report
-----BEGIN XLD SIGNATURE-----eJiX9X7tTRo1oOBrXu1mH0iJI.f79BGYs1C3kNEhL6TcXVmLx2QEwHBM4UXFKh7U0lQpYAFn7V.PAPSODVlaRfdx2l4s.HZKMsX8ABq-----END XLD SIGNATURE-----

Содержание индексной карты (.CUE)

TITLE "Liszt: The Complete Piano Music"PERFORMER "Franz Liszt"CATALOG 0034571145013REM GENRE "Classical"REM DATE "2011"REM DISCNUMBER 3REM TOTALDISCS 99REM DISCID AB11E60DREM REPLAYGAIN_ALBUM_GAIN 1.24 dBREM REPLAYGAIN_ALBUM_PEAK 0.911591FILE "01 Douze Grandes Études, S137 - No 1 in C major: Presto.flac" WAVE TRACK 01 AUDIO TITLE "Douze Grandes Études, S137 - No 1 in C major: Presto" PERFORMER "Leslie Howard" SONGWRITER "Franz Liszt" ISRC GBAJY9597301 REM REPLAYGAIN_TRACK_GAIN 0.08 dB REM REPLAYGAIN_TRACK_PEAK 0.805542 PREGAP 00:00:32 INDEX 01 00:00:00FILE "02 Douze Grandes Études, S137 - No 2 in A minor: Molto vivace a capriccio.flac" WAVE TRACK 02 AUDIO TITLE "Douze Grandes Études, S137 - No 2 in A minor: Molto vivace a capriccio" PERFORMER "Leslie Howard" SONGWRITER "Franz Liszt" ISRC GBAJY9597302 REM REPLAYGAIN_TRACK_GAIN -0.85 dB REM REPLAYGAIN_TRACK_PEAK 0.750122 INDEX 01 00:00:00 TRACK 03 AUDIO TITLE "Douze Grandes Études, S137 - No 3 in F major: Poco adagio" PERFORMER "Leslie Howard" SONGWRITER "Franz Liszt" ISRC GBAJY9597303 REM REPLAYGAIN_TRACK_GAIN 2.55 dB REM REPLAYGAIN_TRACK_PEAK 0.663635 INDEX 00 02:34:63FILE "03 Douze Grandes Études, S137 - No 3 in F major: Poco adagio.flac" WAVE INDEX 01 00:00:00 TRACK 04 AUDIO TITLE "Douze Grandes Études, S137 - No 4 in D minor: Allegro patetico" PERFORMER "Leslie Howard" SONGWRITER "Franz Liszt" ISRC GBAJY9597304 REM REPLAYGAIN_TRACK_GAIN -1.04 dB REM REPLAYGAIN_TRACK_PEAK 0.911591 INDEX 00 05:09:55FILE "04 Douze Grandes Études, S137 - No 4 in D minor: Allegro patetico.flac" WAVE INDEX 01 00:00:00 TRACK 05 AUDIO TITLE "Douze Grandes Études, S137 - No 5 in B flat major: Equalmente" PERFORMER "Leslie Howard" SONGWRITER "Franz Liszt" ISRC GBAJY9597305 REM REPLAYGAIN_TRACK_GAIN 3.87 dB REM REPLAYGAIN_TRACK_PEAK 0.494659 INDEX 00 06:23:15FILE "05 Douze Grandes Études, S137 - No 5 in B flat major: Equalmente.flac" WAVE INDEX 01 00:00:00 TRACK 06 AUDIO TITLE "Douze Grandes Études, S137 - No 6 in G minor: Largo patetico" PERFORMER "Leslie Howard" SONGWRITER "Franz Liszt" ISRC GBAJY9597306 REM REPLAYGAIN_TRACK_GAIN 2.11 dB REM REPLAYGAIN_TRACK_PEAK 0.673279 INDEX 00 04:25:70FILE "06 Douze Grandes Études, S137 - No 6 in G minor: Largo patetico.flac" WAVE INDEX 01 00:00:00 TRACK 07 AUDIO TITLE "Douze Grandes Études, S137 - No 7 in E flat major: Allegro deciso" PERFORMER "Leslie Howard" SONGWRITER "Franz Liszt" ISRC GBAJY9597307 REM REPLAYGAIN_TRACK_GAIN 1.52 dB REM REPLAYGAIN_TRACK_PEAK 0.607910 INDEX 00 06:41:30FILE "07 Douze Grandes Études, S137 - No 7 in E flat major: Allegro deciso.flac" WAVE INDEX 01 00:00:00 TRACK 08 AUDIO TITLE "Douze Grandes Études, S137 - No 8 in C minor: Presto strepitoso" PERFORMER "Leslie Howard" SONGWRITER "Franz Liszt" ISRC GBAJY9597308 REM REPLAYGAIN_TRACK_GAIN 0.81 dB REM REPLAYGAIN_TRACK_PEAK 0.640869 INDEX 00 05:32:05FILE "08 Douze Grandes Études, S137 - No 8 in C minor: Presto strepitoso.flac" WAVE INDEX 01 00:00:00 TRACK 09 AUDIO TITLE "Douze Grandes Étu
[teatrix.ru].t9711.torrent 
Торрент: Зарегистрирован [ 2015-10-23 17:11 ] · F114BFBD50319A674CF092269971A5012445610F

Скачать .torrent

Скачать

241 KB

Статус: проверено
Скачан: 1 раз
Размер: 20.68 GB
terms.php



Быстрый ответ

Имя:

      
Для отправки сообщений необходимо включить JavaScript
Показать сообщения:    

Текущее время: 24-Янв 00:03

Часовой пояс: UTC + 3


Вы можете начинать темы
Вы можете отвечать на сообщения
Вы не можете редактировать свои сообщения
Вы не можете удалять свои сообщения
Вы не можете голосовать в опросах
Вы не можете прикреплять файлы к сообщениям
Вы можете скачивать файлы