(Classical) A.B.Michelangeli live - The Vatican Recordings (Beethoven, Chopin, Schumann, Liszt, Debussy, Ravel)/Концерты А.Б.Микеланджели в Ватикане (Бетховен, Шопен, Шуман, Лист, Дебюсси, Равель) - 1995, APE (image+.cue) lossless


Статистика раздачи [Обновить пиров]
Размер:  913 MB   |    Зарегистрирован:  1 год 1 месяц   |    Скачан:  0 раз

Полного источника не было: Никогда

Личеров:  1  [  0 KB/s  ]   Подробная статистика пиров
 
   
 
 
 

[Цитировать]

A.B.Michelangeli live - The Vatican Recordings (Beethoven, Chopin, Schumann, Liszt, Debussy, Ravel)/Концерты А.Б.Микеланджели в Ватикане (Бетховен, Шопен, Шуман, Лист, Дебюсси, Равель)
Жанр: Classical
Страна-производитель диска: Czech Republic/Germany
Год издания диска: 1995
Издатель (лейбл): Memoria
Номер по каталогу: 999.001
Дата записи: 1960-1987
Аудиокодек: APE
Тип рипа: image+.cue
Битрейт аудио: lossless
Продолжительность: 54+58+65+47
Источник: скачано с
сайт-источник/ник/другое: eMule
Наличие сканов в содержимом раздачи: да
Треклист:
CD 1
Claude Debussy - Images 1 & 2
Maurice Ravel - Gaspard De La Nuit
CD 2
Frederic Chopin - Andante Spianato e Grande Polonaise Brillante
Claude Debussy - Preludes Livre 1
CD 3
Ludwig van Beethoven
Piano Concerto No.5
Piano Sonata Op.2 No.3
CD 4
Robert Schumann - Piano Concerto Op.54
Franz Liszt - 'Totentanz' for piano and orchestra
Исполнители:
ARTURO BENEDETTI MICHELANGELI
Symphony Orchestra of the RAI, Rome (CD 3 & 4)
Massimo Freccia, conductor (CD 3)
Gianandrea Gavazzeni, conductor (СD 4)

Лог создания рипа

CD1

скрытый текст

Exact Audio Copy V0.99 prebeta 4 from 23. January 2008
EAC ЧҐИЎИХЦѕОДјюґУ31. Т»ФВ 2010, 23:34
Debussy Ravel / Images 1 2 Gaspard De La Nuit, Disc 1
К№УГЗэ¶ЇЖч ЈєPLEXTOR CD-R PX-W4012A Adapter: 5 ID: 0
¶БИЎДЈКЅ : ±Ј»¤
К№УГѕ«И·Бч : КЗ
·ПіэТфЖµ»єіе : КЗ
К№УГ C2 ЦёХл : ·с
¶БИЎЖ«ТЖРЈХэ : 98
¶БИЎ Lead-In єН Lead-Out : КЗ
УГѕІТфМоідЧҐИЎЦР¶ЄК§Ж«ТЖµДІЙСщ : ·с
ИҐіэКЧОІѕІТфїй : ·с
ФЪ CRC јЖЛгЦРК№УГБЛїХСщ±ѕ : ·с
ТСУГЅУїЪ : Win NT ј° 2000 ±ѕµШ Win32 ЅУїЪ
ЛщУГКдіцёсКЅ : Monkey's Audio Lossless Encoder v3.99 DLL
Сщ±ѕёсКЅ : High Lossless Compression
±»ЧҐ№м CD µД TOC
Тф№м | їЄКј | і¤¶И | ЖрКјЙИЗш | ЅбОІЙИЗш
--------------------------------------------------
1 | 0:00.30 | 5:03.13 | 30 | 22767
2 | 5:03.43 | 6:40.28 | 22768 | 52795
3 | 11:43.71 | 3:50.56 | 52796 | 70101
4 | 15:34.52 | 4:36.66 | 70102 | 90867
5 | 20:11.43 | 5:13.40 | 90868 | 114382
6 | 25:25.08 | 4:11.15 | 114383 | 133222
7 | 29:36.23 | 6:46.44 | 133223 | 163716
8 | 36:22.67 | 6:28.38 | 163717 | 192854
9 | 42:51.30 | 11:00.63 | 192855 | 242417
·¶О§ЧґМ¬ј°ґнОу
ТССЎФс·¶О§
ОДјюГы D:\РВЅЁОДјюјР\РВЅЁОДјюјР\Debussy Ravel - Images 1 2 Gaspard De La Nuit, Disc 1.ape
·еЦµµзЖЅ 99.8 %
·¶О§ЦКБї 100.0 %
ёґЦЖ CRC 11DD9ED3
ёґЦЖіЙ№¦
Г»УРґнОу·ўЙъ
ЧґМ¬±ЁёжЅбОІ
CD2

скрытый текст

Exact Audio Copy V0.99 prebeta 4 from 23. January 2008
EAC ЧҐИЎИХЦѕОДјюґУ31. Т»ФВ 2010, 23:49
Chopin Debussy / Grande Polonaise brillante / Preludes I. Livre - Heft 1, Disc 2
К№УГЗэ¶ЇЖч ЈєPLEXTOR CD-R PX-W4012A Adapter: 5 ID: 0
¶БИЎДЈКЅ : ±Ј»¤
К№УГѕ«И·Бч : КЗ
·ПіэТфЖµ»єіе : КЗ
К№УГ C2 ЦёХл : ·с
¶БИЎЖ«ТЖРЈХэ : 98
¶БИЎ Lead-In єН Lead-Out : КЗ
УГѕІТфМоідЧҐИЎЦР¶ЄК§Ж«ТЖµДІЙСщ : ·с
ИҐіэКЧОІѕІТфїй : ·с
ФЪ CRC јЖЛгЦРК№УГБЛїХСщ±ѕ : ·с
ТСУГЅУїЪ : Win NT ј° 2000 ±ѕµШ Win32 ЅУїЪ
ЛщУГКдіцёсКЅ : Monkey's Audio Lossless Encoder v3.99 DLL
Сщ±ѕёсКЅ : High Lossless Compression
±»ЧҐ№м CD µД TOC
Тф№м | їЄКј | і¤¶И | ЖрКјЙИЗш | ЅбОІЙИЗш
--------------------------------------------------
1 | 0:00.30 | 15:18.42 | 30 | 68921
2 | 15:18.72 | 3:25.02 | 68922 | 84298
3 | 18:43.74 | 4:30.35 | 84299 | 104583
4 | 23:14.34 | 2:10.42 | 104584 | 114375
5 | 25:25.01 | 3:40.69 | 114376 | 130944
6 | 29:05.70 | 3:06.25 | 130945 | 144919
7 | 32:12.20 | 4:32.01 | 144920 | 165320
8 | 36:44.21 | 3:28.24 | 165321 | 180944
9 | 40:12.45 | 2:30.59 | 180945 | 192253
10 | 42:43.29 | 2:36.24 | 192254 | 203977
11 | 45:19.53 | 7:06.54 | 203978 | 235981
12 | 52:26.32 | 2:55.35 | 235982 | 249141
13 | 55:21.67 | 2:48.05 | 249142 | 261746
·¶О§ЧґМ¬ј°ґнОу
ТССЎФс·¶О§
ОДјюГы D:\РВЅЁОДјюјР\РВЅЁОДјюјР\Chopin Debussy - Grande Polonaise brillante Preludes I. Livre - Heft 1, Disc 2.ape
·еЦµµзЖЅ 86.5 %
·¶О§ЦКБї 99.9 %
ёґЦЖ CRC 227DB20E
ёґЦЖіЙ№¦
Г»УРґнОу·ўЙъ
ЧґМ¬±ЁёжЅбОІ
CD3

скрытый текст

Exact Audio Copy V0.99 prebeta 4 from 23. January 2008
EAC ЧҐИЎИХЦѕОДјюґУ1. ¶юФВ 2010, 0:00
Ludwig van Beethoven / Klavierkonzert No. 5 Klaviersonate C-Dur, op. 2, Disc 3
К№УГЗэ¶ЇЖч ЈєPLEXTOR CD-R PX-W4012A Adapter: 5 ID: 0
¶БИЎДЈКЅ : ±Ј»¤
К№УГѕ«И·Бч : КЗ
·ПіэТфЖµ»єіе : КЗ
К№УГ C2 ЦёХл : ·с
¶БИЎЖ«ТЖРЈХэ : 98
¶БИЎ Lead-In єН Lead-Out : КЗ
УГѕІТфМоідЧҐИЎЦР¶ЄК§Ж«ТЖµДІЙСщ : ·с
ИҐіэКЧОІѕІТфїй : ·с
ФЪ CRC јЖЛгЦРК№УГБЛїХСщ±ѕ : ·с
ТСУГЅУїЪ : Win NT ј° 2000 ±ѕµШ Win32 ЅУїЪ
ЛщУГКдіцёсКЅ : Monkey's Audio Lossless Encoder v3.99 DLL
Сщ±ѕёсКЅ : High Lossless Compression
±»ЧҐ№м CD µД TOC
Тф№м | їЄКј | і¤¶И | ЖрКјЙИЗш | ЅбОІЙИЗш
--------------------------------------------------
1 | 0:00.00 | 19:33.70 | 0 | 88044
2 | 19:33.70 | 17:35.63 | 88045 | 167232
3 | 37:09.58 | 11:16.30 | 167233 | 217962
4 | 48:26.13 | 7:13.62 | 217963 | 250499
5 | 55:40.00 | 3:21.09 | 250500 | 265583
6 | 59:01.09 | 5:27.01 | 265584 | 290109
·¶О§ЧґМ¬ј°ґнОу
ТССЎФс·¶О§
ОДјюГы D:\РВЅЁОДјюјР\РВЅЁОДјюјР\Ludwig van Beethoven - Klavierkonzert No. 5 Klaviersonate C-Dur, op. 2, Disc 3.ape
·еЦµµзЖЅ 99.9 %
·¶О§ЦКБї 100.0 %
ёґЦЖ CRC DEC3BD9E
ёґЦЖіЙ№¦
Г»УРґнОу·ўЙъ
ЧґМ¬±ЁёжЅбОІ
CD4

скрытый текст

Exact Audio Copy V0.99 prebeta 4 from 23. January 2008
EAC ЧҐИЎИХЦѕОДјюґУ1. ¶юФВ 2010, 0:09
Schumann Liszt / Disc 4
К№УГЗэ¶ЇЖч ЈєPLEXTOR CD-R PX-W4012A Adapter: 5 ID: 0
¶БИЎДЈКЅ : ±Ј»¤
К№УГѕ«И·Бч : КЗ
·ПіэТфЖµ»єіе : КЗ
К№УГ C2 ЦёХл : ·с
¶БИЎЖ«ТЖРЈХэ : 98
¶БИЎ Lead-In єН Lead-Out : КЗ
УГѕІТфМоідЧҐИЎЦР¶ЄК§Ж«ТЖµДІЙСщ : ·с
ИҐіэКЧОІѕІТфїй : ·с
ФЪ CRC јЖЛгЦРК№УГБЛїХСщ±ѕ : ·с
ТСУГЅУїЪ : Win NT ј° 2000 ±ѕµШ Win32 ЅУїЪ
ЛщУГКдіцёсКЅ : Monkey's Audio Lossless Encoder v3.99 DLL
Сщ±ѕёсКЅ : High Lossless Compression
±»ЧҐ№м CD µД TOC
Тф№м | їЄКј | і¤¶И | ЖрКјЙИЗш | ЅбОІЙИЗш
--------------------------------------------------
1 | 0:00.30 | 14:11.03 | 30 | 63857
2 | 14:11.33 | 15:37.42 | 63858 | 134174
3 | 29:49.00 | 17:38.55 | 134175 | 213579
·¶О§ЧґМ¬ј°ґнОу
ТССЎФс·¶О§
ОДјюГы D:\РВЅЁОДјюјР\РВЅЁОДјюјР\Schumann Liszt - Disc 4.ape
·еЦµµзЖЅ 100.0 %
·¶О§ЦКБї 100.0 %
ёґЦЖ CRC C88685C7
ёґЦЖіЙ№¦
Г»УРґнОу·ўЙъ
ЧґМ¬±ЁёжЅбОІ

Содержание индексной карты (.CUE)

CD1

скрытый текст

REM GENRE Sonata
REM DATE 1987
REM DISCID 750CA009
REM COMMENT "ExactAudioCopy v0.99pb4"
PERFORMER "Debussy Ravel"
TITLE "Images 1 2 Gaspard De La Nuit, Disc 1"
FILE "Debussy Ravel - Images 1 2 Gaspard De La Nuit, Disc 1.ape" WAVE
TRACK 01 AUDIO
TITLE "Claude Debussy / Images 1: I. Reflets dans lґEau. Andantino molto"
PERFORMER "Debussy Ravel"
INDEX 00 00:00:00
INDEX 01 00:00:30
TRACK 02 AUDIO
TITLE "Claude Debussy / Images 1: II. Hommage a Rameau. Lent et grave"
PERFORMER "Debussy Ravel"
INDEX 01 05:03:43
TRACK 03 AUDIO
TITLE "Claude Debussy / Images 1: III. Mouvement. Anime"
PERFORMER "Debussy Ravel"
INDEX 01 11:43:71
TRACK 04 AUDIO
TITLE "Claude Debussy / Images 2: I. Cloches a travers les Feuilles. Lent"
PERFORMER "Debussy Ravel"
INDEX 01 15:34:52
TRACK 05 AUDIO
TITLE "Claude Debussy / Images 2: II. Et la lune Descend sur le Temple qui Fut. Lent"
PERFORMER "Debussy Ravel"
INDEX 01 20:11:43
TRACK 06 AUDIO
TITLE "Claude Debussy / Images 2: III. Poissons dґOr. Anime"
PERFORMER "Debussy Ravel"
INDEX 01 25:25:08
TRACK 07 AUDIO
TITLE "Maurice Ravel / Gaspard de la Nuit: I. Ondine"
PERFORMER "Debussy Ravel"
INDEX 01 29:36:23
TRACK 08 AUDIO
TITLE "Maurice Ravel / Gaspard de la Nuit: II. Le Gibet"
PERFORMER "Debussy Ravel"
INDEX 01 36:22:67
TRACK 09 AUDIO
TITLE "Maurice Ravel / Gaspard de la Nuit: III. Scarbo"
PERFORMER "Debussy Ravel"
INDEX 01 42:51:30
CD2

скрытый текст

REM GENRE Sonata
REM DATE 1995
REM DISCID AA0DA10D
REM COMMENT "ExactAudioCopy v0.99pb4"
PERFORMER "Chopin Debussy"
TITLE "Grande Polonaise brillante / Preludes I. Livre - Heft 1, Disc 2"
FILE "Chopin Debussy - Grande Polonaise brillante Preludes I. Livre - Heft 1, Disc 2.ape" WAVE
TRACK 01 AUDIO
TITLE "Frederic Chopin / Grande Polonaise brillante"
PERFORMER "Chopin Debussy"
INDEX 00 00:00:00
INDEX 01 00:00:30
TRACK 02 AUDIO
TITLE "Claude Debussy / Preludes I: Danseuses de Delphes. Lent et grave"
PERFORMER "Chopin Debussy"
INDEX 01 15:18:72
TRACK 03 AUDIO
TITLE "Claude Debussy / Preludes I: Voiles. Modere"
PERFORMER "Chopin Debussy"
INDEX 01 18:43:74
TRACK 04 AUDIO
TITLE "Claude Debussy / Preludes I: Le Vent dans la plaine. Anime"
PERFORMER "Chopin Debussy"
INDEX 01 23:14:34
TRACK 05 AUDIO
TITLE "Claude Debussy / Preludes I: Les sons et les parfums tournent dans lґair du s..."
PERFORMER "Chopin Debussy"
INDEX 01 25:25:01
TRACK 06 AUDIO
TITLE "Claude Debussy / Preludes I: Les collines dґAnacapri. Tres modere"
PERFORMER "Chopin Debussy"
INDEX 01 29:05:70
TRACK 07 AUDIO
TITLE "Claude Debussy / Preludes I: Des pas sur la neige. Triste et lent"
PERFORMER "Chopin Debussy"
INDEX 01 32:12:20
TRACK 08 AUDIO
TITLE "Claude Debussy / Preludes I: Ce quґa vu le vent de lґOuest. Anime et tumultueux"
PERFORMER "Chopin Debussy"
INDEX 01 36:44:21
TRACK 09 AUDIO
TITLE "Claude Debussy / Preludes I: La fille aux cheveux de lin. Tres calme et douce..."
PERFORMER "Chopin Debussy"
INDEX 01 40:12:45
TRACK 10 AUDIO
TITLE "Claude Debussy / Preludes I: La Serenade interrompue. Moderement anime"
PERFORMER "Chopin Debussy"
INDEX 01 42:43:29
TRACK 11 AUDIO
TITLE "Claude Debussy / Preludes I: La cathedrale engloutie. Profondement calme"
PERFORMER "Chopin Debussy"
INDEX 01 45:19:53
TRACK 12 AUDIO
TITLE "Claude Debussy / Preludes I: La danse de Puck. Capricieux et leger"
PERFORMER "Chopin Debussy"
INDEX 01 52:26:32
TRACK 13 AUDIO
TITLE "Claude Debussy / Preludes I: Ministrels. Modere"
PERFORMER "Chopin Debussy"
INDEX 01 55:21:67
CD3

скрытый текст

REM GENRE Sonata
REM DATE 1995
REM DISCID 460F1C06
REM COMMENT "ExactAudioCopy v0.99pb4"
PERFORMER "Ludwig van Beethoven"
TITLE "Klavierkonzert No. 5 Klaviersonate C-Dur, op. 2, Disc 3"
FILE "Ludwig van Beethoven - Klavierkonzert No. 5 Klaviersonate C-Dur, op. 2, Disc 3.ape" WAVE
TRACK 01 AUDIO
TITLE "Klavierkonzert No. 5: I. Allegro"
PERFORMER "Ludwig van Beethoven"
INDEX 01 00:00:00
TRACK 02 AUDIO
TITLE "Klavierkonzert No. 5: II. Adagio un poco mosso - attaca: Rondo. Allegro"
PERFORMER "Ludwig van Beethoven"
INDEX 01 19:33:70
TRACK 03 AUDIO
TITLE "Klaviersonate C-Dur: I: Allegro con brio"
PERFORMER "Ludwig van Beethoven"
INDEX 00 37:00:12
INDEX 01 37:09:58
TRACK 04 AUDIO
TITLE "Klaviersonate C-Dur: II. Adagio"
PERFORMER "Ludwig van Beethoven"
INDEX 01 48:26:13
TRACK 05 AUDIO
TITLE "Klaviersonate C-Dur: III. Scherzo. Allegro"
PERFORMER "Ludwig van Beethoven"
INDEX 01 55:40:00
TRACK 06 AUDIO
TITLE "Klaviersonate C-Dur: IV. Allegro assai"
PERFORMER "Ludwig van Beethoven"
INDEX 01 59:01:09
CD4

скрытый текст

REM GENRE Sonata
REM DATE 1995
REM DISCID 240B1F03
REM COMMENT "ExactAudioCopy v0.99pb4"
PERFORMER "Schumann Liszt"
TITLE "Disc 4"
FILE "Schumann Liszt - Disc 4.ape" WAVE
TRACK 01 AUDIO
TITLE "Robert Schumann / Klavierkonzert a-moll: I. Allegro"
PERFORMER "Schumann Liszt"
INDEX 00 00:00:00
INDEX 01 00:00:30
TRACK 02 AUDIO
TITLE "Robert Schumann / Klavierkonzert a-moll: II. Adagio un poco mosso - attaca: A..."
PERFORMER "Schumann Liszt"
INDEX 01 14:11:33
TRACK 03 AUDIO
TITLE "Franz Liszt / Totentanz"
PERFORMER "Schumann Liszt"
INDEX 01 29:49:00
Доп. информация:
Особый интерес в этом сете представляет запись "Пляски смерти" Листа. Существуют всего две записи сочинения в исполнении АБМ, 61г. с Кубеликом и 62г. с Гаваццени (представленная на этом комплекте).
Очень занятная ремарка к CD3 в буклете
Коврики взяты из двух источников. Оба варианта хорошего качества, и я не смог пожертвовать ни одним из них, поэтому в папке 2 варианта обложек, английский и итальянский (более полный).
[teatrix.ru].t9712.torrent 
Торрент: Зарегистрирован [ 2015-10-23 17:11 ] · ED7819DD8874897CD9663C1588C939235ABEDB39

Скачать .torrent

Скачать

20 KB

Статус: проверено
Скачан: 0 раз
Размер: 913 MB
terms.php



Быстрый ответ

Имя:

      
Для отправки сообщений необходимо включить JavaScript
Показать сообщения:    

Текущее время: 07-Дек 15:33

Часовой пояс: UTC + 3


Вы можете начинать темы
Вы можете отвечать на сообщения
Вы не можете редактировать свои сообщения
Вы не можете удалять свои сообщения
Вы не можете голосовать в опросах
Вы не можете прикреплять файлы к сообщениям
Вы можете скачивать файлы