(Classical) Arturo Benedetti Michelangeli Hommage 15 CDs / Посвящение Артуро Бенедетти Микеланджели на 15 CD - 2000, FLAC (image+.cue) lossless


Статистика раздачи [Обновить пиров]
Размер:  3.16 GB   |    Зарегистрирован:  1 год 1 месяц   |    Скачан:  0 раз

Полного источника не было: Никогда

Личеров:  1  [  0 KB/s  ]   Подробная статистика пиров
 
   
 
 
 

[Цитировать]

Arturo Benedetti Michelangeli Hommage 15 CDs/Посвящение Артуро Бенедетти Микеланджели на 15 CD
Жанр: Classical
Страна-производитель диска: Italy
Год издания диска: 2000
Издатель (лейбл): AURA Music
Номер по каталогу: ?
Дата записи: 1939-1990
Аудиокодек: FLAC
Тип рипа: image+.cue
Битрейт аудио: lossless
Продолжительность: ~15 часов
Источник: собственный рип
Наличие сканов в содержимом раздачи: да
Треклист:

скрытый текст

Disc: 1
DEBUSSY
1-12. Preludes (12) for piano, Book I, L. 117
Disc: 2
BEETHOVEN
1-4. Piano Sonata No. 3 in C major, Op. 2/3
DEBUSSY
5-7. Images (3), for piano, Set I, L. 110
8-10. Images (3), for piano, Set II, L. 111
Disc: 3
CHOPIN
1. Andante spianato and Grande Polonaise for piano & orchestra, Op. 22
RAVEL
2-4. Gaspard de la nuit, for piano
CHOPIN
5. Mazurka for piano No. 47 in A minor, Op. 68/2, CT. 97
6. Mazurka for piano No. 20 in D flat major, Op. 30/3, CT. 70
7. Mazurka for piano No. 25 in B minor, Op. 33/4, CT. 75
8. Berceuse for piano in D flat major, Op. 57, CT. 7
9. Waltz for piano No. 2 in A flat major, Op. 34/1, CT. 208
10. Waltz for piano No. 9 in A flat major ('L'adieu') Op. 69/1, CT. 215
11. Waltz for piano No. 13 in D flat major, Op. 70/3, CT. 219
Disc: 4
SCARLATTI
1. Sonata for keyboard in C minor, K. 11 (L. 352)
2. Sonata for keyboard in A major, K. 322 (L. 483)
3. Sonata for keyboard in B minor, K. 27 (L. 449)
BACH-BUSONI
4. Partita for solo violin No. 2 in D minor, BWV 1004: Chaconne
BRAHMS
5. Variations (28) on a Theme of Paganini, for piano, in A minor, Op. 35
CHOPIN
6. Waltz for piano No. 3 in A minor, Op. 34/2, CT. 209
7. Scherzo for piano No. 1 in B minor, Op. 20, CT. 197
Disc: 5
BEETHOVEN
1-2. Piano Sonata No. 32 in C minor, Op. 111
CHOPIN
3. Mazurka for piano No. 49 in F minor, Op. 68/4, CT. 99
4. Mazurka for piano No. 29 in A flat major, Op. 41/4, CT. 79
5. Mazurka for piano No. 24 in C major, Op. 33/3, CT. 74
6. Mazurka for piano No. 20 in D flat major, Op. 30/3, CT. 70
7. Mazurka for piano No. 38 in F sharp minor, Op. 59/3, CT. 88
8. Mazurka for piano No. 25 in B minor, Op. 33/4, CT. 75
9. Ballade for piano No. 1 in G minor, Op. 23, CT. 2
LISZT
10-12. Piano Concerto No. 1 in E flat major, S. 124 (LW H4)
Disc: 6
SCHUMANN
1-3. Piano Concerto in A minor, Op. 54
FRANCK
4. Symphonic Variations, for piano & orchestra (also arr. for 2 pianos), M. 46
GRIEG
5-7. Piano Concerto in A minor, Op. 16
Disc: 7
BEETHOVEN
1-4. Piano Sonata No. 3 in C major, Op. 2/3
CHOPIN
5. Mazurka for piano No. 47 in A minor, Op. 68/2, CT. 97
6. Mazurka for piano No. 25 in B minor, Op. 33/4, CT. 75
7. Andante spianato and Grande Polonaise for piano & orchestra, Op. 22
GRIEG
8. Badnlat (At the Cradle), lyric piece for piano, Op. 68/5
9. Keyboard Sonata in B flat major [Illy No. 32]: Presto
10. Melancholy, lyric piece for piano, Op. 47/5: No. 5, Melancholy
Disc: 8
SCARLATTI
1. Sonata for keyboard in C minor, K. 11 (L. 352)
2. Sonata for keyboard in C major, K. 159 (L. 104) 'La caccia'
3. Sonata for keyboard in A major, K. 322 (L. 483)
4. Sonata for keyboard in D minor, K. 9 (L. 413), 'Pastorale'
5. Sonata for keyboard in B minor, K. 27 (L. 449)
SCHUMANN
6-10. Faschingsschwank aus Wien ('Phantasiebilder'), for piano, Op. 26
DEBUSSY
11-13. Images (3), for piano, Set I, L. 110
14-16. Images (3), for piano, Set II, L. 111
Disc: 9
SCHUBERT
1-3. Piano Sonata No. 4 in A minor, D. 537 (Op. posth. 164)
BRAHMS
4-7. Ballades (4) for piano, Op. 10
Disc: 10
MOZART
1-3. Piano Concerto No. 15 in B flat major, K. 450
4-6. Piano Quartet No. 2 in E flat major, K. 493
Disc: 11
LISZT
1-3. Piano Concerto No. 1 in E flat major, S. 124 (LW H4)
GRIEG
4. Melancholy, lyric piece for piano, Op. 47/5
5. Badnlat (At the Cradle), lyric piece for piano, Op. 68/5
GRANADOS
6. Spanish Dances (12), in 4 volumes for piano, Op. 37, H. 142, DLR 1:2: Andaluza (Playera)
GALUPPI
7. Keyboard Sonata in B flat major [Illy No. 32]: Presto in B flat Major
CHOPIN
8. Scherzo for piano No. 2 in B flat minor, Op. 31, CT. 198
9. Mazurka for piano No. 47 in A minor, Op. 68/2, CT. 97
10. Waltz for piano No. 9 in A flat major ('L'adieu') Op. 69/1, CT. 215
GRIEG
11. Piano Concerto in A minor, Op. 16: Allegro molto moderato (Fragment)
DEBUSSY
12. Reflets dans l'eau, for piano, L. 110/1
MARESCOTTI
13. Fantasque, for piano
VIVALDI
14. Work(s): Unspecified Keyboard Concerto in B minor: III movement, Allegro
BEETHOVEN
15. Piano Concerto No. 5 in E flat major ('Emperor'), Op. 73: 1st Movement Allegro (fragment)
Disc: 12
DEBUSSY
1-12. Preludes (12) for piano, Book II
LISZT
13. Eglogue, for piano (Annees I/7), S. 160/7 (LW A159/7): Eglogue
Disc: 13
CHOPIN
1. Fantasy for piano in F minor/A flat major, Op. 49, C. 42
2. Scherzo for piano No. 2 in B flat minor, Op. 31, CT. 198
3. Ballade for piano No. 1 in G minor, Op. 23, CT. 2
4. Andante spianato and Grande Polonaise for piano & orchestra, Op. 22
5. Mazurka for piano No. 43 in G minor, Op. 67/2, CT. 93
6. Mazurka for piano No. 25 in B minor, Op. 33/4, CT. 75
Disc: 14
BRAHMS
1-4. Ballades (4) for piano, Op. 10
CHOPIN
5-8. Piano Sonata No. 2 in B flat minor, Op. 35, CT. 202
Disc: 15
BEETHOVEN
1-2. Piano Sonata No. 32 in C minor, Op. 111
CHOPIN
3. Mazurka for piano No. 25 in B minor, Op. 33/4, CT. 75
4. Scherzo for piano No. 1 in B minor, Op. 20, CT. 197
5. Andante spianato and Grande Polonaise for piano & orchestra, Op. 22
Исполнители:
ARTURO BENEDETTI MICHELANGELI
Yomiuri Symphony Orchestra
Jindrich Rohan, conductor (CD 5 - Liszt Concerto N1)
New-York Philharmonic Orchestra
Dimitri Mitropulos, conductor (CD 6 - Schumann Concerto)
Los Angeles Philharmonic Orchestra
Alfred Wallenstein, conductor (CD 6 - Franck Symphonic Variations)
Orchestra del Teatro alla Scala di Milano
Alceo Galliera, conductor (CD 6 - Grieg Concerto)
Zuricher Kammerorchester
Edmond de Stoutz, conductor (CD10 - Mozart Concerto)
Jean-Pierre Wallez, violin
Claude-Henry Joubert, viola
Franky Dariel, cello
(CD 10 - Mozart Quartet)
Radio Suisse Romande Orchestra
Ernest Ansermet, conductor (CD 11 - Liszt, Grieg, Beethoven Concertos)

Лог создания рипа

CD1

скрытый текст

Exact Audio Copy V1.0 beta 3 from 29. August 2011
EAC extraction logfile from 2. October 2014, 9:45
Arturo Benedetti Michelangeli / Hommage 1/15
Used drive : Optiarc DVD RW AD-5260S Adapter: 1 ID: 0
Read mode : Secure
Utilize accurate stream : Yes
Defeat audio cache : Yes
Make use of C2 pointers : No
Read offset correction : 48
Overread into Lead-In and Lead-Out : No
Fill up missing offset samples with silence : Yes
Delete leading and trailing silent blocks : No
Null samples used in CRC calculations : Yes
Used interface : Native Win32 interface for Win NT & 2000
Used output format : User Defined Encoder
Selected bitrate : 128 kBit/s
Quality : High
Add ID3 tag : No
Command line compressor : C:\Program Files (x86)\Exact Audio Copy\Flac\flac.exe
Additional command line options : -V -8 -T "Date=%year%" -T "Genre=%genre%" %source%
TOC of the extracted CD
Track | Start | Length | Start sector | End sector
---------------------------------------------------------
1 | 0:00.32 | 3:24.45 | 32 | 15376
2 | 3:25.02 | 4:30.48 | 15377 | 35674
3 | 7:55.50 | 2:08.52 | 35675 | 45326
4 | 10:04.27 | 3:37.63 | 45327 | 61664
5 | 13:42.15 | 3:07.55 | 61665 | 75744
6 | 16:49.70 | 4:32.70 | 75745 | 96214
7 | 21:22.65 | 3:28.65 | 96215 | 111879
8 | 24:51.55 | 2:31.02 | 111880 | 123206
9 | 27:22.57 | 2:33.73 | 123207 | 134754
10 | 29:56.55 | 7:05.02 | 134755 | 166631
11 | 37:01.57 | 2:55.15 | 166632 | 179771
12 | 39:56.72 | 2:40.28 | 179772 | 191799
Range status and errors
Selected range
Filename E:\Arturo Benedetti Michelangeli - Hommage 1of15.wav
Peak level 86.0 %
Extraction speed 3.9 X
Range quality 100.0 %
Copy CRC 1900FAB3
Copy OK
No errors occurred
AccurateRip summary
Track 1 cannot be verified as accurate (confidence 6) [794D40F6], AccurateRip returned [42B07D53] (AR v2)
Track 2 cannot be verified as accurate (confidence 6) [056416A6], AccurateRip returned [49863D7C] (AR v2)
Track 3 cannot be verified as accurate (confidence 6) [863C4B6B], AccurateRip returned [D6837C7E] (AR v2)
Track 4 cannot be verified as accurate (confidence 6) [86BF3B15], AccurateRip returned [9DB25623] (AR v2)
Track 5 cannot be verified as accurate (confidence 5) [2BFFC87D], AccurateRip returned [92012535] (AR v2)
Track 6 cannot be verified as accurate (confidence 6) [1880BC92], AccurateRip returned [46183748] (AR v2)
Track 7 cannot be verified as accurate (confidence 6) [0664E76D], AccurateRip returned [7E0E5803] (AR v2)
Track 8 cannot be verified as accurate (confidence 6) [51369216], AccurateRip returned [7E736384] (AR v2)
Track 9 cannot be verified as accurate (confidence 6) [F8B241BE], AccurateRip returned [2E095AF5] (AR v2)
Track 10 cannot be verified as accurate (confidence 6) [5C9807A7], AccurateRip returned [DB3937FB] (AR v2)
Track 11 cannot be verified as accurate (confidence 5) [9F79FAA4], AccurateRip returned [2F22DDF9] (AR v2)
Track 12 cannot be verified as accurate (confidence 5) [CA064F69], AccurateRip returned [E52B3AA6] (AR v2)
No tracks could be verified as accurate
You may have a different pressing from the one(s) in the database
End of status report
==== Log checksum 169C21C7B974D99D3647359DE35485285BF8E4E3EAD06DB2D5F820CD5FFFF4BD ====
CD2

скрытый текст

Exact Audio Copy V1.0 beta 3 from 29. August 2011
EAC extraction logfile from 1. October 2014, 16:29
Arturo Benedetti Michelangeli / Hommage 2/15
Used drive : Optiarc DVD RW AD-5260S Adapter: 1 ID: 0
Read mode : Secure
Utilize accurate stream : Yes
Defeat audio cache : Yes
Make use of C2 pointers : No
Read offset correction : 48
Overread into Lead-In and Lead-Out : No
Fill up missing offset samples with silence : Yes
Delete leading and trailing silent blocks : No
Null samples used in CRC calculations : Yes
Used interface : Native Win32 interface for Win NT & 2000
Used output format : User Defined Encoder
Selected bitrate : 128 kBit/s
Quality : High
Add ID3 tag : No
Command line compressor : C:\Program Files (x86)\Exact Audio Copy\Flac\flac.exe
Additional command line options : -V -8 -T "Date=%year%" -T "Genre=%genre%" %source%
TOC of the extracted CD
Track | Start | Length | Start sector | End sector
---------------------------------------------------------
1 | 0:00.32 | 11:00.58 | 32 | 49589
2 | 11:01.15 | 7:00.32 | 49590 | 81121
3 | 18:01.47 | 3:22.25 | 81122 | 96296
4 | 21:23.72 | 5:56.35 | 96297 | 123031
5 | 27:20.32 | 5:01.23 | 123032 | 145629
6 | 32:21.55 | 6:39.30 | 145630 | 175584
7 | 39:01.10 | 3:47.30 | 175585 | 192639
8 | 42:48.40 | 4:22.55 | 192640 | 212344
9 | 47:11.20 | 4:58.55 | 212345 | 234749
10 | 52:10.00 | 4:21.32 | 234750 | 254356
Range status and errors
Selected range
Filename E:\Arturo Benedetti Michelangeli - Hommage 2of15.wav
Peak level 99.2 %
Extraction speed 4.2 X
Range quality 100.0 %
Copy CRC 7B1C7E13
Copy OK
No errors occurred
AccurateRip summary
Track 1 cannot be verified as accurate (confidence 6) [72586BB9], AccurateRip returned [EAF07F45] (AR v2)
Track 2 cannot be verified as accurate (confidence 6) [30DE12D7], AccurateRip returned [B4C86315] (AR v2)
Track 3 cannot be verified as accurate (confidence 6) [BD78E9C3], AccurateRip returned [24A641D1] (AR v2)
Track 4 cannot be verified as accurate (confidence 6) [F3DF7BEE], AccurateRip returned [46023C64] (AR v2)
Track 5 cannot be verified as accurate (confidence 7) [5D256B8E], AccurateRip returned [DEE84902] (AR v2)
Track 6 cannot be verified as accurate (confidence 7) [C790F079], AccurateRip returned [D2092302] (AR v2)
Track 7 cannot be verified as accurate (confidence 7) [6052D056], AccurateRip returned [6BADD82F] (AR v2)
Track 8 cannot be verified as accurate (confidence 7) [6E37A96B], AccurateRip returned [48355823] (AR v2)
Track 9 cannot be verified as accurate (confidence 7) [53D9820C], AccurateRip returned [DDC54DF6] (AR v2)
Track 10 cannot be verified as accurate (confidence 7) [417D214B], AccurateRip returned [9420F2E9] (AR v2)
No tracks could be verified as accurate
You may have a different pressing from the one(s) in the database
End of status report
CD3

скрытый текст

Exact Audio Copy V1.0 beta 3 from 29. August 2011
EAC extraction logfile from 2. October 2014, 11:58
Arturo Benedetti Michelangeli / Hommage 3/15
Used drive : Optiarc DVD RW AD-5260S Adapter: 1 ID: 0
Read mode : Secure
Utilize accurate stream : Yes
Defeat audio cache : Yes
Make use of C2 pointers : No
Read offset correction : 48
Overread into Lead-In and Lead-Out : No
Fill up missing offset samples with silence : Yes
Delete leading and trailing silent blocks : No
Null samples used in CRC calculations : Yes
Used interface : Native Win32 interface for Win NT & 2000
Used output format : User Defined Encoder
Selected bitrate : 128 kBit/s
Quality : High
Add ID3 tag : No
Command line compressor : C:\Program Files (x86)\Exact Audio Copy\Flac\flac.exe
Additional command line options : -V -8 -T "Date=%year%" -T "Genre=%genre%" %source%
TOC of the extracted CD
Track | Start | Length | Start sector | End sector
---------------------------------------------------------
1 | 0:00.00 | 15:25.57 | 0 | 69431
2 | 15:25.57 | 6:37.38 | 69432 | 99244
3 | 22:03.20 | 6:17.55 | 99245 | 127574
4 | 28:21.00 | 10:48.52 | 127575 | 176226
5 | 39:09.52 | 3:07.53 | 176227 | 190304
6 | 42:17.30 | 3:21.25 | 190305 | 205404
7 | 45:38.55 | 6:12.30 | 205405 | 233334
8 | 51:51.10 | 4:15.12 | 233335 | 252471
9 | 56:06.22 | 4:17.43 | 252472 | 271789
10 | 60:23.65 | 5:41.50 | 271790 | 297414
11 | 66:05.40 | 2:57.35 | 297415 | 310724
Range status and errors
Selected range
Filename E:\Arturo Benedetti Michelangeli - Hommage 3of15.wav
Peak level 88.6 %
Extraction speed 4.4 X
Range quality 100.0 %
Copy CRC 188676FC
Copy OK
No errors occurred
AccurateRip summary
Track 1 cannot be verified as accurate (confidence 7) [43F29F25], AccurateRip returned [F5D74A1B] (AR v2)
Track 2 cannot be verified as accurate (confidence 7) [37884395], AccurateRip returned [EC2D2885] (AR v2)
Track 3 cannot be verified as accurate (confidence 7) [B80AB517], AccurateRip returned [E004937E] (AR v2)
Track 4 cannot be verified as accurate (confidence 7) [7D7EE0AE], AccurateRip returned [8A598497] (AR v2)
Track 5 cannot be verified as accurate (confidence 7) [64FD7B1E], AccurateRip returned [7CA082D3] (AR v2)
Track 6 cannot be verified as accurate (confidence 7) [3C8555C5], AccurateRip returned [918987D9] (AR v2)
Track 7 cannot be verified as accurate (confidence 7) [987739B4], AccurateRip returned [257B6A4D] (AR v2)
Track 8 cannot be verified as accurate (confidence 7) [CFCA3302], AccurateRip returned [05790CEF] (AR v2)
Track 9 cannot be verified as accurate (confidence 7) [1A566D82], AccurateRip returned [6B8F31F8] (AR v2)
Track 10 cannot be verified as accurate (confidence 7) [BF367AAD], AccurateRip returned [5A80E801] (AR v2)
Track 11 cannot be verified as accurate (confidence 7) [CAFFD51F], AccurateRip returned [9510B785] (AR v2)
No tracks could be verified as accurate
You may have a different pressing from the one(s) in the database
End of status report
==== Log checksum BECF58EAF03A63CF2228991E00B2CF05E2A8E384D442E679F541910BC50CB4FE ====
CD4

скрытый текст

Exact Audio Copy V1.0 beta 3 from 29. August 2011
EAC extraction logfile from 2. October 2014, 12:17
Arturo Benedetti Michelangeli / Hommage 4/15
Used drive : Optiarc DVD RW AD-5260S Adapter: 1 ID: 0
Read mode : Secure
Utilize accurate stream : Yes
Defeat audio cache : Yes
Make use of C2 pointers : No
Read offset correction : 48
Overread into Lead-In and Lead-Out : No
Fill up missing offset samples with silence : Yes
Delete leading and trailing silent blocks : No
Null samples used in CRC calculations : Yes
Used interface : Native Win32 interface for Win NT & 2000
Used output format : User Defined Encoder
Selected bitrate : 128 kBit/s
Quality : High
Add ID3 tag : No
Command line compressor : C:\Program Files (x86)\Exact Audio Copy\Flac\flac.exe
Additional command line options : -V -8 -T "Date=%year%" -T "Genre=%genre%" %source%
TOC of the extracted CD
Track | Start | Length | Start sector | End sector
---------------------------------------------------------
1 | 0:00.00 | 3:02.30 | 0 | 13679
2 | 3:02.30 | 3:31.67 | 13680 | 29571
3 | 6:34.22 | 3:06.03 | 29572 | 43524
4 | 9:40.25 | 15:55.05 | 43525 | 115154
5 | 25:35.30 | 23:09.02 | 115155 | 219331
6 | 48:44.32 | 7:27.40 | 219332 | 252896
7 | 56:11.72 | 11:45.55 | 252897 | 305826
Range status and errors
Selected range
Filename E:\Arturo Benedetti Michelangeli - Hommage 4of15.wav
Peak level 100.0 %
Extraction speed 4.4 X
Range quality 100.0 %
Copy CRC 424FF172
Copy OK
No errors occurred
AccurateRip summary
Track 1 cannot be verified as accurate (confidence 3) [2C6911F0], AccurateRip returned [381E0283] (AR v2)
Track 2 cannot be verified as accurate (confidence 3) [3C4E3C11], AccurateRip returned [4CF18AF2] (AR v2)
Track 3 cannot be verified as accurate (confidence 3) [A601182D], AccurateRip returned [644A01AD] (AR v2)
Track 4 cannot be verified as accurate (confidence 3) [8DE31FA4], AccurateRip returned [461BAC2F] (AR v2)
Track 5 cannot be verified as accurate (confidence 3) [EF0446CF], AccurateRip returned [81E8C898] (AR v2)
Track 6 cannot be verified as accurate (confidence 3) [E04568E2], AccurateRip returned [181312B0] (AR v2)
Track 7 cannot be verified as accurate (confidence 3) [D89C02EF], AccurateRip returned [2CFB40A3] (AR v2)
No tracks could be verified as accurate
You may have a different pressing from the one(s) in the database
End of status report
==== Log checksum CF33EF7A3FB577D7CB8713F1A0A7E36DE30278B7F9A13D81E388B2ECD31AC97B ====
CD5

скрытый текст

Exact Audio Copy V1.0 beta 3 from 29. August 2011
EAC extraction logfile from 2. October 2014, 11:36
Arturo Benedetti Michelangeli / Hommage 5/15
Used drive : Optiarc DVD RW AD-5260S Adapter: 1 ID: 0
Read mode : Secure
Utilize accurate stream : Yes
Defeat audio cache : Yes
Make use of C2 pointers : No
Read offset correction : 48
Overread into Lead-In and Lead-Out : No
Fill up missing offset samples with silence : Yes
Delete leading and trailing silent blocks : No
Null samples used in CRC calculations : Yes
Used interface : Native Win32 interface for Win NT & 2000
Used output format : User Defined Encoder
Selected bitrate : 128 kBit/s
Quality : High
Add ID3 tag : No
Command line compressor : C:\Program Files (x86)\Exact Audio Copy\Flac\flac.exe
Additional command line options : -V -8 -T "Date=%year%" -T "Genre=%genre%" %source%
TOC of the extracted CD
Track | Start | Length | Start sector | End sector
---------------------------------------------------------
1 | 0:00.00 | 9:05.20 | 0 | 40894
2 | 9:05.20 | 17:46.15 | 40895 | 120859
3 | 26:51.35 | 3:40.35 | 120860 | 137394
4 | 30:31.70 | 1:45.02 | 137395 | 145271
5 | 32:16.72 | 2:50.43 | 145272 | 158064
6 | 35:07.40 | 2:57.57 | 158065 | 171396
7 | 38:05.22 | 3:04.20 | 171397 | 185216
8 | 41:09.42 | 5:47.20 | 185217 | 211261
9 | 46:56.62 | 8:54.43 | 211262 | 251354
10 | 55:51.30 | 5:17.30 | 251355 | 275159
11 | 61:08.60 | 4:41.32 | 275160 | 296266
12 | 65:50.17 | 9:00.68 | 296267 | 336834
Range status and errors
Selected range
Filename E:\Arturo Benedetti Michelangeli - Hommage 5of15.wav
Peak level 98.8 %
Extraction speed 4.5 X
Range quality 100.0 %
Copy CRC 2E073350
Copy OK
No errors occurred
AccurateRip summary
Track 1 cannot be verified as accurate (confidence 4) [C91A731D], AccurateRip returned [DC995AA8] (AR v2)
Track 2 cannot be verified as accurate (confidence 4) [0F861086], AccurateRip returned [56A6697D] (AR v2)
Track 3 cannot be verified as accurate (confidence 4) [7AB41E28], AccurateRip returned [23F4FD0D] (AR v2)
Track 4 cannot be verified as accurate (confidence 4) [D0E50EA4], AccurateRip returned [BDD20F8E] (AR v2)
Track 5 cannot be verified as accurate (confidence 4) [9D69066A], AccurateRip returned [E27F1902] (AR v2)
Track 6 cannot be verified as accurate (confidence 4) [F4CF9C94], AccurateRip returned [70C1ACD2] (AR v2)
Track 7 cannot be verified as accurate (confidence 4) [395B3629], AccurateRip returned [EE9B0166] (AR v2)
Track 8 cannot be verified as accurate (confidence 4) [27109D34], AccurateRip returned [B42F76C0] (AR v2)
Track 9 cannot be verified as accurate (confidence 4) [E514741F], AccurateRip returned [7440980B] (AR v2)
Track 10 cannot be verified as accurate (confidence 4) [5D1E94E3], AccurateRip returned [6F044808] (AR v2)
Track 11 cannot be verified as accurate (confidence 4) [9E33CE67], AccurateRip returned [1D5D6BC7] (AR v2)
Track 12 cannot be verified as accurate (confidence 4) [BDF57160], AccurateRip returned [A81179E1] (AR v2)
No tracks could be verified as accurate
You may have a different pressing from the one(s) in the database
End of status report
==== Log checksum 62971047E6F8154B98C283084D452E25BE847E6EC4FB08441D4D8F0410B39EF0 ====
CD6

скрытый текст

Exact Audio Copy V1.0 beta 3 from 29. August 2011
EAC extraction logfile from 2. October 2014, 12:40
Arturo Benedetti Michelangeli / Hommage 6/15
Used drive : Optiarc DVD RW AD-5260S Adapter: 1 ID: 0
Read mode : Secure
Utilize accurate stream : Yes
Defeat audio cache : Yes
Make use of C2 pointers : No
Read offset correction : 48
Overread into Lead-In and Lead-Out : No
Fill up missing offset samples with silence : Yes
Delete leading and trailing silent blocks : No
Null samples used in CRC calculations : Yes
Used interface : Native Win32 interface for Win NT & 2000
Used output format : User Defined Encoder
Selected bitrate : 128 kBit/s
Quality : High
Add ID3 tag : No
Command line compressor : C:\Program Files (x86)\Exact Audio Copy\Flac\flac.exe
Additional command line options : -V -8 -T "Date=%year%" -T "Genre=%genre%" %source%
TOC of the extracted CD
Track | Start | Length | Start sector | End sector
---------------------------------------------------------
1 | 0:00.00 | 13:48.55 | 0 | 62154
2 | 13:48.55 | 5:10.25 | 62155 | 85429
3 | 18:59.05 | 9:30.70 | 85430 | 128249
4 | 28:30.00 | 15:23.42 | 128250 | 197516
5 | 43:53.42 | 12:59.67 | 197517 | 256008
6 | 56:53.34 | 7:06.48 | 256009 | 288006
7 | 64:00.07 | 10:36.38 | 288007 | 335744
Range status and errors
Selected range
Filename E:\Arturo Benedetti Michelangeli - Hommage 6of15.wav
Peak level 99.8 %
Extraction speed 4.5 X
Range quality 100.0 %
Copy CRC 4F81D3CD
Copy OK
No errors occurred
AccurateRip summary
Track 1 cannot be verified as accurate (confidence 5) [047BB128], AccurateRip returned [A189CFC9] (AR v2)
Track 2 cannot be verified as accurate (confidence 5) [D905685E], AccurateRip returned [808B7014] (AR v2)
Track 3 cannot be verified as accurate (confidence 5) [F4098ED9], AccurateRip returned [2B203DDD] (AR v2)
Track 4 cannot be verified as accurate (confidence 5) [A8B58EC1], AccurateRip returned [66B07982] (AR v2)
Track 5 cannot be verified as accurate (confidence 5) [027BFB2F], AccurateRip returned [F807FC00] (AR v2)
Track 6 cannot be verified as accurate (confidence 5) [13466336], AccurateRip returned [96E7E408] (AR v2)
Track 7 cannot be verified as accurate (confidence 5) [98BFF50F], AccurateRip returned [2539799D] (AR v2)
No tracks could be verified as accurate
You may have a different pressing from the one(s) in the database
End of status report
==== Log checksum C1BECD737346B866D649F6E52042B3122391F20ADC033188A12481C30019BC40 ====
CD7

скрытый текст

Exact Audio Copy V1.0 beta 3 from 29. August 2011
EAC extraction logfile from 2. October 2014, 13:08
Arturo Benedetti Michelangeli / Hommage 7/15
Used drive : Optiarc DVD RW AD-5260S Adapter: 1 ID: 0
Read mode : Secure
Utilize accurate stream : Yes
Defeat audio cache : Yes
Make use of C2 pointers : No
Read offset correction : 48
Overread into Lead-In and Lead-Out : No
Fill up missing offset samples with silence : Yes
Delete leading and trailing silent blocks : No
Null samples used in CRC calculations : Yes
Used interface : Native Win32 interface for Win NT & 2000
Used output format : User Defined Encoder
Selected bitrate : 128 kBit/s
Quality : High
Add ID3 tag : No
Command line compressor : C:\Program Files (x86)\Exact Audio Copy\Flac\flac.exe
Additional command line options : -V -8 -T "Date=%year%" -T "Genre=%genre%" %source%
TOC of the extracted CD
Track | Start | Length | Start sector | End sector
---------------------------------------------------------
1 | 0:00.00 | 10:07.60 | 0 | 45584
2 | 10:07.60 | 6:27.25 | 45585 | 74634
3 | 16:35.10 | 2:42.62 | 74635 | 86846
4 | 19:17.72 | 4:46.44 | 86847 | 108340
5 | 24:04.41 | 2:51.60 | 108341 | 121225
6 | 26:56.26 | 5:40.15 | 121226 | 146740
7 | 32:36.41 | 12:08.74 | 146741 | 201414
8 | 44:45.40 | 2:50.19 | 201415 | 214183
9 | 47:35.59 | 2:36.38 | 214184 | 225921
10 | 50:12.22 | 3:30.59 | 225922 | 241730
Range status and errors
Selected range
Filename E:\Arturo Benedetti Michelangeli - Hommage 7of15.wav
Peak level 99.9 %
Extraction speed 4.1 X
Range quality 99.9 %
Copy CRC 91D08CAD
Copy OK
No errors occurred
AccurateRip summary
Track 1 cannot be verified as accurate (confidence 4) [9178BB82], AccurateRip returned [C79F1140] (AR v2)
Track 2 cannot be verified as accurate (confidence 4) [C49D3E12], AccurateRip returned [E831EA9B] (AR v2)
Track 3 cannot be verified as accurate (confidence 4) [368EFD55], AccurateRip returned [DC702776] (AR v2)
Track 4 cannot be verified as accurate (confidence 4) [C1C71721], AccurateRip returned [06B30A56] (AR v2)
Track 5 cannot be verified as accurate (confidence 4) [E53A75D7], AccurateRip returned [5F639D54] (AR v2)
Track 6 cannot be verified as accurate (confidence 4) [EBA63580], AccurateRip returned [F6B79553] (AR v2)
Track 7 cannot be verified as accurate (confidence 4) [1528CB87], AccurateRip returned [E9506F9A] (AR v2)
Track 8 cannot be verified as accurate (confidence 4) [DB782FE0], AccurateRip returned [84503BED] (AR v2)
Track 9 cannot be verified as accurate (confidence 4) [3933C032], AccurateRip returned [C483713B] (AR v2)
Track 10 cannot be verified as accurate (confidence 4) [90B57BCB], AccurateRip returned [D6259A24] (AR v2)
No tracks could be verified as accurate
You may have a different pressing from the one(s) in the database
End of status report
==== Log checksum 8F8DAE5126C5675E14906D95C82E32EA5FF25DA6ACFAC431E57EA06BCC5D44D6 ====
CD8

скрытый текст

Exact Audio Copy V1.0 beta 3 from 29. August 2011
EAC extraction logfile from 2. October 2014, 13:28
Arturo Benedetti Michelangeli / Hommage 8/15
Used drive : Optiarc DVD RW AD-5260S Adapter: 1 ID: 0
Read mode : Secure
Utilize accurate stream : Yes
Defea 2000
Used output format : User Defined Encoder
Selected bitrate : 128 kBit/s
Quality : High
Add ID3 tag : No
Command line compressor : C:\Program Files (x86)\Exact Audio Copy\Flac\flac.exe
Additional command line options : -V -8 -T "Date=%year%" -T "Genre=%genre%" %source%
TOC of the extracted CD
Track | Start | Length | Start sector | End sector
---------------------------------------------------------
1 | 0:00.00 | 3:02.30 | 0 | 13679
2 | 3:02.30 | 3:31.67 | 13680 | 29571
3 | 6:34.22 | 3:06.03 | 29572 | 43524
4 | 9:40.25 | 15:55.05 | 43525 | 115154
5 | 25:35.30 | 23:09.02 | 115155 | 219331
6 | 48:44.32 | 7:27.40 | 219332 | 252896
7 | 56:11.72 | 11:45.55 | 252897 | 305826
Range status and errors
Selected range
Filename E:\Arturo Benedetti Michelangeli - Hommage 4of15.wav
Peak level 100.0 %
Extraction speed 4.4 X
Range quality 100.0 %
Copy CRC 424FF172
Copy OK
No errors occurred
AccurateRip summary
Track 1 cannot be verified as accurate (confidence 3) [2C6911F0], AccurateRip returned [381E0283] (AR v2)
Track 2 cannot be verified as accurate (confidence 3) [3C4E3C11], AccurateRip returned [4CF18AF2] (AR v2)
Track 3 cannot be verified as accurate (confidence 3) [A601182D], AccurateRip returned [644A01AD] (AR v2)
Track 4 cannot be verified as accurate (confidence 3) [8DE31FA4], AccurateRip returned [461BAC2F] (AR v2)
Track 5 cannot be verified as accurate (confidence 3) [EF0446CF], AccurateRip returned [81E8C898] (AR v2)
Track 6 cannot be verified as accurate (confidence 3) [E04568E2], AccurateRip returned [181312B0] (AR v2)
Track 7 cannot be verified as accurate (confidence 3) [D89C02EF], AccurateRip returned [2CFB40A3] (AR v2)
No tracks could be verified as accurate
You may have a different pressing from the one(s) in the database
End of status report
==== Log checksum CF33EF7A3FB577D7CB8713F1A0A7E36DE30278B7F9A13D81E388B2ECD31AC97B ====
CD5

скрытый текст

Exact Audio Copy V1.0 beta 3 from 29. August 2011
EAC extraction logfile from 2. October 2014, 11:36
Arturo Benedetti Michelangeli / Hommage 5/15
Used drive : Optiarc DVD RW AD-5260S Adapter: 1 ID: 0
Read mode : Secure
Utilize accurate stream : Yes
Defeat audio cache : Yes
Make use of C2 pointers : No
Read offset correction : 48
Overread into Lead-In and Lead-Out : No
Fill up missing offset samples with silence : Yes
Delete leading and trailing silent blocks : No
Null samples used in CRC calculations : Yes
Used interface : Native Win32 interface for Win NT t audio cache : Yes
Make use of C2 pointers : No
Read offset correction : 48
Overread into Lead-In and Lead-Out : No
Fill up missing offset samples with silence : Yes
Delete leading and trailing silent blocks : No
Null samples used in CRC calculations : Yes
Used interface : Native Win32 interface for Win NT & 2000
Used output format : User Defined Encoder
Selected bitrate : 128 kBit/s
Quality : High
Add ID3 tag : No
Command line compressor : C:\Program Files (x86)\Exact Audio Copy\Flac\flac.exe
Additional command line options : -V -8 -T "Date=%year%" -T "Genre=%genre%" %source%
TOC of the extracted CD
Track | Start | Length | Start sector | End sector
---------------------------------------------------------
1 | 0:00.00 | 3:01.61 | 0 | 13635
2 | 3:01.61 | 2:44.44 | 13636 | 25979
3 | 5:46.30 | 3:23.20 | 25980 | 41224
4 | 9:09.50 | 3:37.54 | 41225 | 57553
5 | 12:47.29 | 3:17.29 | 57554 | 72357
6 | 16:04.58 | 11:49.34 | 72358 | 125566
7 | 27:54.17 | 2:54.23 | 125567 | 138639
8 | 30:48.40 | 2:35.18 | 138640 | 150282
9 | 33:23.58 | 2:26.41 | 150283 | 161273
10 | 35:50.24 | 5:51.07 | 161274 | 187605
11 | 41:41.31 | 5:22.08 | 187606 | 211763
12 | 47:03.39 | 7:33.73 | 211764 | 245811
13 | 54:37.37 | 3:31.37 | 245812 | 261673
14 | 58:08.74 | 4:58.61 | 261674 | 284084
15 | 63:07.60 | 6:08.64 | 284085 | 311748
16 | 69:16.49 | 4:35.71 | 311749 | 332444
Range status and errors
Selected range
Filename E:\Arturo Benedetti Michelangeli - Hommage 8of15.wav
Peak level 99.8 %
Extraction speed 4.5 X
Range quality 100.0 %
Copy CRC CF22655D
Copy OK
No errors occurred
AccurateRip summary
Track 1 cannot be verified as accurate (confidence 3) [C2B8149D], AccurateRip returned [D84DD3D4] (AR v2)
Track 2 cannot be verified as accurate (confidence 3) [EEA12C2A], AccurateRip returned [8241F773] (AR v2)
Track 3 cannot be verified as accurate (confidence 3) [55959AC5], AccurateRip returned [353DC000] (AR v2)
Track 4 cannot be verified as accurate (confidence 3) [12AE7C8F], AccurateRip returned [6DE13340] (AR v2)
Track 5 cannot be verified as accurate (confidence 3) [08E37E2B], AccurateRip returned [87D4A9AA] (AR v2)
Track 6 cannot be verified as accurate (confidence 3) [E24081F5], AccurateRip returned [C9C53EA6] (AR v2)
Track 7 cannot be verified as accurate (confidence 3) [0189A11F], AccurateRip returned [231E1FD2] (AR v2)
Track 8 cannot be verified as accurate (confidence 3) [E2E7F6AF], AccurateRip returned [18C0FE38] (AR v2)
Track 9 cannot be verified as accurate (confidence 3) [36D63F31], AccurateRip returned [8267E0E0] (AR v2)
Track 10 cannot be verified as accurate (confidence 3) [B2CFD6BD], AccurateRip returned [4694BCBA] (AR v2)
Track 11 cannot be verified as accurate (confidence 3) [451BA5BB], AccurateRip returned [DE51AB49] (AR v2)
Track 12 cannot be verified as accurate (confidence 3) [EC63C6D1], AccurateRip returned [69F35107] (AR v2)
Track 13 cannot be verified as accurate (confidence 3) [22CAF6D0], AccurateRip returned [0836B474] (AR v2)
Track 14 cannot be verified as accurate (confidence 3) [89DCC30D], AccurateRip returned [7421460B] (AR v2)
Track 15 cannot be verified as accurate (confidence 3) [0DC08C9A], AccurateRip returned [7646D2AD] (AR v2)
Track 16 cannot be verified as accurate (confidence 2) [EDEA7923], AccurateRip returned [0184D0BB] (AR v2)
No tracks could be verified as accurate
You may have a different pressing from the one(s) in the database
End of status report
==== Log checksum 210C158392C194508B25F50C46A4B55860EAAFDB77E1BDD7515CA57908FB3A41 ====
CD9

скрытый текст

Exact Audio Copy V1.0 beta 3 from 29. August 2011
EAC extraction logfile from 3. October 2014, 10:11
Arturo Benedetti Michelangeli / Hommage 9/15
Used drive : Optiarc DVD RW AD-5260S Adapter: 1 ID: 0
Read mode : Secure
Utilize accurate stream : Yes
Defeat audio cache : Yes
Make use of C2 pointers : No
Read offset correction : 48
Overread into Lead-In and Lead-Out : No
Fill up missing offset samples with silence : Yes
Delete leading and trailing silent blocks : No
Null samples used in CRC calculations : Yes
Used interface : Native Win32 interface for Win NT & 2000
Used output format : User Defined Encoder
Selected bitrate : 128 kBit/s
Quality : High
Add ID3 tag : No
Command line compressor : C:\Program Files (x86)\Exact Audio Copy\Flac\flac.exe
Additional command line options : -V -8 -T "Date=%year%" -T "Genre=%genre%" %source%
TOC of the extracted CD
Track | Start | Length | Start sector | End sector
---------------------------------------------------------
1 | 0:00.34 | 10:47.37 | 34 | 48595
2 | 10:47.71 | 8:23.17 | 48596 | 86337
3 | 19:11.13 | 5:08.46 | 86338 | 109483
4 | 24:19.59 | 4:33.42 | 109484 | 130000
5 | 28:53.26 | 7:14.37 | 130001 | 162587
6 | 36:07.63 | 4:03.33 | 162588 | 180845
7 | 40:11.21 | 10:05.52 | 180846 | 226272
Range status and errors
Selected range
Filename E:\Arturo Benedetti Michelangeli - Hommage 9of15.wav
Peak level 99.8 %
Extraction speed 4.1 X
Range quality 100.0 %
Copy CRC F2F58AE8
Copy OK
No errors occurred
AccurateRip summary
Track 1 cannot be verified as accurate (confidence 5) [03F2130E], AccurateRip returned [16AA038A] (AR v2)
Track 2 cannot be verified as accurate (confidence 5) [BA601A84], AccurateRip returned [3F182284] (AR v2)
Track 3 cannot be verified as accurate (confidence 5) [CA756BD3], AccurateRip returned [51135181] (AR v2)
Track 4 cannot be verified as accurate (confidence 5) [2647C408], AccurateRip returned [E0D8DA36] (AR v2)
Track 5 cannot be verified as accurate (confidence 5) [193C80D9], AccurateRip returned [5E75CCBB] (AR v2)
Track 6 cannot be verified as accurate (confidence 5) [1C104EB5], AccurateRip returned [BB0FD8B8] (AR v2)
Track 7 cannot be verified as accurate (confidence 5) [4E29B9B9], AccurateRip returned [BDEAB808] (AR v2)
No tracks could be verified as accurate
You may have a different pressing from the one(s) in the database
End of status report
==== Log checksum 3A4728DE2F1D83AB3FDB63E5AE71FC118C9D0CFB5FD3425A0737B49A5BABB6CF ====
CD10

скрытый текст

Exact Audio Copy V1.0 beta 3 from 29. August 2011
EAC extraction logfile from 3. October 2014, 10:31
Arturo Benedetti Michelangeli / Hommage 10/15
Used drive : Optiarc DVD RW AD-5260S Adapter: 1 ID: 0
Read mode : Secure
Utilize accurate stream : Yes
Defeat audio cache : Yes
Make use of C2 pointers : No
Read offset correction : 48
Overread into Lead-In and Lead-Out : No
Fill up missing offset samples with silence : Yes
Delete leading and trailing silent blocks : No
Null samples used in CRC calculations : Yes
Used interface : Native Win32 interface for Win NT & 2000
Used output format : User Defined Encoder
Selected bitrate : 128 kBit/s
Quality : High
Add ID3 tag : No
Command line compressor : C:\Program Files (x86)\Exact Audio Copy\Flac\flac.exe
Additional command line options : -V -8 -T "Date=%year%" -T "Genre=%genre%" %source%
TOC of the extracted CD
Track | Start | Length | Start sector | End sector
---------------------------------------------------------
1 | 0:00.00 | 10:56.54 | 0 | 49253
2 | 10:56.54 | 5:41.02 | 49254 | 74830
3 | 16:37.56 | 9:15.40 | 74831 | 116495
4 | 25:53.21 | 14:59.28 | 116496 | 183948
5 | 40:52.49 | 14:09.19 | 183949 | 247642
6 | 55:01.68 | 9:08.22 | 247643 | 288764
Range status and errors
Selected range
Filename E:\Arturo Benedetti Michelangeli - Hommage 10of15.wav
Peak level 99.8 %
Extraction speed 4.3 X
Range quality 99.9 %
Copy CRC A0814CA1
Copy OK
No errors occurred
AccurateRip summary
Track 1 cannot be verified as accurate (confidence 5) [83D89D24], AccurateRip returned [466F2372] (AR v2)
Track 2 cannot be verified as accurate (confidence 5) [7E6D82F0], AccurateRip returned [7D85C345] (AR v2)
Track 3 cannot be verified as accurate (confidence 5) [36FD822F], AccurateRip returned [56563F88] (AR v2)
Track 4 cannot be verified as accurate (confidence 5) [EF428608], AccurateRip returned [30EBDBCD] (AR v2)
Track 5 cannot be verified as accurate (confidence 5) [10C64723], AccurateRip returned [B38BB56A] (AR v2)
Track 6 cannot be verified as accurate (confidence 5) [4DCDCC33], AccurateRip returned [A6EBF53C] (AR v2)
No tracks could be verified as accurate
You may have a different pressing from the one(s) in the database
End of status report
==== Log checksum 80C490ECE908575C900052915D129BAE47EFBEFC2265FC030DC366EE33745289 ====
CD11

скрытый текст

Exact Audio Copy V1.0 beta 3 from 29. August 2011
EAC extraction logfile from 3. October 2014, 10:59
Arturo Benedetti Michelangeli / Hommage 11/15
Used drive : Optiarc DVD RW AD-5260S Adapter: 1 ID: 0
Read mode : Secure
Utilize accurate stream : Yes
Defeat audio cache : Yes
Make use of C2 pointers : No
Read offset correction : 48
Overread into Lead-In and Lead-Out : No
Fill up missing offset samples with silence : Yes
Delete leading and trailing silent blocks : No
Null samples used in CRC calculations : Yes
Used interface : Native Win32 interface for Win NT & 2000
Used output format : User Defined Encoder
Selected bitrate : 128 kBit/s
Quality : High
Add ID3 tag : No
Command line compressor : C:\Program Files (x86)\Exact Audio Copy\Flac\flac.exe
Additional command line options : -V -8 -T "Date=%year%" -T "Genre=%genre%" %source%
TOC of the extracted CD
Track | Start | Length | Start sector | End sector
---------------------------------------------------------
1 | 0:00.00 | 3:56.30 | 0 | 17729
2 | 3:56.30 | 7:44.67 | 17730 | 52596
3 | 11:41.22 | 5:02.58 | 52597 | 75304
4 | 16:44.05 | 3:39.27 | 75305 | 91756
5 | 20:23.32 | 3:08.15 | 91757 | 105871
6 | 23:31.47 | 4:57.43 | 105872 | 128189
7 | 28:29.15 | 4:14.10 | 128190 | 147249
8 | 32:43.25 | 9:02.42 | 147250 | 187941
9 | 41:45.67 | 3:04.18 | 187942 | 201759
10 | 44:50.10 | 3:18.55 | 201760 | 216664
11 | 48:08.65 | 3:26.10 | 216665 | 232124
12 | 51:35.00 | 4:49.70 | 232125 | 253869
13 | 56:24.70 | 4:17.72 | 253870 | 273216
14 | 60:42.67 | 6:17.35 | 273217 | 301526
15 | 67:00.27 | 2:14.28 | 301527 | 311604
Range status and errors
Selected range
Filename E:\Arturo Benedetti Michelangeli - Hommage 11of15.wav
Peak level 99.5 %
Extraction speed 4.4 X
Range quality 100.0 %
Copy CRC F9F070BF
Copy OK
No errors occurred
AccurateRip summary
Track 1 cannot be verified as accurate (confidence 5) [F30F1904], AccurateRip returned [0875D94A] (AR v2)
Track 2 cannot be verified as accurate (confidence 5) [B2A3F7F2], AccurateRip returned [107C0DBA] (AR v2)
Track 3 cannot be verified as accurate (confidence 5) [74DC99B9], AccurateRip returned [1D35E383] (AR v2)
Track 4 cannot be verified as accurate (confidence 5) [E19A9AC7], AccurateRip returned [AF8A61F8] (AR v2)
Track 5 cannot be verified as accurate (confidence 5) [838223B6], AccurateRip returned [60F00006] (AR v2)
Track 6 cannot be verified as accurate (confidence 5) [BEB7ABBC], AccurateRip returned [F5A8E9B1] (AR v2)
Track 7 cannot be verified as accurate (confidence 5) [A1996510], AccurateRip returned [F743D82A] (AR v2)
Track 8 cannot be verified as accurate (confidence 5) [49DC79D0], AccurateRip returned [A5D964E8] (AR v2)
Track 9 cannot be verified as accurate (confidence 5) [3A8007AD], AccurateRip returned [A8B72135] (AR v2)
Track 10 cannot be verified as accurate (confidence 5) [AAB0BC2E], AccurateRip returned [AD3F9887] (AR v2)
Track 11 cannot be verified as accurate (confidence 5) [D6AD1F6F], AccurateRip returned [49EF8574] (AR v2)
Track 12 cannot be verified as accurate (confidence 5) [6AB547BE], AccurateRip returned [5ED934CE] (AR v2)
Track 13 cannot be verified as accurate (confidence 5) [A7E32490], AccurateRip returned [C9225FF2] (AR v2)
Track 14 cannot be verified as accurate (confidence 5) [23744002], AccurateRip returned [EF98D978] (AR v2)
Track 15 cannot be verified as accurate (confidence 5) [1265094F], AccurateRip returned [BE1A3107] (AR v2)
No tracks could be verified as accurate
You may have a different pressing from the one(s) in the database
End of status report
==== Log checksum 024C6ADE3B684A54DE5B65A90B5E6E5330D181D091892866239467FBB2DA4FDB ====
CD12

скрытый текст

Exact Audio Copy V1.0 beta 3 from 29. August 2011
EAC extraction logfile from 3. October 2014, 11:22
Arturo Benedetti Michelangeli / Hommage 12/15
Used drive : Optiarc DVD RW AD-5260S Adapter: 1 ID: 0
Read mode : Secure
Utilize accurate stream : Yes
Defeat audio cache : Yes
Make use of C2 pointers : No
Read offset correction : 48
Overread into Lead-In and Lead-Out : No
Fill up missing offset samples with silence : Yes
Delete leading and trailing silent blocks : No
Null samples used in CRC calculations : Yes
Used interface : Native Win32 interface for Win NT & 2000
Used output format : User Defined Encoder
Selected bitrate : 128 kBit/s
Quality : High
Add ID3 tag : No
Command line compressor : C:\Program Files (x86)\Exact Audio Copy\Flac\flac.exe
Additional command line options : -V -8 -T "Date=%year%" -T "Genre=%genre%" %source%
TOC of the extracted CD
Track | Start | Length | Start sector | End sector
---------------------------------------------------------
1 | 0:00.33 | 2:49.50 | 33 | 12757
2 | 2:50.08 | 3:26.12 | 12758 | 28219
3 | 6:16.20 | 3:53.50 | 28220 | 45744
4 | 10:09.70 | 3:05.00 | 45745 | 59619
5 | 13:14.70 | 2:50.38 | 59620 | 72407
6 | 16:05.33 | 2:35.62 | 72408 | 84094
7 | 18:41.20 | 4:23.63 | 84095 | 103882
8 | 23:05.08 | 3:23.17 | 103883 | 119124
9 | 26:28.25 | 2:31.58 | 119125 | 130507
10 | 29:00.08 | 2:49.62 | 130508 | 143244
11 | 31:49.70 | 2:41.13 | 143245 | 155332
12 | 34:31.08 | 4:19.00 | 155333 | 174757
13 | 38:50.08 | 5:36.00 | 174758 | 199957
Range status and errors
Selected range
Filename E:\Arturo Benedetti Michelangeli - Hommage 12of15.wav
Peak level 99.2 %
Extraction speed 3.9 X
Range quality 100.0 %
Copy CRC CDBDA0C0
Copy OK
No errors occurred
AccurateRip summary
Track 1 cannot be verified as accurate (confidence 5) [9022330D], AccurateRip returned [BB4C596A] (AR v2)
Track 2 cannot be verified as accurate (confidence 5) [0D875458], AccurateRip returned [4DD3D93A] (AR v2)
Track 3 cannot be verified as accurate (confidence 5) [C91DCB85], AccurateRip returned [EE4A7AC3] (AR v2)
Track 4 cannot be verified as accurate (confidence 5) [39BF151E], AccurateRip returned [8B8DEAB7] (AR v2)
Track 5 cannot be verified as accurate (confidence 5) [12163DFD], AccurateRip returned [968515BB] (AR v2)
Track 6 cannot be verified as accurate (confidence 5) [AC12705A], AccurateRip returned [7855D618] (AR v2)
Track 7 cannot be verified as accurate (confidence 5) [4F0B3AD8], AccurateRip returned [76FCCEA1] (AR v2)
Track 8 cannot be verified as accurate (confidence 5) [3B836530], AccurateRip returned [6E001B9E] (AR v2)
Track 9 cannot be verified as accurate (confidence 5) [E7A9F8CC], AccurateRip returned [F644539C] (AR v2)
Track 10 cannot be verified as accurate (confidence 6) [6AB7152F], AccurateRip returned [EAF5CD39] (AR v2)
Track 11 cannot be verified as accurate (confidence 6) [E33ECA80], AccurateRip returned [92699E2E] (AR v2)
Track 12 cannot be verified as accurate (confidence 6) [50D5AF89], AccurateRip returned [20552038] (AR v2)
Track 13 cannot be verified as accurate (confidence 6) [B11C5393], AccurateRip returned [04FC1167] (AR v2)
No tracks could be verified as accurate
You may have a different pressing from the one(s) in the database
End of status report
==== Log checksum 86DB0AC4CED9FB6493B659F7321A325FD6239EA9C65D8658A5D5F717296AAA63 ====
CD13

скрытый текст

Exact Audio Copy V1.0 beta 3 from 29. August 2011
EAC extraction logfile from 3. October 2014, 12:02
Arturo Benedetti Michelangeli / Hommage 13/15
Used drive : Optiarc DVD RW AD-5260S Adapter: 1 ID: 0
Read mode : Secure
Utilize accurate stream : Yes
Defeat audio cache : Yes
Make use of C2 pointers : No
Read offset correction : 48
Overread into Lead-In and Lead-Out : No
Fill up missing offset samples with silence : Yes
Delete leading and trailing silent blocks : No
Null samples used in CRC calculations : Yes
Used interface : Native Win32 interface for Win NT & 2000
Used output format : User Defined Encoder
Selected bitrate : 128 kBit/s
Quality : High
Add ID3 tag : No
Command line compressor : C:\Program Files (x86)\Exact Audio Copy\Flac\flac.exe
Additional command line options : -V -8 -T "Date=%year%" -T "Genre=%genre%" %source%
TOC of the extracted CD
Track | Start | Length | Start sector | End sector
---------------------------------------------------------
1 | 0:00.32 | 14:33.63 | 32 | 65569
2 | 14:34.20 | 11:58.57 | 65570 | 119476
3 | 26:33.02 | 10:46.35 | 119477 | 167961
4 | 37:19.37 | 15:35.03 | 167962 | 238089
5 | 52:54.40 | 2:39.20 | 238090 | 250034
6 | 55:33.60 | 6:39.62 | 250035 | 280021
Range status and errors
Selected range
Filename E:\Arturo Benedetti Michelangeli - Hommage 13of15.wav
Peak level 88.2 %
Extraction speed 4.3 X
Range quality 100.0 %
Copy CRC 90CA275B
Copy OK
No errors occurred
AccurateRip summary
Track 1 cannot be verified as accurate (confidence 5) [DFA77147], AccurateRip returned [98FC727F] (AR v2)
Track 2 cannot be verified as accurate (confidence 5) [70C59CFE], AccurateRip returned [F7C471D1] (AR v2)
Track 3 cannot be verified as accurate (confidence 5) [02CE8BEC], AccurateRip returned [77D517E2] (AR v2)
Track 4 cannot be verified as accurate (confidence 5) [6E03D124], AccurateRip returned [230887B4] (AR v2)
Track 5 cannot be verified as accurate (confidence 5) [9AF3CE5D], AccurateRip returned [DC7F1120] (AR v2)
Track 6 cannot be verified as accurate (confidence 5) [468F29CD], AccurateRip returned [670310A7] (AR v2)
No tracks could be verified as accurate
You may have a different pressing from the one(s) in the database
End of status report
==== Log checksum 300B3B508468930F4BA7041DB1EE11FFCC5CC9760ACDDEBDA8D59F7F87175901 ====
CD14

скрытый текст

Exact Audio Copy V1.0 beta 3 from 29. August 2011
EAC extraction logfile from 3. October 2014, 12:18
Arturo Benedetti Michelangeli / Hommage 14/15
Used drive : Optiarc DVD RW AD-5260S Adapter: 1 ID: 0
Read mode : Secure
Utilize accurate stream : Yes
Defeat audio cache : Yes
Make use of C2 pointers : No
Read offset correction : 48
Overread into Lead-In and Lead-Out : No
Fill up missing offset samples with silence : Yes
Delete leading and trailing silent blocks : No
Null samples used in CRC calculations : Yes
Used interface : Native Win32 interface for Win NT & 2000
Used output format : User Defined Encoder
Selected bitrate : 128 kBit/s
Quality : High
Add ID3 tag : No
Command line compressor : C:\Program Files (x86)\Exact Audio Copy\Flac\flac.exe
Additional command line options : -V -8 -T "Date=%year%" -T "Genre=%genre%" %source%
TOC of the extracted CD
Track | Start | Length | Start sector | End sector
---------------------------------------------------------
1 | 0:00.00 | 5:19.40 | 0 | 23964
2 | 5:19.40 | 7:35.27 | 23965 | 58116
3 | 12:54.67 | 4:12.10 | 58117 | 77026
4 | 17:07.02 | 11:09.53 | 77027 | 127254
5 | 28:16.55 | 7:51.22 | 127255 | 162601
6 | 36:08.02 | 7:33.58 | 162602 | 196634
7 | 43:41.60 | 9:46.22 | 196635 | 240606
8 | 53:28.07 | 1:40.70 | 240607 | 248176
Range status and errors
Selected range
Filename E:\Arturo Benedetti Michelangeli - Hommage 14of15.wav
Peak level 94.2 %
Extraction speed 4.1 X
Range quality 99.9 %
Copy CRC AE905D24
Copy OK
No errors occurred
AccurateRip summary
Track 1 cannot be verified as accurate (confidence 3) [B14FDCB6], AccurateRip returned [49B99D84] (AR v2)
Track 2 cannot be verified as accurate (confidence 4) [639810F7], AccurateRip returned [C4120B88] (AR v2)
Track 3 cannot be verified as accurate (confidence 4) [73FB5C23], AccurateRip returned [D1CF0769] (AR v2)
Track 4 cannot be verified as accurate (confidence 4) [12B07450], AccurateRip returned [FFD3DD48] (AR v2)
Track 5 cannot be verified as accurate (confidence 5) [51F2D230], AccurateRip returned [15029607] (AR v2)
Track 6 cannot be verified as accurate (confidence 5) [3C18280C], AccurateRip returned [82BD9FA1] (AR v2)
Track 7 cannot be verified as accurate (confidence 5) [FDFCD475], AccurateRip returned [8C6AB610] (AR v2)
Track 8 cannot be verified as accurate (confidence 5) [1D05B3FE], AccurateRip returned [F7E103A8] (AR v2)
No tracks could be verified as accurate
You may have a different pressing from the one(s) in the database
End of status report
==== Log checksum 8D05B3D33DE11A4ADA25AD499E9DE26ED47601F5E465869A8CA71534BBED5B3C ====
CD15

скрытый текст

Exact Audio Copy V1.0 beta 3 from 29. August 2011
EAC extraction logfile from 3. October 2014, 12:50
Arturo Benedetti Michelangeli / Hommage 15/15
Used drive : Optiarc DVD RW AD-5260S Adapter: 1 ID: 0
Read mode : Secure
Utilize accurate stream : Yes
Defeat audio cache : Yes
Make use of C2 pointers : No
Read offset correction : 48
Overread into Lead-In and Lead-Out : No
Fill up missing offset samples with silence : Yes
Delete leading and trailing silent blocks : No
Null samples used in CRC calculations : Yes
Used interface : Native Win32 interface for Win NT & 2000
Used output format : User Defined Encoder
Selected bitrate : 128 kBit/s
Quality : High
Add ID3 tag : No
Command line compressor : C:\Program Files (x86)\Exact Audio Copy\Flac\flac.exe
Additional command line options : -V -8 -T "Date=%year%" -T "Genre=%genre%" %source%
TOC of the extracted CD
Track | Start | Length | Start sector | End sector
---------------------------------------------------------
1 | 0:00.32 | 9:38.53 | 32 | 43434
2 | 9:39.10 | 16:52.20 | 43435 | 119354
3 | 26:31.30 | 8:05.40 | 119355 | 155769
4 | 34:36.70 | 13:11.42 | 155770 | 215136
5 | 47:48.37 | 16:56.30 | 215137 | 291366
Range status and errors
Selected range
Filename E:\Arturo Benedetti Michelangeli - Hommage 15of15.wav
Peak level 99.6 %
Extraction speed 4.3 X
Range quality 100.0 %
Copy CRC 5A0FAEF1
Copy OK
No errors occurred
AccurateRip summary
Track 1 cannot be verified as accurate (confidence 3) [136BDF9E], AccurateRip returned [990DEFBA] (AR v2)
Track 2 cannot be verified as accurate (confidence 2) [62207FB3], AccurateRip returned [A9BF4177] (AR v2)
Track 3 cannot be verified as accurate (confidence 3) [7965599E], AccurateRip returned [F38C5139] (AR v2)
Track 4 cannot be verified as accurate (confidence 3) [BBC4BB2E], AccurateRip returned [C7FF4062] (AR v2)
Track 5 cannot be verified as accurate (confidence 3) [8C328990], AccurateRip returned [C418199C] (AR v2)
No tracks could be verified as accurate
You may have a different pressing from the one(s) in the database
End of status report
==== Log checksum F99CD4CE0130F374ED5DF55A06BD95E564FA079804165DE215E683011091C22C ====

Содержание индексной карты (.CUE)

CD1

скрытый текст

REM GENRE Classical
REM DATE 1977
REM DISCID A109FD0C
REM COMMENT "ExactAudioCopy v1.0b3"
PERFORMER "Arturo Benedetti Michelangeli"
TITLE "Hommage 1/15"
FILE "Arturo Benedetti Michelangeli - Hommage 1of15.flac" WAVE
TRACK 01 AUDIO
TITLE "Danseuses de Delphe"
PERFORMER "Arturo Benedetti Michelangeli"
INDEX 00 00:00:00
INDEX 01 00:00:32
TRACK 02 AUDIO
TITLE "Voiles"
PERFORMER "Arturo Benedetti Michelangeli"
INDEX 01 03:25:02
TRACK 03 AUDIO
TITLE "Le vent dans la plaine"
PERFORMER "Arturo Benedetti Michelangeli"
INDEX 01 07:55:50
TRACK 04 AUDIO
TITLE "Les sons e les parfums tournent dans l'air du soir"
PERFORMER "Arturo Benedetti Michelangeli"
INDEX 01 10:04:27
TRACK 05 AUDIO
TITLE "Les collines d'Anacapri"
PERFORMER "Arturo Benedetti Michelangeli"
INDEX 01 13:42:15
TRACK 06 AUDIO
TITLE "Des pas sur la neige"
PERFORMER "Arturo Benedetti Michelangeli"
INDEX 01 16:49:70
TRACK 07 AUDIO
TITLE "Ce qu'a vu le vent d'Ouest"
PERFORMER "Arturo Benedetti Michelangeli"
INDEX 01 21:22:65
TRACK 08 AUDIO
TITLE "La fille aux cheveux de lin"
PERFORMER "Arturo Benedetti Michelangeli"
INDEX 01 24:51:55
TRACK 09 AUDIO
TITLE "Le serenade interrompue"
PERFORMER "Arturo Benedetti Michelangeli"
INDEX 01 27:22:57
TRACK 10 AUDIO
TITLE "La cathedrale engloutie"
PERFORMER "Arturo Benedetti Michelangeli"
INDEX 01 29:56:55
TRACK 11 AUDIO
TITLE "La danse de Puck"
PERFORMER "Arturo Benedetti Michelangeli"
INDEX 01 37:01:57
TRACK 12 AUDIO
TITLE "Ministrels"
PERFORMER "Arturo Benedetti Michelangeli"
INDEX 01 39:56:72
CD2

скрытый текст

REM GENRE Classical
REM DATE 1987
REM DISCID 7E0D3F0A
REM COMMENT "ExactAudioCopy v1.0b3"
PERFORMER "Arturo Benedetti Michelangeli"
TITLE "Hommage 2/15"
FILE "Arturo Benedetti Michelangeli - Hommage 2of15.flac" WAVE
TRACK 01 AUDIO
TITLE "Sonata No. 3 Op. 2 No. 3 Allegro con Brio"
PERFORMER "Arturo Benedetti Michelangeli"
INDEX 00 00:00:00
INDEX 01 00:00:32
TRACK 02 AUDIO
TITLE "Sonata No. 3 Op. 2 No. 3 Adagio"
PERFORMER "Arturo Benedetti Michelangeli"
INDEX 01 11:01:15
TRACK 03 AUDIO
TITLE "Sonata No. 3 Op. 2 No. 3 Scherzo-Allegro"
PERFORMER "Arturo Benedetti Michelangeli"
INDEX 01 18:01:47
TRACK 04 AUDIO
TITLE "Allegro Sonata No. 3 Op. 2 No. 3 Assai"
PERFORMER "Arturo Benedetti Michelangeli"
INDEX 01 21:23:72
TRACK 05 AUDIO
TITLE "Images I-I Reflets dans l'eau"
PERFORMER "Arturo Benedetti Michelangeli"
INDEX 01 27:20:32
TRACK 06 AUDIO
TITLE "Images I-II Hommage a Rameau"
PERFORMER "Arturo Benedetti Michelangeli"
INDEX 01 32:21:55
TRACK 07 AUDIO
TITLE "Images I-III Mouvement"
PERFORMER "Arturo Benedetti Michelangeli"
INDEX 01 39:01:10
TRACK 08 AUDIO
TITLE "Images II-I Cloches a travers les feuilles"
PERFORMER "Arturo Benedetti Michelangeli"
INDEX 01 42:48:40
TRACK 09 AUDIO
TITLE "Images II-II Et la lune descend sur le temple qui fut"
PERFORMER "Arturo Benedetti Michelangeli"
INDEX 01 47:11:20
TRACK 10 AUDIO
TITLE "Images II-III Poissons d'or"
PERFORMER "Arturo Benedetti Michelangeli"
INDEX 01 52:10:00
CD3

скрытый текст

REM GENRE Classical
REM DATE 1987
REM DISCID 9A102F0B
REM COMMENT "ExactAudioCopy v1.0b3"
PERFORMER "Arturo Benedetti Michelangeli"
TITLE "Hommage 3/15"
FILE "Arturo Benedetti Michelangeli - Hommage 3of15.flac" WAVE
TRACK 01 AUDIO
TITLE "Chopin - Andante Spianato et Grande Polonaise Brillante Op. 22"
PERFORMER "Arturo Benedetti Michelangeli"
INDEX 01 00:00:00
TRACK 02 AUDIO
TITLE "Ravel - Gaspard de la Nuit - I. Ondine"
PERFORMER "Arturo Benedetti Michelangeli"
INDEX 01 15:25:57
TRACK 03 AUDIO
TITLE "Ravel - Gaspard de la Nuit - II. Le Gibet"
PERFORMER "Arturo Benedetti Michelangeli"
INDEX 01 22:03:20
TRACK 04 AUDIO
TITLE "Ravel - Gaspard de la Nuit - III. Scarbo"
PERFORMER "Arturo Benedetti Michelangeli"
INDEX 01 28:21:00
TRACK 05 AUDIO
TITLE "Chopin - Mazurka Op. 68 No. 2 in A minor"
PERFORMER "Arturo Benedetti Michelangeli"
INDEX 01 39:09:52
TRACK 06 AUDIO
TITLE "Chopin - Mazurka Op. 30 No. 3 in D flat major"
PERFORMER "Arturo Benedetti Michelangeli"
INDEX 01 42:17:30
TRACK 07 AUDIO
TITLE "Chopin - Mazurka Op. 33 No. 4 in B minor"
PERFORMER "Arturo Benedetti Michelangeli"
INDEX 01 45:38:55
TRACK 08 AUDIO
TITLE "Chopin - Mazurka Op. 57 in D flat major"
PERFORMER "Arturo Benedetti Michelangeli"
INDEX 01 51:51:10
TRACK 09 AUDIO
TITLE "Valse Op. 34 No. 1 in A flat Major"
PERFORMER "Arturo Benedetti Michelangeli"
INDEX 01 56:06:22
TRACK 10 AUDIO
TITLE "Valse Op. 69 No. 1 in A flat major"
PERFORMER "Arturo Benedetti Michelangeli"
INDEX 01 60:23:65
TRACK 11 AUDIO
TITLE "Valse Op. Posth. in E flat major"
PERFORMER "Arturo Benedetti Michelangeli"
INDEX 01 66:05:40
CD4

скрытый текст

REM GENRE Classical
REM DATE 1988
REM DISCID 630FED07
REM COMMENT "ExactAudioCopy v1.0b3"
PERFORMER "Arturo Benedetti Michelangeli"
TITLE "Hommage 4/15"
FILE "Arturo Benedetti Michelangeli - Hommage 4of15.flac" WAVE
TRACK 01 AUDIO
TITLE "Sonata In C Major K. 11 (L. 352)"
PERFORMER "Arturo Benedetti Michelangeli"
INDEX 01 00:00:00
TRACK 02 AUDIO
TITLE "Sonata In A Major K. 322 (L. 483)"
PERFORMER "Arturo Benedetti Michelangeli"
INDEX 01 03:02:30
TRACK 03 AUDIO
TITLE "Sonata In B Minor K. 27 (L. 449)"
PERFORMER "Arturo Benedetti Michelangeli"
INDEX 01 06:34:22
TRACK 04 AUDIO
TITLE "Chaconne"
PERFORMER "Arturo Benedetti Michelangeli"
INDEX 01 09:40:25
TRACK 05 AUDIO
TITLE "Variations On A Theme By Paganini Op. 35"
PERFORMER "Arturo Benedetti Michelangeli"
INDEX 01 25:35:30
TRACK 06 AUDIO
TITLE "Chopin - Valse in A minor, Op.34, No.2"
PERFORMER "Arturo Benedetti Michelangeli"
INDEX 01 48:44:32
TRACK 07 AUDIO
TITLE "Chopin - Scherzo No.1 in B minor, Op.20"
PERFORMER "Arturo Benedetti Michelangeli"
INDEX 01 56:11:72
CD5

скрытый текст

REM GENRE Classical
REM DISCID B2118B0C
REM COMMENT "ExactAudioCopy v1.0b3"
PERFORMER "Arturo Benedetti Michelangeli"
TITLE "Hommage 5/15"
FILE "Arturo Benedetti Michelangeli - Hommage 5of15.flac" WAVE
TRACK 01 AUDIO
TITLE "Beethoven PS No.32 Op.111 Maestoso Allegro con brio e appassionato"
PERFORMER "Arturo Benedetti Michelangeli"
INDEX 01 00:00:00
TRACK 02 AUDIO
TITLE "Arietta. Adagio molto, semplice e cantabile"
PERFORMER "Arturo Benedetti Michelangeli"
INDEX 01 09:05:20
TRACK 03 AUDIO
TITLE "Chopin Mazurka Op.68 No.4"
PERFORMER "Arturo Benedetti Michelangeli"
INDEX 01 26:51:35
TRACK 04 AUDIO
TITLE "Mazurka Op.41 No.4"
PERFORMER "Arturo Benedetti Michelangeli"
INDEX 01 30:31:70
TRACK 05 AUDIO
TITLE "Mazurka Op.33 No.3"
PERFORMER "Arturo Benedetti Michelangeli"
INDEX 01 32:16:72
TRACK 06 AUDIO
TITLE "Mazurka Op.30 No.3"
PERFORMER "Arturo Benedetti Michelangeli"
INDEX 01 35:07:40
TRACK 07 AUDIO
TITLE "Mazurka Op.59 No.3"
PERFORMER "Arturo Benedetti Michelangeli"
INDEX 01 38:05:22
TRACK 08 AUDIO
TITLE "Mazurka Op.33 No.4"
PERFORMER "Arturo Benedetti Michelangeli"
INDEX 01 41:09:42
TRACK 09 AUDIO
TITLE "Ballade No.1 Op.23"
PERFORMER "Arturo Benedetti Michelangeli"
INDEX 01 46:56:62
TRACK 10 AUDIO
TITLE "Liszt PC No.1 Allegro maestoso"
PERFORMER "Arturo Benedetti Michelangeli"
INDEX 01 55:51:30
TRACK 11 AUDIO
TITLE "Quasi adagio"
PERFORMER "Arturo Benedetti Michelangeli"
INDEX 01 61:08:60
TRACK 12 AUDIO
TITLE "Allegretto vivace"
PERFORMER "Arturo Benedetti Michelangeli"
INDEX 01 65:50:17
CD6

скрытый текст

REM GENRE Classical
REM DATE 1999
REM DISCID 4D117C07
REM COMMENT "ExactAudioCopy v1.0b3"
PERFORMER "Arturo Benedetti Michelangeli"
TITLE "Hommage 6/15"
FILE "Arturo Benedetti Michelangeli - Hommage 6of15.flac" WAVE
TRACK 01 AUDIO
TITLE "Schumann: Piano Concero in A minor, Op.54: 1. Allegro affettuoso"
PERFORMER "Arturo Benedetti Michelangeli"
INDEX 01 00:00:00
TRACK 02 AUDIO
TITLE "Schumann: Piano Concero in A minor, Op.54: 2. Intermezzo. Andantino grazioso"
PERFORMER "Arturo Benedetti Michelangeli"
INDEX 01 13:48:55
TRACK 03 AUDIO
TITLE "Schumann: Piano Concero in A minor, Op.54: 3. Allegro vivace"
PERFORMER "Arturo Benedetti Michelangeli"
INDEX 01 18:59:05
TRACK 04 AUDIO
TITLE "Franck: Variations symphoniques"
PERFORMER "Arturo Benedetti Michelangeli"
INDEX 01 28:30:00
TRACK 05 AUDIO
TITLE "Grieg: Piano Concerto in A minor, Op.16: 1. Allegro molto moderato"
PERFORMER "Arturo Benedetti Michelangeli"
INDEX 01 43:53:42
TRACK 06 AUDIO
TITLE "Grieg: Piano Concerto in A minor, Op.16: 2. Adagio"
PERFORMER "Arturo Benedetti Michelangeli"
INDEX 01 56:53:34
TRACK 07 AUDIO
TITLE "Grieg: Piano Concerto in A minor, Op.16: 3. Allegro moderato molto e marcato"
PERFORMER "Arturo Benedetti Michelangeli"
INDEX 01 64:00:07
CD7

скрытый текст

REM GENRE Classical
REM DATE 1999
REM DISCID A50C970A
REM COMMENT "ExactAudioCopy v1.0b3"
PERFORMER "Arturo Benedetti Michelangeli"
TITLE "Hommage 7/15"
FILE "Arturo Benedetti Michelangeli - Hommage 7of15.flac" WAVE
TRACK 01 AUDIO
TITLE "Beethoven: Sonata No.3 in C major Op.2 No.3 - I. Allegro con brio"
PERFORMER "Arturo Benedetti Michelangeli"
INDEX 01 00:00:00
TRACK 02 AUDIO
TITLE "Beethoven: Sonata No.3 in C major Op.2 No.3 - II. Adagio"
PERFORMER "Arturo Benedetti Michelangeli"
INDEX 01 10:07:60
TRACK 03 AUDIO
TITLE "Beethoven: Sonata No.3 in C major Op.2 No.3 - III. Scherzo"
PERFORMER "Arturo Benedetti Michelangeli"
INDEX 01 16:35:10
TRACK 04 AUDIO
TITLE "Beethoven: Sonata No.3 in C major Op.2 No.3 - IV. Allegro assai"
PERFORMER "Arturo Benedetti Michelangeli"
INDEX 01 19:17:72
TRACK 05 AUDIO
TITLE "Chopin: Mazurka in A minor, Op.68 No.2"
PERFORMER "Arturo Benedetti Michelangeli"
INDEX 01 24:04:41
TRACK 06 AUDIO
TITLE "Chopin: Mazurka in B minor, Op.33 No.4"
PERFORMER "Arturo Benedetti Michelangeli"
INDEX 01 26:56:26
TRACK 07 AUDIO
TITLE "Chopin: Andante Spianato et Grande Polonaise Brillante, Op.22"
PERFORMER "Arturo Benedetti Michelangeli"
INDEX 01 32:36:41
TRACK 08 AUDIO
TITLE "Grieg: At the cradle, Op.68 No.5"
PERFORMER "Arturo Benedetti Michelangeli"
INDEX 01 44:45:40
TRACK 09 AUDIO
TITLE "Galuppi: Presto (from Sonata No.5 in C major)"
PERFORMER "Arturo Benedetti Michelangeli"
INDEX 01 47:35:59
TRACK 10 AUDIO
TITLE "Grieg: Melancholy, Op.47 No.5"
PERFORMER "Arturo Benedetti Michelangeli"
INDEX 01 50:12:22
CD8

скрытый текст

REM DISCID F3115010
REM COMMENT "ExactAudioCopy v1.0b3"
PERFORMER "Arturo Benedetti Michelangeli"
TITLE "Hommage 8/15"
FILE "Arturo Benedetti Michelangeli - Hommage 8of15.flac" WAVE
TRACK 01 AUDIO
TITLE "Scarlatti Sonata in c minor k.11"
PERFORMER "Arturo Benedetti Michelangeli"
INDEX 01 00:00:00
TRACK 02 AUDIO
TITLE "Scarlatti Sonata in C major k.159"
PERFORMER "Arturo Benedetti Michelangeli"
INDEX 01 03:01:61
TRACK 03 AUDIO
TITLE "Scarlatti Sonata in A major k.322"
PERFORMER "Arturo Benedetti Michelangeli"
INDEX 01 05:46:30
TRACK 04 AUDIO
TITLE "Scarlatti Sonata in d minor k.9"
PERFORMER "Arturo Benedetti Michelangeli"
INDEX 01 09:09:50
TRACK 05 AUDIO
TITLE "Scarlatti Sonata in b minor k.27"
PERFORMER "Arturo Benedetti Michelangeli"
INDEX 01 12:47:29
TRACK 06 AUDIO
TITLE "Schumann Op.26 Allegro"
PERFORMER "Arturo Benedetti Michelangeli"
INDEX 01 16:04:58
TRACK 07 AUDIO
TITLE "Schumann Op.26 Romanze"
PERFORMER "Arturo Benedetti Michelangeli"
INDEX 01 27:54:17
TRACK 08 AUDIO
TITLE "Schumann Op.26 Scherzino"
PERFORMER "Arturo Benedetti Michelangeli"
INDEX 01 30:48:40
TRACK 09 AUDIO
TITLE "Schumann Op.26 Intermezzo"
PERFORMER "Arturo Benedetti Michelangeli"
INDEX 01 33:23:58
TRACK 10 AUDIO
TITLE "Schumann Op.26 Finale"
PERFORMER "Arturo Benedetti Michelangeli"
INDEX 01 35:50:24
TRACK 11 AUDIO
TITLE "Debussy Images I - Reflets dans l'eau"
PERFORMER "Arturo Benedetti Michelangeli"
INDEX 01 41:41:31
TRACK 12 AUDIO
TITLE "Debussy Images I - Hommage a Rameau"
PERFORMER "Arturo Benedetti Michelangeli"
INDEX 01 47:03:39
TRACK 13 AUDIO
TITLE "Debussy Images I - Mouvement"
PERFORMER "Arturo Benedetti Michelangeli"
INDEX 01 54:37:37
TRACK 14 AUDIO
TITLE "Debussy Images II - Cloches a travers les feuilles"
PERFORMER "Arturo Benedetti Michelangeli"
INDEX 01 58:08:74
TRACK 15 AUDIO
TITLE "Debussy Images II - Et la lune descend..."
PERFORMER "Arturo Benedetti Michelangeli"
INDEX 01 63:07:60
TRACK 16 AUDIO
TITLE "Debussy Images II - Poissons d'or"
PERFORMER "Arturo Benedetti Michelangeli"
INDEX 01 69:16:49
CD9

скрытый текст

REM GENRE Classical
REM DISCID 570BC807
REM COMMENT "ExactAudioCopy v1.0b3"
PERFORMER "Arturo Benedetti Michelangeli"
TITLE "Hommage 9/15"
FILE "Arturo Benedetti Michelangeli - Hommage 9of15.flac" WAVE
TR
[teatrix.ru].t9713.torrent 
Торрент: Зарегистрирован [ 2015-10-23 17:11 ] · 626D9D750B47EA5D9747914E96AB246162E05C7F

Скачать .torrent

Скачать

21 KB

Статус: проверено
Скачан: 0 раз
Размер: 3.16 GB
terms.php



Быстрый ответ

Имя:

      
Для отправки сообщений необходимо включить JavaScript
Показать сообщения:    

Текущее время: 10-Дек 15:45

Часовой пояс: UTC + 3


Вы можете начинать темы
Вы можете отвечать на сообщения
Вы не можете редактировать свои сообщения
Вы не можете удалять свои сообщения
Вы не можете голосовать в опросах
Вы не можете прикреплять файлы к сообщениям
Вы можете скачивать файлы