(Piano, Concerto, Chamber) Emil Gilels in Ensembles | Эмиль Гилельс в ансамбле (Mozart, Saint-Saens, Haydn, Beethoven, Brahms, Chopin, Liszt, Кюи, Рахманинов, Николаев, Бабаев) - Я. Зак, Я. Шапиро, Я. Флиер etc - 2014, FLAC (image+.cue) lossless


Статистика раздачи [Обновить пиров]
Размер:  947 MB   |    Зарегистрирован:  1 год 1 месяц   |    Скачан:  0 раз

Полного источника не было: Никогда

Личеров:  1  [  0 KB/s  ]   Подробная статистика пиров
 
   
 
 
 

[Цитировать]

Emil Gilels in ensembles | Эмиль Гилельс в ансамбле-
-
Жанр: Piano | Piano concerto | Chamber
Страна-производитель диска: Россия
Год издания диска: 2014
Издатель (лейбл): Мелодия
Номер по каталогу: MEL CD 10 02210
Дата записи: 1946-1959
Аудиокодек: FLAC
Тип рипа: image+.cue
Битрейт аудио: lossless
Продолжительность: 68:43, 60:00, 62:54, 53:09
Источник: собственный рип
Наличие сканов в содержимом раздачи: да

Треклист и исполнители

CD1
В.А. Моцарт - Ф. Бузони
1. Увертюра к опере "Волшебная флейта" (KV 620)
2. Фантазия фа минор (KV 608)
3. Концертное дуэттино (KV459)
Вольфганг Амадей Моцарт
4. Фуга до минор (KV 426)
Камиль Сен-Санс
5. Вариации на тему Бетховена, ор.35
Вольфганг Амадей Моцарт
Концерт №10 для фортепиано с оркестром ми-бемоль мажор (KV 365/316a)
6. Allegro
7. Andante
8. Rondo. Allegro
Эмиль Гилельс, фортепиано
Яков Зак, фортепиано
Государственный симфонический оркестр СССР, дирижер - Кирилл Кондрашин-CD2
Йозеф Гайдн
Соната №1 для скрипки и фортепиано соль мажор, Hob. XV:32
1. Andante
2. Allegro
Людвиг ван Бетховен
Соната для валторны и фортепиано фа мажор, ор.17
I. Allegro moderato
II. Poco adagio quasi andante
III. Rondo. Allegro moderato
Иоганнес Брамс
6. Вариации на тему Гайдна, ор.56
Цезарь Кюи
Три пьесы для фортепиано, ор.69
7. №1 Интермеццо
8. №2 Ноктюрн
Эмиль Гилельс, фортепиано
Елизавета Гилельс, скрипка (1-2)
Яков Шапиро, валторна (3-5)
Яков Зак, фортепиано (6)
Яков Флиер, фортепиано (7-8)-CD3
Сергей Рахманинов
Сюита №2 для двух фортепиано до мажор, ор.17
1. Вступление
2. Вальс
3. Романс
4. Тарантелла
Леонид Николаев
Сюита для двух фортепиано си минор, ор.13
5. Прелюдия
6. Интермеццо
7. Мелодия
8. Фуга
Фредерик Шопен
9. Рондо для двух фортепиано до мажор, ор.73
Ференц Лист
Патетический концерт для двух фортепиано ми минор, S. 258
10. Allegro energico - Andante sostenuto - Allegro agitato assai
Эмиль Гилельс, фортепиано
Яков Зак, фортепиано-CD4
Иоганнес Брамс
Фортепианный квартет №1 соль минор, ор.25
1. Allegro
2. Intermezzo. Allegro ma non tropppo - Trio. Animato
3. Andante con moto
4. Rondo alla Zingarese. Presto
Андрей Бабаев
Трио для фортепиано, скрипки и виолончели до-диез минор
I. Allegro
II. Scherzo
III. Moderato
IV. Finale
Эмиль Гилельс, фортепиано
Дмитрий Цыганов, скрипка
Вадим Борисовский, альт
Сергей Ширинский, виолончель

Лог создания рипаCD1

Exact Audio Copy V1.0 beta 3 from 29. August 2011
EAC extraction logfile from 27. September 2014, 2:19
E. Gilels (piano), Y. Zak (piano), the USSR State Academic Symphony Orchestra, K. Kondrashin (6-8) / Emil Gilels in Ensembles CD1
Used drive : ASUS DRW-24B1ST Adapter: 0 ID: 0
Read mode : Secure
Utilize accurate stream : Yes
Defeat audio cache : Yes
Make use of C2 pointers : No
Read offset correction : 6
Overread into Lead-In and Lead-Out : No
Fill up missing offset samples with silence : Yes
Delete leading and trailing silent blocks : No
Null samples used in CRC calculations : Yes
Used interface : Native Win32 interface for Win NT & 2000
Used output format : User Defined Encoder
Selected bitrate : 128 kBit/s
Quality : High
Add ID3 tag : No
Command line compressor : C:\Program Files\Exact Audio Copy\Flac\flac.exe
Additional command line options : -V -8 -T "Date=%year%" -T "Genre=%genre%" %source%
TOC of the extracted CD
Track | Start | Length | Start sector | End sector
---------------------------------------------------------
1 | 0:00.00 | 6:18.20 | 0 | 28369
2 | 6:18.20 | 9:31.46 | 28370 | 71240
3 | 15:49.66 | 6:57.65 | 71241 | 102580
4 | 22:47.56 | 4:09.33 | 102581 | 121288
5 | 26:57.14 | 17:39.11 | 121289 | 200724
6 | 44:36.25 | 9:46.21 | 200725 | 244695
7 | 54:22.46 | 7:38.23 | 244696 | 279068
8 | 62:00.69 | 6:40.28 | 279069 | 309096
Range status and errors
Selected range
Filename F:\instrumental\Gilels in Ensembles\Emil Gilels in Ensembles CD1.wav
Peak level 100.0 %
Extraction speed 5.4 X
Range quality 100.0 %
Test CRC 5BD7C3C0
Copy CRC 5BD7C3C0
Copy OK
No errors occurred
End of status report
==== Log checksum B8A2C97CA361E097F243C5D97490C8CF59B003598D5B192451C02C073B89AEEB ====

CD2

Exact Audio Copy V1.0 beta 3 from 29. August 2011
EAC extraction logfile from 27. September 2014, 12:45
Em. Gilels (piano), El. Gilels (violin), Y. Shapiro (horn), Y. Zak (piano), Y. Flier (piano) / Emil Gilels in Ensembles CD2
Used drive : ASUS DRW-24B1ST Adapter: 0 ID: 0
Read mode : Secure
Utilize accurate stream : Yes
Defeat audio cache : Yes
Make use of C2 pointers : No
Read offset correction : 6
Overread into Lead-In and Lead-Out : No
Fill up missing offset samples with silence : Yes
Delete leading and trailing silent blocks : No
Null samples used in CRC calculations : Yes
Used interface : Native Win32 interface for Win NT & 2000
Used output format : User Defined Encoder
Selected bitrate : 128 kBit/s
Quality : High
Add ID3 tag : No
Command line compressor : C:\Program Files\Exact Audio Copy\Flac\flac.exe
Additional command line options : -V -8 -T "Date=%year%" -T "Genre=%genre%" %source%
TOC of the extracted CD
Track | Start | Length | Start sector | End sector
---------------------------------------------------------
1 | 0:00.00 | 7:31.34 | 0 | 33858
2 | 7:31.34 | 9:35.02 | 33859 | 76985
3 | 17:06.36 | 7:50.22 | 76986 | 112257
4 | 24:56.58 | 1:33.31 | 112258 | 119263
5 | 26:30.14 | 4:56.28 | 119264 | 141491
6 | 31:26.42 | 16:22.13 | 141492 | 215154
7 | 47:48.55 | 2:36.42 | 215155 | 226896
8 | 50:25.22 | 9:33.22 | 226897 | 269893
Range status and errors
Selected range
Filename F:\instrumental\Gilels in Ensembles\Emil Gilels in Ensembles CD2.wav
Peak level 99.8 %
Extraction speed 3.2 X
Range quality 99.9 %
Test CRC FBD1BAFE
Copy CRC FBD1BAFE
Copy OK
No errors occurred
End of status report
==== Log checksum 056EC68392EE96B060B2C84FDDA71F49511B36B102B9BAD7AD515B32B9F203E5 ====

CD3

Exact Audio Copy V1.0 beta 3 from 29. August 2011
EAC extraction logfile from 27. September 2014, 10:45
E. Gilels (piano), Y. Zak (piano) / Emil Gilels in Ensembles CD3
Used drive : ASUS DRW-24B1ST Adapter: 0 ID: 0
Read mode : Secure
Utilize accurate stream : Yes
Defeat audio cache : Yes
Make use of C2 pointers : No
Read offset correction : 6
Overread into Lead-In and Lead-Out : No
Fill up missing offset samples with silence : Yes
Delete leading and trailing silent blocks : No
Null samples used in CRC calculations : Yes
Used interface : Native Win32 interface for Win NT & 2000
Used output format : User Defined Encoder
Selected bitrate : 128 kBit/s
Quality : High
Add ID3 tag : No
Command line compressor : C:\Program Files\Exact Audio Copy\Flac\flac.exe
Additional command line options : -V -8 -T "Date=%year%" -T "Genre=%genre%" %source%
TOC of the extracted CD
Track | Start | Length | Start sector | End sector
---------------------------------------------------------
1 | 0:00.00 | 3:47.03 | 0 | 17027
2 | 3:47.03 | 5:26.49 | 17028 | 41526
3 | 9:13.52 | 6:12.01 | 41527 | 69427
4 | 15:25.53 | 5:45.44 | 69428 | 95346
5 | 21:11.22 | 4:18.60 | 95347 | 114756
6 | 25:30.07 | 3:37.05 | 114757 | 131036
7 | 29:07.12 | 3:22.25 | 131037 | 146211
8 | 32:29.37 | 2:24.42 | 146212 | 157053
9 | 34:54.04 | 9:16.45 | 157054 | 198798
10 | 44:10.49 | 18:41.18 | 198799 | 282891
Range status and errors
Selected range
Filename F:\instrumental\Gilels in Ensembles\Emil Gilels in Ensembles CD3.wav
Peak level 92.8 %
Extraction speed 5.4 X
Range quality 99.9 %
Test CRC 620F78E8
Copy CRC 620F78E8
Copy OK
No errors occurred
End of status report
==== Log checksum BD54B7DC3F695099440E2102F1CF42D66D8554229146E1A0760612EAC64E07B3 ====

CD4

Exact Audio Copy V1.0 beta 3 from 29. August 2011
EAC extraction logfile from 27. September 2014, 13:21
E. Gilels (piano), D. Tsyganov (violin), V. Borisovsky (viola, 1-4), S. Shirinsky (cello) / Emil Gilels in Ensembles CD4
Used drive : ASUS DRW-24B1ST Adapter: 0 ID: 0
Read mode : Secure
Utilize accurate stream : Yes
Defeat audio cache : Yes
Make use of C2 pointers : No
Read offset correction : 6
Overread into Lead-In and Lead-Out : No
Fill up missing offset samples with silence : Yes
Delete leading and trailing silent blocks : No
Null samples used in CRC calculations : Yes
Used interface : Native Win32 interface for Win NT & 2000
Used output format : User Defined Encoder
Selected bitrate : 128 kBit/s
Quality : High
Add ID3 tag : No
Command line compressor : C:\Program Files\Exact Audio Copy\Flac\flac.exe
Additional command line options : -V -8 -T "Date=%year%" -T "Genre=%genre%" %source%
TOC of the extracted CD
Track | Start | Length | Start sector | End sector
---------------------------------------------------------
1 | 0:00.00 | 10:39.45 | 0 | 47969
2 | 10:39.45 | 6:41.23 | 47970 | 78067
3 | 17:20.68 | 8:30.30 | 78068 | 116347
4 | 25:51.23 | 7:35.29 | 116348 | 150501
5 | 33:26.52 | 7:12.40 | 150502 | 182941
6 | 40:39.17 | 2:13.56 | 182942 | 192972
7 | 42:52.73 | 5:59.03 | 192973 | 219900
8 | 48:52.01 | 4:15.11 | 219901 | 239036
Range status and errors
Selected range
Filename F:\instrumental\Gilels in Ensembles\Emil Gilels in Ensembles CD4.wav
Peak level 100.0 %
Extraction speed 3.1 X
Range quality 100.0 %
Test CRC 4C488840
Copy CRC 4C488840
Copy OK
No errors occurred
End of status report
==== Log checksum 7CB8092B64FA176469FFC5A8ABDF0D1D3D861973B40BD36B4E02E34AF917C9B4 ====
Доп. информация:
Этим комплектом фирма "Мелодия" приступает к расширенному изданию фонографического наследия пианиста в преддверии столетия со дня его рождения
[teatrix.ru].t9714.torrent 
Торрент: Зарегистрирован [ 2015-10-23 17:11 ] · D664D803CC2B213EA6022FBADF153C63A795BD6F

Скачать .torrent

Скачать

20 KB

Статус: проверено
Скачан: 0 раз
Размер: 947 MB
terms.php



Быстрый ответ

Имя:

      
Для отправки сообщений необходимо включить JavaScript
Показать сообщения:    

Текущее время: 06-Дек 13:10

Часовой пояс: UTC + 3


Вы можете начинать темы
Вы можете отвечать на сообщения
Вы не можете редактировать свои сообщения
Вы не можете удалять свои сообщения
Вы не можете голосовать в опросах
Вы не можете прикреплять файлы к сообщениям
Вы можете скачивать файлы