(Orchestral) Igor Markevitch - Concerts Moscovites \\ Маркевич - Московские Концерты: Brahms - Symphonie Nr.4 | Шостакович - Симфония №1 | Глинка • Бородин • Чайковский • Wagner - 2000, FLAC (image+.cue) lossless


Статистика раздачи [Обновить пиров]
Размер:  689 MB   |    Зарегистрирован:  1 год 1 месяц   |    Скачан:  0 раз

Полного источника не было: Никогда

Личеров:  1  [  0 KB/s  ]   Подробная статистика пиров
 
   
 
 
 

[Цитировать]

Igor Markévitch
Concerts Moscovites
-
Жанр: Orchestral
Страна-производитель диска: France
Год издания диска: 2000
Издатель (лейбл): LYS
Дата записи: 1960/63/64
Аудиокодек: FLAC
Тип рипа: image+.cue
Битрейт аудио: lossless
Продолжительность: 2:30'05''
Источник: собственный рип
Наличие сканов в содержимом раздачи: да
Треклист:

CD1

J.Brahms - Symphonie Nr.4:
[1] I. Allegro non troppo
[2] II. Andante moderato
[3] III. Allegro giocoso
[4] IV. Allegro energico e passionato
D.Chostakovitch - Symphonie Nr.1:
[5] I. Allegretto. Allegro non troppo
[6] II. Allegro
[7] III. Lento
[8] IV. Allegro molto
P.Tchaïkovsky:
[9] Danse des bergers extraite de Casse-Noisette

Лог создания рипа

Exact Audio Copy V1.0 beta 3 from 29. August 2011
EAC extraction logfile from 28. September 2014, 22:05
Orchestre Symphonique d'USSR - Igor Markevitch / Igor Markevitch - Concerts Moscovites (CD1)
Used drive : TSSTcorpCDDVDW SN-208BB Adapter: 0 ID: 1
Read mode : SecureUtilize accurate stream : YesDefeat audio cache : YesMake use of C2 pointers : No
Read offset correction : 6Overread into Lead-In and Lead-Out : NoFill up missing offset samples with silence : YesDelete leading and trailing silent blocks : NoNull samples used in CRC calculations : YesUsed interface : Native Win32 interface for Win NT & 2000
Used output format : User Defined EncoderSelected bitrate : 896 kBit/sQuality : HighAdd ID3 tag : NoCommand line compressor : C:\Program Files (x86)\FLAC\flac.exeAdditional command line options : -T "COMMENT=rip by el coronel" -8 -V %source%
TOC of the extracted CD
Track | Start | Length | Start sector | End sector --------------------------------------------------------- 1 | 0:00.00 | 12:06.43 | 0 | 54492 2 | 12:06.43 | 12:06.43 | 54493 | 108985 3 | 24:13.11 | 6:05.25 | 108986 | 136385 4 | 30:18.36 | 10:27.13 | 136386 | 183423 5 | 40:45.49 | 8:13.10 | 183424 | 220408 6 | 48:58.59 | 3:57.16 | 220409 | 238199 7 | 52:56.00 | 7:55.34 | 238200 | 273858 8 | 60:51.34 | 9:32.56 | 273859 | 316814 9 | 70:24.15 | 2:43.65 | 316815 | 329104
Range status and errors
Selected range
Filename K:\Music\Markevitch - Concerts Moscovites\Igor Markevitch - Concerts Moscovites (CD1).wav
Peak level 95.4 % Extraction speed 3.4 X Range quality 99.9 % Test CRC 1B3C2A11 Copy CRC 1B3C2A11 Copy OK
No errors occurred
AccurateRip summary
Track 1 not present in databaseTrack 2 not present in databaseTrack 3 not present in databaseTrack 4 not present in databaseTrack 5 not present in databaseTrack 6 not present in databaseTrack 7 not present in databaseTrack 8 not present in databaseTrack 9 not present in database
None of the tracks are present in the AccurateRip database
End of status report
==== Log checksum 8E10BFF2A46C6CD91EA02C2A2A9A56369D18DC65E56BD62E22F61B4F94C0D4AB ====

Содержание индексной карты (.CUE)

REM GENRE ClassicalREM DATE 2000REM DISCID 7F112409REM COMMENT "ExactAudioCopy v1.0b3"PERFORMER "Orchestre Symphonique d'USSR - Igor Markevitch"TITLE "Igor Markevitch - Concerts Moscovites (CD1)"FILE "Igor Markevitch - Concerts Moscovites (CD1).flac" WAVE TRACK 01 AUDIO TITLE "J.Brahms - Symphonie Nr.4: I. Allegro non troppo" PERFORMER "Orchestre Symphonique d'USSR - Igor Markevitch" INDEX 01 00:00:00 TRACK 02 AUDIO TITLE "II. Andante moderato" PERFORMER "Orchestre Symphonique d'USSR - Igor Markevitch" INDEX 01 12:06:43 TRACK 03 AUDIO TITLE "III. Allegro giocoso" PERFORMER "Orchestre Symphonique d'USSR - Igor Markevitch" INDEX 01 24:13:11 TRACK 04 AUDIO TITLE "IV. Allegro energico e passionato" PERFORMER "Orchestre Symphonique d'USSR - Igor Markevitch" INDEX 01 30:18:36 TRACK 05 AUDIO TITLE "D.Chostakovitch - Symphonie Nr.1: I. Allegretto. Allegro non troppo" PERFORMER "Orchestre Symphonique d'USSR - Igor Markevitch" INDEX 00 40:41:04 INDEX 01 40:45:49 TRACK 06 AUDIO TITLE "II. Allegro" PERFORMER "Orchestre Symphonique d'USSR - Igor Markevitch" INDEX 01 48:58:59 TRACK 07 AUDIO TITLE "III. Lento" PERFORMER "Orchestre Symphonique d'USSR - Igor Markevitch" INDEX 01 52:56:00 TRACK 08 AUDIO TITLE "IV. Allegro molto" PERFORMER "Orchestre Symphonique d'USSR - Igor Markevitch" INDEX 01 60:51:34 TRACK 09 AUDIO TITLE "P.Tchaikovsky - Danse des bergers extraite de Casse-Noisette" PERFORMER "Orchestre Symphonique d'USSR - Igor Markevitch" INDEX 00 70:21:45 INDEX 01 70:24:15

CD2

M.Glinka:
[1] Ouverture de Rousslan et Ludmila
[2] Valse de Ivan Sussanin
A.Borodine:
[3] Danse Polovstiennes
R.Wagner:
[4] Ouverture de Tannhäuser
[5] Chevauchée des Walkyries
[6] Ouverture des Maîtres Chanteurs de Nurenberg
[7] Prelude et Mort d'Isolde
[8] Lever de soleil et Voyage sur le Rhin de Siegfried du Götterdämmerung

Лог создания рипа

Exact Audio Copy V1.0 beta 3 from 29. August 2011
EAC extraction logfile from 28. September 2014, 23:08
Orchestre Symphonique d'USSR - Igor Markevitch / Igor Markevitch - Concerts Moscovites (CD2)
Used drive : TSSTcorpCDDVDW SN-208BB Adapter: 0 ID: 1
Read mode : SecureUtilize accurate stream : YesDefeat audio cache : YesMake use of C2 pointers : No
Read offset correction : 6Overread into Lead-In and Lead-Out : NoFill up missing offset samples with silence : YesDelete leading and trailing silent blocks : NoNull samples used in CRC calculations : YesUsed interface : Native Win32 interface for Win NT & 2000
Used output format : User Defined EncoderSelected bitrate : 896 kBit/sQuality : HighAdd ID3 tag : NoCommand line compressor : C:\Program Files (x86)\FLAC\flac.exeAdditional command line options : -T "COMMENT=rip by el coronel" -8 -V %source%
TOC of the extracted CD
Track | Start | Length | Start sector | End sector --------------------------------------------------------- 1 | 0:00.00 | 5:24.63 | 0 | 24362 2 | 5:24.63 | 5:39.53 | 24363 | 49840 3 | 11:04.41 | 11:12.09 | 49841 | 100249 4 | 22:16.50 | 13:53.04 | 100250 | 162728 5 | 36:09.54 | 4:35.70 | 162729 | 183423 6 | 40:45.49 | 9:39.27 | 183424 | 226875 7 | 50:25.01 | 17:20.73 | 226876 | 304948 8 | 67:45.74 | 9:11.05 | 304949 | 346278
Range status and errors
Selected range
Filename K:\Music\Markevitch - Concerts Moscovites\Igor Markevitch - Concerts Moscovites (CD2).wav
Peak level 90.5 % Extraction speed 3.5 X Range quality 100.0 % Test CRC 431CF7BC Copy CRC 431CF7BC Copy OK
No errors occurred
AccurateRip summary
Track 1 not present in databaseTrack 2 not present in databaseTrack 3 not present in databaseTrack 4 not present in databaseTrack 5 not present in databaseTrack 6 not present in databaseTrack 7 not present in databaseTrack 8 not present in database
None of the tracks are present in the AccurateRip database
End of status report
==== Log checksum 434AA6D18B3D8D6A2B6F31A2C766D0AB3CA8FA8A9F4803FA7CF9AB364E381282 ====

Содержание индексной карты (.CUE)

REM GENRE ClassicalREM DATE 2000REM DISCID 67120908REM COMMENT "ExactAudioCopy v1.0b3"PERFORMER "Orchestre Symphonique d'USSR - Igor Markevitch"TITLE "Igor Markevitch - Concerts Moscovites (CD2)"FILE "Igor Markevitch - Concerts Moscovites (CD2).flac" WAVE TRACK 01 AUDIO TITLE "M.Glinka - Ouverture de Rousslan et Ludmila" PERFORMER "Orchestre Symphonique d'USSR - Igor Markevitch" INDEX 01 00:00:00 TRACK 02 AUDIO TITLE "Valse de Ivan Sussanin" PERFORMER "Orchestre Symphonique d'USSR - Igor Markevitch" INDEX 00 05:22:64 INDEX 01 05:24:63 TRACK 03 AUDIO TITLE "A.Borodine - Danse Polovstiennes" PERFORMER "Orchestre Symphonique d'USSR - Igor Markevitch" INDEX 00 11:01:41 INDEX 01 11:04:41 TRACK 04 AUDIO TITLE "R.Wagner - Ouverture de Tannhauser" PERFORMER "Orchestre Symphonique d'USSR - Igor Markevitch" INDEX 00 22:13:50 INDEX 01 22:16:50 TRACK 05 AUDIO TITLE "Chevauchee des Walkyries" PERFORMER "Orchestre Symphonique d'USSR - Igor Markevitch" INDEX 00 36:07:55 INDEX 01 36:09:54 TRACK 06 AUDIO TITLE "Ouverture des Maitres Chanteurs de Nurenberg" PERFORMER "Orchestre Symphonique d'USSR - Igor Markevitch" INDEX 00 40:43:49 INDEX 01 40:45:49 TRACK 07 AUDIO TITLE "Prelude et Mort d'Isolde" PERFORMER "Orchestre Symphonique d'USSR - Igor Markevitch" INDEX 00 50:23:01 INDEX 01 50:25:01 TRACK 08 AUDIO TITLE "Lever de soleil et Voyage sur le Rhin de Siegfried du Gotterdammerung" PERFORMER "Orchestre Symphonique d'USSR - Igor Markevitch" INDEX 00 67:44:00 INDEX 01 67:45:74
Исполнители:
Orchestre Symphonique d'USSR - Igor Markevitch- -
[teatrix.ru].t9715.torrent 
Торрент: Зарегистрирован [ 2015-10-23 17:11 ] · 57FA96E003C542B5DA8424EED28EF8DA5795348E

Скачать .torrent

Скачать

14 KB

Статус: проверено
Скачан: 0 раз
Размер: 689 MB
terms.php



Быстрый ответ

Имя:

      
Для отправки сообщений необходимо включить JavaScript
Показать сообщения:    

Текущее время: 03-Дек 12:40

Часовой пояс: UTC + 3


Вы можете начинать темы
Вы можете отвечать на сообщения
Вы не можете редактировать свои сообщения
Вы не можете удалять свои сообщения
Вы не можете голосовать в опросах
Вы не можете прикреплять файлы к сообщениям
Вы можете скачивать файлы