(Baroque/Chamber/Flute) Flute Concertos (box set 5CD) * Danzi * C.P.E. Bach * Hoffmeister *Quantz * Stamitz * Stalder * Pergolesi * Piccini * Boccherini * Mercadante (Adorjan, Dingfelder, Graf) - 1998, APE (image+.cue) lossless


Статистика раздачи [Обновить пиров]
Размер:  1.39 GB   |    Зарегистрирован:  1 год 2 месяца   |    Скачан:  0 раз

Полного источника не было: Никогда

Личеров:  1  [  0 KB/s  ]   Подробная статистика пиров
 
   
 
 
 

[Цитировать]

Flute Concertos * Danzi * C.P.E. Bach * Hoffmeister *Quantz * Stamitz * Stalder * Pergolesi * Piccini * Boccherini * Mercadante
Жанр: Baroque/Chamber/Flute
Страна-производитель диска: EU
Год издания диска: 1998
Издатель (лейбл): Brilliant Classics
Номер по каталогу: 99745
Дата записи: 1978-1991
Аудиокодек: APE
Тип рипа: image+.cue
Битрейт аудио: lossless
Продолжительность: 77'45+61'42+70'15+61'47+68'01
Источник: собственный рип
Наличие сканов в содержимом раздачи: да
Треклист/Исполнители:
Franz Danzi (1763-1826)
Disk: 1
Concerto No. 1 Op. 30 in G major
1. 1. Allegro
2. 2. Larghetto
3. 3. Allegro moderato
Concerto No. 2 Op. 31 in D minor
4. 1. Allegro
5. 2. Larghetto non troppo
6. 3. Polacca
Concerto No. 3 Op. 42 in D minor
7. 1. Allegro
8. 2. Andante
9. 3. Allegretto
Concerto No. 4 Op. 43 in D major
10. 1. Larghetto - Allegro
11. 2. Larghetto
12. 3. Allegretto
András Adorján, flute
Münchener Kammerorchester, Hans StadlmairFranz Benda (1709-1786)
Disk: 2
Concerto in E minor
1. 1. Allegro con brio
2. 2. Un poco andante
3. 3. Presto
Concerto in A major
4. 1. Allegretto
5. 2. Adagio
6. 3. Vivace, ma non troppo presto
Concerto in A minor
7. 1. Allegretto, ma non troppo
8. 2. Affetuoso, ma non sprito
9. 3. Vivace - Scherzando
András Adorján, flute
Ars Rediva Ensemble Prague, Milan MunclingerHoffmeister * Bach
Disk: 3
Franz Hoffmeister (1754-1812) - Concerto in D major
1. 1. Allegro
2. 2. Adagio
3. 3. Allegro
Carl Philipp Emanuel Bach (1714-1788) - Concerto in D minor Wq 22
4. 1. Allegro
5. 2. Un poco andante
6. 3. Allegro di molto
Franz Hoffmeister (1754-1812) - Concerto in C major
7. 1. Allegro
8. 2. Adagio
9. 3. Rondeau
Ingrid Dingfelder, flute
English Chamber Orchestra, Sir Charles MackerrasQuantz * Stamitz * Stalder
Disk: 4
Johann Joachim Quantz (1697-1773) - Concerto in G major
1. 1. Allegro
2. 2. Arioso - Mesto
3. 3. Presto
Carl Stamitz (1745-1801) - Concerto in G major
4. 1. Allegro
5. 2. Andante non troppo
6. 3. Rondo - Allegro
Peter Lukas Graf, flute
Zürcher Kammerorchester, Edmond de Stouts
Joseph Stalder (1725-1765) - Concerto in B flat major
7. 1. Moderato
8. 2. Larghetto
9. 3. Allegro
Peter Lukas Graf, flute
Würtenbergisches Kammerorchester, Jörg FaerberPergolesi * Piccini * Boccherini * Mercadante
Disk: 5
Giovanni Battista Pergolesi (1710-1736) - Concerto in G major
1. 1. Spiritoso
2. 2. Adadgio
3. 3. Allegro spiritoso
Niccolo Piccini (1728-1800)
4. 1. Spiritoso
5. 2. Andante maestoso
6. 3. Allegro con brio
Luigi Boccherini (1743-1805)
7. 1. Allegro
8. 2. Largo
9. 3. Allegro
Saverio Mercadante (1795-1879) - Concerto in E minor
10. 1. Allegro maestoso
11. 2. Largo
12. 3. Allegro, vivace, Scherzando
Peter Lukas Graf, flute
Orchestra da Camera di Padova e del Veneto, Bruno Giuranna

Лог создания рипа

CD1

Exact Audio Copy V1.0 beta 3 from 29. August 2011
EAC extraction logfile from 12. August 2014, 16:17
Danzi / Flute Concertos, Stadlmair CD1
Used drive : TS8XDVDSTRANSCEND Adapter: 1 ID: 0
Read mode : Secure
Utilize accurate stream : Yes
Defeat audio cache : Yes
Make use of C2 pointers : No
Read offset correction : 6
Overread into Lead-In and Lead-Out : No
Fill up missing offset samples with silence : Yes
Delete leading and trailing silent blocks : No
Null samples used in CRC calculations : Yes
Used interface : Native Win32 interface for Win NT & 2000
Used output format : Monkey's Audio Lossless Encoder
Selected bitrate : High Lossless Compression
Quality : High
Add ID3 tag : No
Command line compressor : C:\Program Files (x86)\Exact Audio Copy\MAC\MAC.exe
TOC of the extracted CD
Track | Start | Length | Start sector | End sector
---------------------------------------------------------
1 | 0:00.00 | 7:56.10 | 0 | 35709
2 | 7:56.10 | 3:16.57 | 35710 | 50466
3 | 11:12.67 | 4:35.05 | 50467 | 71096
4 | 15:47.72 | 10:01.18 | 71097 | 116189
5 | 25:49.15 | 3:12.52 | 116190 | 130641
6 | 29:01.67 | 5:58.00 | 130642 | 157491
7 | 34:59.67 | 8:59.70 | 157492 | 197986
8 | 43:59.62 | 3:01.33 | 197987 | 211594
9 | 47:01.20 | 5:09.47 | 211595 | 234816
10 | 52:10.67 | 10:53.35 | 234817 | 283826
11 | 63:04.27 | 4:36.08 | 283827 | 304534
12 | 67:40.35 | 6:13.47 | 304535 | 332556
Range status and errors
Selected range
Filename D:\EAC\Danzi - Flute Concertos, Stadlmair CD1.wav
Peak level 79.3 %
Extraction speed 3.3 X
Range quality 100.0 %
Test CRC B7CA317E
Copy CRC B7CA317E
Copy OK
No errors occurred
AccurateRip summary
Track 1 accurately ripped (confidence 7) [380AD225] (AR v2)
Track 2 accurately ripped (confidence 7) [122030E7] (AR v2)
Track 3 accurately ripped (confidence 7) [73E6CCA1] (AR v2)
Track 4 accurately ripped (confidence 7) [261EFBE3] (AR v2)
Track 5 accurately ripped (confidence 7) [97DB98B1] (AR v2)
Track 6 accurately ripped (confidence 7) [6962E270] (AR v2)
Track 7 accurately ripped (confidence 8) [3ED8E702] (AR v2)
Track 8 accurately ripped (confidence 8) [29D828AF] (AR v2)
Track 9 accurately ripped (confidence 8) [86040F6C] (AR v2)
Track 10 accurately ripped (confidence 8) [35987C55] (AR v2)
Track 11 accurately ripped (confidence 8) [B2FED7CD] (AR v2)
Track 12 accurately ripped (confidence 8) [58DAECB6] (AR v2)
All tracks accurately ripped
End of status report
---- CUETools DB Plugin V2.1.3
[CTDB TOCID: eHmr5pdUJCKPuBmQTEaicuWJffk-] found, Submit result: unrecognized or virtual drive
[25eb5019] (16/16) Accurately ripped
==== Log checksum 7BA9F52859A4A58D3E97B23BFB2604630512EFDCEC6671293F20BF3BC24E8E15 ====

CD2

Exact Audio Copy V1.0 beta 3 from 29. August 2011
EAC extraction logfile from 12. August 2014, 14:36
Benda, F. / Flute Concertos, Munclinger CD2
Used drive : TS8XDVDSTRANSCEND Adapter: 1 ID: 0
Read mode : Secure
Utilize accurate stream : Yes
Defeat audio cache : Yes
Make use of C2 pointers : No
Read offset correction : 6
Overread into Lead-In and Lead-Out : No
Fill up missing offset samples with silence : Yes
Delete leading and trailing silent blocks : No
Null samples used in CRC calculations : Yes
Used interface : Native Win32 interface for Win NT & 2000
Used output format : Monkey's Audio Lossless Encoder
Selected bitrate : High Lossless Compression
Quality : High
Add ID3 tag : No
Command line compressor : C:\Program Files (x86)\Exact Audio Copy\MAC\MAC.exe
TOC of the extracted CD
Track | Start | Length | Start sector | End sector
---------------------------------------------------------
1 | 0:00.32 | 9:01.38 | 32 | 40644
2 | 9:01.70 | 6:42.45 | 40645 | 70839
3 | 15:44.40 | 5:38.55 | 70840 | 96244
4 | 21:23.20 | 6:56.40 | 96245 | 127484
5 | 28:19.60 | 6:32.30 | 127485 | 156914
6 | 34:52.15 | 5:02.20 | 156915 | 179584
7 | 39:54.35 | 9:34.27 | 179585 | 222661
8 | 49:28.62 | 7:31.73 | 222662 | 256559
9 | 57:00.60 | 4:41.55 | 256560 | 277689
Range status and errors
Selected range
Filename D:\EAC\Benda, F. - Flute Concertos, Munclinger CD2.wav
Peak level 86.5 %
Extraction speed 1.9 X
Range quality 100.0 %
Test CRC B8898591
Copy CRC B8898591
Copy OK
No errors occurred
AccurateRip summary
Track 1 accurately ripped (confidence 9) [CFEA0BEA] (AR v2)
Track 2 accurately ripped (confidence 9) [437A18C9] (AR v2)
Track 3 accurately ripped (confidence 9) [5078E62A] (AR v2)
Track 4 accurately ripped (confidence 9) [1ED286C3] (AR v2)
Track 5 accurately ripped (confidence 9) [CC76E39D] (AR v2)
Track 6 accurately ripped (confidence 9) [4ED8BBBE] (AR v2)
Track 7 accurately ripped (confidence 8) [9D617FB1] (AR v2)
Track 8 accurately ripped (confidence 9) [35191905] (AR v2)
Track 9 accurately ripped (confidence 9) [CC98FD4E] (AR v2)
All tracks accurately ripped
End of status report
---- CUETools DB Plugin V2.1.3
[CTDB TOCID: jIiseXuchcykHLWeHbP_QdgS4NE-] found, Submit result: discs with pregaps not supported in this protocol version
[68677557] (7/7) Differs in 0 samples @
You can use CUETools to repair this rip.
==== Log checksum 1C4ACECF735779E713C99676D8365740B883793ED3DCDBC3061AFB0EFCD76800 ====

CD3

Exact Audio Copy V1.0 beta 3 from 29. August 2011
EAC extraction logfile from 12. August 2014, 14:31
Hoffmeister_C.P.E. Bach / Flute Concertos, Mackerras_Leonard CD3
Used drive : TSSTcorpCDDVDW SE-208AB Adapter: 1 ID: 1
Read mode : Secure
Utilize accurate stream : Yes
Defeat audio cache : Yes
Make use of C2 pointers : No
Read offset correction : 6
Overread into Lead-In and Lead-Out : No
Fill up missing offset samples with silence : Yes
Delete leading and trailing silent blocks : No
Null samples used in CRC calculations : Yes
Used interface : Native Win32 interface for Win NT & 2000
Used output format : Monkey's Audio Lossless Encoder
Selected bitrate : High Lossless Compression
Quality : High
Add ID3 tag : No
Command line compressor : C:\Program Files (x86)\Exact Audio Copy\MAC\MAC.exe
TOC of the extracted CD
Track | Start | Length | Start sector | End sector
---------------------------------------------------------
1 | 0:00.00 | 11:11.00 | 0 | 50324
2 | 11:11.00 | 7:56.57 | 50325 | 86081
3 | 19:07.57 | 6:36.00 | 86082 | 115781
4 | 25:43.57 | 7:59.08 | 115782 | 151714
5 | 33:42.65 | 8:08.22 | 151715 | 188336
6 | 41:51.12 | 6:42.18 | 188337 | 218504
7 | 48:33.30 | 11:23.72 | 218505 | 269801
8 | 59:57.27 | 6:01.23 | 269802 | 296899
9 | 65:58.50 | 4:14.62 | 296900 | 316011
Range status and errors
Selected range
Filename D:\EAC\Hoffmeister_C.P.E. Bach - Flute Concertos, Mackerras_Leonard CD3.wav
Peak level 82.7 %
Extraction speed 1.9 X
Range quality 100.0 %
Test CRC 5D96F3AE
Copy CRC 5D96F3AE
Copy OK
No errors occurred
AccurateRip summary
Track 1 accurately ripped (confidence 8) [C232FF43] (AR v2)
Track 2 accurately ripped (confidence 8) [A9D32DA4] (AR v2)
Track 3 accurately ripped (confidence 8) [4E1EE761] (AR v2)
Track 4 accurately ripped (confidence 8) [E0B98B89] (AR v2)
Track 5 accurately ripped (confidence 8) [1B7E22AD] (AR v2)
Track 6 accurately ripped (confidence 8) [A17325D8] (AR v2)
Track 7 accurately ripped (confidence 8) [82334096] (AR v2)
Track 8 accurately ripped (confidence 8) [5FA2B498] (AR v2)
Track 9 accurately ripped (confidence 8) [3F24974C] (AR v2)
All tracks accurately ripped
End of status report
---- CUETools DB Plugin V2.1.3
[CTDB TOCID: OczWFUtZv4GcYNZ.wKlejXTh0p0-] found, Submit result: OczWFUtZv4GcYNZ.wKlejXTh0p0- has been confirmed
[a2609811] (8/8) Accurately ripped
==== Log checksum BD48C5B276AD37437DA80BD102E8FE4ADC2E6EBEE5AE4DB37FB56218D48E721E ====

CD4

Exact Audio Copy V1.0 beta 3 from 29. August 2011
EAC extraction logfile from 12. August 2014, 15:41
Quantz_Stamit5z_Stadler / Fute Concertos, de Stoutz_Faerber CD4
Used drive : TSSTcorpCDDVDW SE-208AB Adapter: 1 ID: 1
Read mode : Secure
Utilize accurate stream : Yes
Defeat audio cache : Yes
Make use of C2 pointers : No
Read offset correction : 6
Overread into Lead-In and Lead-Out : No
Fill up missing offset samples with silence : Yes
Delete leading and trailing silent blocks : No
Null samples used in CRC calculations : Yes
Used interface : Native Win32 interface for Win NT & 2000
Used output format : Monkey's Audio Lossless Encoder
Selected bitrate : High Lossless Compression
Quality : High
Add ID3 tag : No
Command line compressor : C:\Program Files (x86)\Exact Audio Copy\MAC\MAC.exe
TOC of the extracted CD
Track | Start | Length | Start sector | End sector
---------------------------------------------------------
1 | 0:00.00 | 6:34.00 | 0 | 29549
2 | 6:34.00 | 7:00.55 | 29550 | 61104
3 | 13:34.55 | 5:43.20 | 61105 | 86849
4 | 19:18.00 | 9:06.67 | 86850 | 127866
5 | 28:24.67 | 5:49.25 | 127867 | 154066
6 | 34:14.17 | 6:10.58 | 154067 | 181874
7 | 40:25.00 | 6:46.47 | 181875 | 212371
8 | 47:11.47 | 8:58.70 | 212372 | 252791
9 | 56:10.42 | 6:00.45 | 252792 | 279836
Range status and errors
Selected range
Filename D:\EAC\Quantz_Stamit5z_Stadler - Fute Concertos, de Stoutz_Faerber CD4.wav
Peak level 89.0 %
Extraction speed 1.9 X
Range quality 100.0 %
Test CRC 36BEC370
Copy CRC 36BEC370
Copy OK
No errors occurred
AccurateRip summary
Track 1 accurately ripped (confidence 9) [2A242919] (AR v2)
Track 2 accurately ripped (confidence 9) [7935C71E] (AR v2)
Track 3 accurately ripped (confidence 9) [E100948E] (AR v2)
Track 4 accurately ripped (confidence 9) [93327020] (AR v2)
Track 5 accurately ripped (confidence 9) [4BAF1C11] (AR v2)
Track 6 accurately ripped (confidence 9) [13359466] (AR v2)
Track 7 accurately ripped (confidence 9) [F1250D67] (AR v2)
Track 8 accurately ripped (confidence 9) [63DC3C9D] (AR v2)
Track 9 accurately ripped (confidence 9) [23D3F32C] (AR v2)
All tracks accurately ripped
End of status report
---- CUETools DB Plugin V2.1.3
[CTDB TOCID: XhQSap6khLL3xUaWt5S._h686tM-] found, Submit result: XhQSap6khLL3xUaWt5S._h686tM- has been confirmed
[9601c646] (9/9) Accurately ripped
==== Log checksum DF6CB44DEA1FD3824599F2087612B04B79F87BAD2D7EF8EF30171D169AE0E239 ====

CD5

Exact Audio Copy V1.0 beta 3 from 29. August 2011
EAC extraction logfile from 12. August 2014, 15:28
Pergolesi_Piccini_Boccherini_ Mercadante / Fllute Concertos, Giuranna CD5
Used drive : TS8XDVDSTRANSCEND Adapter: 1 ID: 0
Read mode : Secure
Utilize accurate stream : Yes
Defeat audio cache : Yes
Make use of C2 pointers : No
Read offset correction : 6
Overread into Lead-In and Lead-Out : No
Fill up missing offset samples with silence : Yes
Delete leading and trailing silent blocks : No
Null samples used in CRC calculations : Yes
Used interface : Native Win32 interface for Win NT & 2000
Used output format : Monkey's Audio Lossless Encoder
Selected bitrate : High Lossless Compression
Quality : High
Add ID3 tag : No
Command line compressor : C:\Program Files (x86)\Exact Audio Copy\MAC\MAC.exe
TOC of the extracted CD
Track | Start | Length | Start sector | End sector
---------------------------------------------------------
1 | 0:00.00 | 4:24.37 | 0 | 19836
2 | 4:24.37 | 4:18.00 | 19837 | 39186
3 | 8:42.37 | 4:32.38 | 39187 | 59624
4 | 13:15.00 | 5:12.35 | 59625 | 83059
5 | 18:27.35 | 5:10.02 | 83060 | 106311
6 | 23:37.37 | 3:37.38 | 106312 | 122624
7 | 27:15.00 | 7:28.37 | 122625 | 156261
8 | 34:43.37 | 5:42.00 | 156262 | 181911
9 | 40:25.37 | 6:20.38 | 181912 | 210449
10 | 46:46.00 | 9:36.37 | 210450 | 253686
11 | 56:22.37 | 4:40.00 | 253687 | 274686
12 | 61:02.37 | 7:00.73 | 274687 | 306259
Range status and errors
Selected range
Filename D:\EAC\Pergolesi_Piccini_Boccherini_ Mercadante - Fllute Concertos, Giuranna CD5.wav
Peak level 78.5 %
Extraction speed 3.0 X
Range quality 100.0 %
Test CRC 23E574C9
Copy CRC 23E574C9
Copy OK
No errors occurred
AccurateRip summary
Track 1 accurately ripped (confidence 9) [2B3DB460] (AR v2)
Track 2 accurately ripped (confidence 9) [95C07AA8] (AR v2)
Track 3 accurately ripped (confidence 9) [59DABE7E] (AR v2)
Track 4 accurately ripped (confidence 8) [B7A7E858] (AR v2)
Track 5 accurately ripped (confidence 8) [8CCE6676] (AR v2)
Track 6 accurately ripped (confidence 8) [2ED4169E] (AR v2)
Track 7 accurately ripped (confidence 8) [F97894F8] (AR v2)
Track 8 accurately ripped (confidence 8) [88F5C6AA] (AR v2)
Track 9 accurately ripped (confidence 8) [9E8D318E] (AR v2)
Track 10 accurately ripped (confidence 8) [C0E9A6ED] (AR v2)
Track 11 accurately ripped (confidence 8) [E940677B] (AR v2)
Track 12 accurately ripped (confidence 8) [6C6CE90E] (AR v2)
All tracks accurately ripped
End of status report
---- CUETools DB Plugin V2.1.3
[CTDB TOCID: ZX7Cd2kZHZ.DUb.PfNK5ugZLVAo-] found, Submit result: unrecognized or virtual drive
[be6db660] (15/16) Accurately ripped
[968b22a1] (01/16) No match
==== Log checksum 177B013812560AE0A3662199584E243EC7F6563FA7ECD9F317174442D12F3C8D ====

Содержание индексной карты (.CUE)

CD1

REM GENRE "Chamber Music"
REM DATE 1981
REM DISCID A411520C
REM COMMENT "ExactAudioCopy v1.0b3"
PERFORMER "Danzi"
TITLE "Flute Concertos, Stadlmair CD1"
FILE "Danzi - Flute Concertos, Stadlmair CD1.ape" WAVE
TRACK 01 AUDIO
TITLE "Concerto no. 1 in G major, op. 30: I. Allegro"
PERFORMER "Franz Danzi"
INDEX 01 00:00:00
TRACK 02 AUDIO
TITLE "Concerto no. 1 in G major, op. 30: II. Larghetto"
PERFORMER "Franz Danzi"
INDEX 00 07:51:67
INDEX 01 07:56:10
TRACK 03 AUDIO
TITLE "Concerto no. 1 in G major, op. 30: III. Allegro moderato"
PERFORMER "Franz Danzi"
INDEX 01 11:12:67
TRACK 04 AUDIO
TITLE "Concerto no. 2 in D minor, op. 31: I. Allegro"
PERFORMER "Franz Danzi"
INDEX 00 15:44:17
INDEX 01 15:47:72
TRACK 05 AUDIO
TITLE "Concerto no. 2 in D minor, op. 31: II. Larghetto non troppo"
PERFORMER "Franz Danzi"
INDEX 00 25:46:07
INDEX 01 25:49:15
TRACK 06 AUDIO
TITLE "Concerto no. 2 in D minor, op. 31: III. Polacca"
PERFORMER "Franz Danzi"
INDEX 00 28:59:37
INDEX 01 29:01:67
TRACK 07 AUDIO
TITLE "Concerto no. 3 in D minor, op. 42: I. Allegro"
PERFORMER "Franz Danzi"
INDEX 00 34:54:45
INDEX 01 34:59:67
TRACK 08 AUDIO
TITLE "Concerto no. 3 in D minor, op. 42: II. Andante"
PERFORMER "Franz Danzi"
INDEX 00 43:57:30
INDEX 01 43:59:62
TRACK 09 AUDIO
TITLE "Concerto no. 3 in D minor, op. 42: III. Allegretto"
PERFORMER "Franz Danzi"
INDEX 00 46:59:52
INDEX 01 47:01:20
TRACK 10 AUDIO
TITLE "Concerto no. 4 in D major, op. 43: I. Larghetto - Allegro"
PERFORMER "Franz Danzi"
INDEX 00 52:06:50
INDEX 01 52:10:67
TRACK 11 AUDIO
TITLE "Concerto no. 4 in D major, op. 43: II. Larghetto"
PERFORMER "Franz Danzi"
INDEX 00 63:01:02
INDEX 01 63:04:27
TRACK 12 AUDIO
TITLE "Concerto no. 4 in D major, op. 43: III. Allegretto"
PERFORMER "Franz Danzi"
INDEX 00 67:38:72
INDEX 01 67:40:35

CD2

REM GENRE "Chamber Music"
REM DATE 1984
REM DISCID 7A0E7609
REM COMMENT "ExactAudioCopy v1.0b3"
PERFORMER "Benda, F."
TITLE "Flute Concertos, Munclinger CD2"
FILE "Benda, F. - Flute Concertos, Munclinger CD2.ape" WAVE
TRACK 01 AUDIO
TITLE "Flötenkonzert, e-moll, Allegro con brio"
PERFORMER "Benda, F."
FLAGS PRE
INDEX 00 00:00:00
INDEX 01 00:00:32
TRACK 02 AUDIO
TITLE "Flötenkonzert, e-moll, Un poco andante"
PERFORMER "Benda, F."
FLAGS PRE
INDEX 00 08:59:15
INDEX 01 09:01:70
TRACK 03 AUDIO
TITLE "Flötenkonzert, e-moll, Presto"
PERFORMER "Benda, F."
FLAGS PRE
INDEX 00 15:42:22
INDEX 01 15:44:40
TRACK 04 AUDIO
TITLE "Flötenkonzert, A-Dur,Allegretto"
PERFORMER "Benda, F."
FLAGS PRE
INDEX 00 21:16:12
INDEX 01 21:23:20
TRACK 05 AUDIO
TITLE "Flötenkonzert, A-Dur, Adagio"
PERFORMER "Benda, F."
FLAGS PRE
INDEX 00 28:17:18
INDEX 01 28:19:60
TRACK 06 AUDIO
TITLE "Flötenkonzert, A-Dur, Vivace, ma non troppo"
PERFORMER "Benda, F."
FLAGS PRE
INDEX 00 34:50:22
INDEX 01 34:52:15
TRACK 07 AUDIO
TITLE "Flötenkonzert, a-moll, Allegretto, ma non troppo"
PERFORMER "Benda, F."
FLAGS PRE
INDEX 00 39:49:62
INDEX 01 39:54:35
TRACK 08 AUDIO
TITLE "Flötenkonzert, a-moll, Affetuoso, ma non spirito"
PERFORMER "Benda, F."
FLAGS PRE
INDEX 00 49:25:70
INDEX 01 49:28:62
TRACK 09 AUDIO
TITLE "Flötenkonzert, a-moll, Vivace, scherzando"
PERFORMER "Benda, F."
FLAGS PRE
INDEX 00 56:58:37
INDEX 01 57:00:60

CD3

REM GENRE "Chamber Music"
REM DATE 1979
REM DISCID 80107509
REM COMMENT "ExactAudioCopy v1.0b3"
PERFORMER "Hoffmeister_C.P.E. Bach"
TITLE "Flute Concertos, Mackerras_Leonard CD3"
FILE "Hoffmeister_C.P.E. Bach - Flute Concertos, Mackerras_Leonard CD3.ape" WAVE
TRACK 01 AUDIO
TITLE "Flute Concerto D major Allegro"
PERFORMER "Franz Anton Hoffmeister"
INDEX 01 00:00:00
TRACK 02 AUDIO
TITLE "Flute Concerto D major Adagio"
PERFORMER "Franz Anton Hoffmeister"
INDEX 00 11:09:22
INDEX 01 11:11:00
TRACK 03 AUDIO
TITLE "Flute Concerto D major Allegro"
PERFORMER "Franz Anton Hoffmeister"
INDEX 00 19:06:35
INDEX 01 19:07:57
TRACK 04 AUDIO
TITLE "Flute Concerto D minor Allegro"
PERFORMER "Carl Philipp Emanuel Bach"
INDEX 00 25:37:30
INDEX 01 25:43:57
TRACK 05 AUDIO
TITLE "Flute Concerto D minor Un poco andante"
PERFORMER "Carl Philipp Emanuel Bach"
INDEX 00 33:41:32
INDEX 01 33:42:65
TRACK 06 AUDIO
TITLE "Flute Concerto D minor Allegro di molto"
PERFORMER "Carl Philipp Emanuel Bach"
INDEX 00 41:50:07
INDEX 01 41:51:12
TRACK 07 AUDIO
TITLE "Flute Concerto C major Allegro"
PERFORMER "Franz Anton Hoffmeister"
INDEX 00 48:26:30
INDEX 01 48:33:30
TRACK 08 AUDIO
TITLE "Flute Concerto C major Adagio"
PERFORMER "Franz Anton Hoffmeister"
INDEX 00 59:54:00
INDEX 01 59:57:27
TRACK 09 AUDIO
TITLE "Flute Concerto C major Rondeau"
PERFORMER "Franz Anton Hoffmeister"
INDEX 00 65:54:57
INDEX 01 65:58:50

CD4

REM GENRE "Chamber Music"
REM DATE 1978
REM DISCID 740E9309
REM COMMENT "ExactAudioCopy v1.0b3"
PERFORMER "Quantz_Stamit5z_Stadler"
TITLE "Fute Concertos, de Stoutz_Faerber CD4"
FILE "Quantz_Stamit5z_Stadler - Fute Concertos, de Stoutz_Faerber CD4.ape" WAVE
TRACK 01 AUDIO
TITLE "Quantz, Flute Concerto in G Major, Allegro"
PERFORMER "Quantz_Stamit5z_Stadler"
INDEX 01 00:00:00
TRACK 02 AUDIO
TITLE "Quantz, Flute Concerto in G Major, Arioso (Mesto)"
PERFORMER "Quantz_Stamit5z_Stadler"
INDEX 01 06:34:00
TRACK 03 AUDIO
TITLE "Quantz, Flute Concerto in G Major, Presto"
PERFORMER "Quantz_Stamit5z_Stadler"
INDEX 01 13:34:55
TRACK 04 AUDIO
TITLE "Stamitz, Flute Concerto in G Major, Allegro"
PERFORMER "Quantz_Stamit5z_Stadler"
INDEX 00 19:11:37
INDEX 01 19:18:00
TRACK 05 AUDIO
TITLE "Stamitz, Flute Concerto in G Major, Andante non troppo"
PERFORMER "Quantz_Stamit5z_Stadler"
INDEX 01 28:24:67
TRACK 06 AUDIO
TITLE "Stamitz, Flute Concerto in G Major, Rondo, allegro"
PERFORMER "Quantz_Stamit5z_Stadler"
INDEX 01 34:14:17
TRACK 07 AUDIO
TITLE "Stalder, Flute Concerto in B flat Major, Moderato"
PERFORMER "Quantz_Stamit5z_Stadler"
INDEX 00 40:18:20
INDEX 01 40:25:00
TRACK 08 AUDIO
TITLE "Stalder, Flute Concerto in B flat Major, Larghetto"
PERFORMER "Quantz_Stamit5z_Stadler"
INDEX 00 47:09:27
INDEX 01 47:11:47
TRACK 09 AUDIO
TITLE "Stalder, Flute Concerto in B Flat Major, Allegro"
PERFORMER "Quantz_Stamit5z_Stadler"
INDEX 01 56:10:42

CD5

REM GENRE "Chamber Music"
REM DATE 1991
REM DISCID B20FF30C
REM COMMENT "ExactAudioCopy v1.0b3"
PERFORMER "Pergolesi_Piccini_Boccherini_ Mercadante"
TITLE "Fllute Concertos, Giuranna CD5"
FILE "Pergolesi_Piccini_Boccherini_ Mercadante - Fllute Concertos, Giuranna CD5.ape" WAVE
TRACK 01 AUDIO
TITLE "Allegro Moderato"
PERFORMER "Pergolesi_Piccini_Boccherini_ Mercadante"
INDEX 01 00:00:00
TRACK 02 AUDIO
TITLE "Adagio"
PERFORMER "Pergolesi_Piccini_Boccherini_ Mercadante"
INDEX 01 04:24:37
TRACK 03 AUDIO
TITLE "Allegro Spiritoso"
PERFORMER "Pergolesi_Piccini_Boccherini_ Mercadante"
INDEX 00 08:40:70
INDEX 01 08:42:37
TRACK 04 AUDIO
TITLE "Spiritoso"
PERFORMER "Pergolesi_Piccini_Boccherini_ Mercadante"
INDEX 00 13:07:12
INDEX 01 13:15:00
TRACK 05 AUDIO
TITLE "Andante Maestoso"
PERFORMER "Pergolesi_Piccini_Boccherini_ Mercadante"
INDEX 00 18:25:57
INDEX 01 18:27:35
TRACK 06 AUDIO
TITLE "Allegro Con Brio"
PERFORMER "Pergolesi_Piccini_Boccherini_ Mercadante"
INDEX 00 23:36:17
INDEX 01 23:37:37
TRACK 07 AUDIO
TITLE "Allegro"
PERFORMER "Pergolesi_Piccini_Boccherini_ Mercadante"
INDEX 00 27:08:10
INDEX 01 27:15:00
TRACK 08 AUDIO
TITLE "Largo"
PERFORMER "Pergolesi_Piccini_Boccherini_ Mercadante"
INDEX 00 34:41:57
INDEX 01 34:43:37
TRACK 09 AUDIO
TITLE "Allegro"
PERFORMER "Pergolesi_Piccini_Boccherini_ Mercadante"
INDEX 00 40:24:37
INDEX 01 40:25:37
TRACK 10 AUDIO
TITLE "Allegro Maestoso"
PERFORMER "Pergolesi_Piccini_Boccherini_ Mercadante"
INDEX 00 46:39:00
INDEX 01 46:46:00
TRACK 11 AUDIO
TITLE "Largo"
PERFORMER "Pergolesi_Piccini_Boccherini_ Mercadante"
INDEX 00 56:19:60
INDEX 01 56:22:37
TRACK 12 AUDIO
TITLE "Allegro Vivace, Scherzando"
PERFORMER "Pergolesi_Piccini_Boccherini_ Mercadante"
INDEX 00 61:01:37
INDEX 01 61:02:37
[teatrix.ru].t9716.torrent 
Торрент: Зарегистрирован [ 2015-10-23 17:11 ] · 7C7A99099CD0DD17DCF494BCC51F9A3BEAB614BD

Скачать .torrent

Скачать

16 KB

Статус: проверено
Скачан: 0 раз
Размер: 1.39 GB
terms.php



Быстрый ответ

Имя:

      
Для отправки сообщений необходимо включить JavaScript
Показать сообщения:    

Текущее время: 18-Янв 00:24

Часовой пояс: UTC + 3


Вы можете начинать темы
Вы можете отвечать на сообщения
Вы не можете редактировать свои сообщения
Вы не можете удалять свои сообщения
Вы не можете голосовать в опросах
Вы не можете прикреплять файлы к сообщениям
Вы можете скачивать файлы