(Classical) Lang Lang — It's Me (The Piano Concertos) (Beethoven, Чайковский, Chopin, Рахманинов, Mendelssohn) — 2003 — 2008, APE (image+.cue) lossless


Статистика раздачи [Обновить пиров]
Размер:  978 MB   |    Зарегистрирован:  1 год 1 месяц   |    Скачан:  1 раз

Полного источника не было: 7 месяцев 29 дней

Личеров:  1  [  0 KB/s  ]   Подробная статистика пиров
 
   
 
 
 

[Цитировать]

It's Me- Жанр: Classical
Страна-производитель дисков: Германия
Годы издания дисков: 2003 – 2008
Издатель (лейбл): Deutsche Grammophon
Номер по каталогу: 497 1500 GB4
CATALOG: 028947915003
Исполнитель: Lang Lang
Аудио кодек: ape
Тип рипа: image+.cue
Битрейт аудио: lossless
Продолжительность: 04h27'36"
Источник: собственный рип
Наличие сканов в содержимом раздачи: да (JPG, PDF)-

Треклист

CD1 – 00h59'21"
Pyotr Tchaikovsky. Piano Concerto № 1 b-moll / in B-flat minor, Op 23
01. I. Allegro non troppo e molto maestoso – Allegro con spirito [00h23'01"]
02. II. Andantino semplice – Prestissimo – Tempo I [00h08'13"]
03. III. Allegro con fuoco [00h07'17"]
Felix Mendelssohn. Piano Concerto № 1 g-moll / in G minor, Op 25
04. I. Molto allegro con fuoco [00h07'31"]
05. II. Andante [00h06'32"]
06. III. Presto – Molto allegro e vivace [00h06'46"]
Chicago Symphony Orchestra, cond. Daniel Barenboim, Piano – Lang Lang
-

EAC log

Exact Audio Copy V0.99 prebeta 5 from 4. May 2009
Отчёт EAC об извлечении, выполненном 15. августа 2014, 21:31
Lang Lang / Piano Concertos № 1
Дисковод: PIONEER DVD-RW  DVR-111D   Adapter: 0  ID: 1
Режим чтения                 : Достоверность
Использование точного потока : Да
Отключение кэша аудио        : Да
Использование указателей C2  : Нет
Коррекция смещения при чтении                     : 48
Способность читать области Lead-in и Lead-out     : Нет
Заполнение пропущенных сэмплов тишиной            : Да
Удаление блоков с тишиной в начале и конце        : Нет
При вычислениях CRC использовались нулевые сэмплы : Да
Интерфейс                                         : Установленный внешний ASPI-интерфейс
Выходной формат          : Monkey's Audio (без потерь)
Выбранный битрейт        : Normal Lossless Compression
Качество                 : Высокий
Добавление ID3-тэга      : Нет
Утилита сжатия           : C:\Program Files\Monkey's Audio\MAC.exe
TOC извлечённого CD
     Трек |   Старт  | Длительность | Начальный сектор | Конечный сектор
    ---------------------------------------------------------------------
       1  |  0:00.00 |   23:01.30   |           0      |     103604
       2  | 23:01.30 |    8:13.05   |      103605      |     140584
       3  | 31:14.35 |    7:16.40   |      140585      |     173324
       4  | 38:31.00 |    7:31.20   |      173325      |     207169
       5  | 46:02.20 |    6:32.25   |      207170      |     236594
       6  | 52:34.45 |    6:46.30   |      236595      |     267074
Характеристики диапазона извлечения и сообщения об ошибках
Выбранный диапазон
     Имя файла D:\Музыка lossless\Lang Lang It's Me\CD1 Mendelssohn, Tschaikowsky Piano Concertos № 1\Lang Lang - Piano Concertos № 1.wav
     Пиковый уровень 99.1 %
     Качество диапазона 100.0 %
     CRC теста 5DB3A8CF
     CRC копии 5DB3A8CF
     Копирование... OK
Ошибок не произошло
AccurateRip: сводка
Трек  1  точное извлечение (доверие 91)  [57F29244]
Трек  2  точное извлечение (доверие 95)  [9B0D71B5]
Трек  3  точное извлечение (доверие 95)  [14FCF3B2]
Трек  4  точное извлечение (доверие 94)  [67D6654F]
Трек  5  точное извлечение (доверие 90)  [65846831]
Трек  6  точное извлечение (доверие 94)  [58C3AF1F]
Все треки извлечены точно
Конец отчёта

-

CUE

REM GENRE Classical
REM DATE 2003
REM DISCID 520DE906
REM COMMENT "ExactAudioCopy v0.99pb5"
PERFORMER "Lang Lang"
TITLE "Piano Concertos № 1"
FILE "Lang Lang - Piano Concertos № 1.ape" WAVE
  TRACK 01 AUDIO
    TITLE "Piano Concerto № 1 Op 23 b-moll - I. Allegro non troppo e molto maestoso - Allegro con spirito"
    PERFORMER "Lang Lang"
    INDEX 01 00:00:00
  TRACK 02 AUDIO
    TITLE "Piano Concerto № 1 Op 23 b-moll - II. Andantino semplice - Prestissimo - Tempo I"
    PERFORMER "Lang Lang"
    INDEX 01 23:01:30
  TRACK 03 AUDIO
    TITLE "Piano Concerto № 1 Op 23 b-moll - II. Allegro con fuoco"
    PERFORMER "Lang Lang"
    INDEX 01 31:14:35
  TRACK 04 AUDIO
    TITLE "Piano Concerto № 1 Op 25 g-moll - I. Molto allegro con fuoco"
    PERFORMER "Lang Lang"
    INDEX 00 38:25:00
    INDEX 01 38:31:00
  TRACK 05 AUDIO
    TITLE "Piano Concerto № 1 Op 25 g-moll - II. Andante"
    PERFORMER "Lang Lang"
    INDEX 01 46:02:20
  TRACK 06 AUDIO
    TITLE "Piano Concerto № 1 Op 25 g-moll - III. Presto - Molto allegro e vivace"
    PERFORMER "Lang Lang"
    INDEX 01 52:34:45
-CD2 – 01h00'32"
Sergei Rachmaninov. Piano Concerto № 2 c-moll / in C minor, Op 18
01. I. Moderato – Piu vivo – Allegro – Maestoso (Alla marcia) – Moderato [00h11'45"]
02. II. Adagio sostenuto [00h12'27"]
03. III. Allegro scherzando – Moderato – Allegro scherzando – Presto – Moderato – Allegro scherzando – Alla breve – Presto – Maestoso – Risoluto [00h12'21"]
Orchestra of the Mariinsky Theatre, cond. Valery Gergiev, Piano – Lang Lang
04. – 29. Paganini Rhapsody, Op 43 [00h24'00"]
Piano – Lang Lang
-

EAC log

Exact Audio Copy V0.99 prebeta 5 from 4. May 2009
Отчёт EAC об извлечении, выполненном 15. августа 2014, 22:55
Lang Lang / Piano Concerto № 2; Paganini Rhapsody
Дисковод: PIONEER DVD-RW  DVR-111D   Adapter: 1  ID: 0
Режим чтения                 : Достоверность
Использование точного потока : Да
Отключение кэша аудио        : Да
Использование указателей C2  : Нет
Коррекция смещения при чтении                     : 48
Способность читать области Lead-in и Lead-out     : Нет
Заполнение пропущенных сэмплов тишиной            : Да
Удаление блоков с тишиной в начале и конце        : Нет
При вычислениях CRC использовались нулевые сэмплы : Да
Интерфейс                                         : Установленный внешний ASPI-интерфейс
Выходной формат          : Monkey's Audio (без потерь)
Выбранный битрейт        : Normal Lossless Compression
Качество                 : Высокий
Добавление ID3-тэга      : Нет
Утилита сжатия           : C:\Program Files\Monkey's Audio\MAC.exe
TOC извлечённого CD
     Трек |   Старт  | Длительность | Начальный сектор | Конечный сектор
    ---------------------------------------------------------------------
       1  |  0:00.00 |   11:44.53   |           0      |      52852
       2  | 11:44.53 |   12:27.18   |       52853      |     108895
       3  | 24:11.71 |   12:20.53   |      108896      |     164448
       4  | 36:32.49 |    0:08.43   |      164449      |     165091
       5  | 36:41.17 |    0:20.50   |      165092      |     166641
       6  | 37:01.67 |    0:20.40   |      166642      |     168181
       7  | 37:22.32 |    0:20.27   |      168182      |     169708
       8  | 37:42.59 |    0:26.16   |      169709      |     171674
       9  | 38:09.00 |    0:29.27   |      171675      |     173876
      10  | 38:38.27 |    0:30.01   |      173877      |     176127
      11  | 39:08.28 |    1:07.38   |      176128      |     181190
      12  | 40:15.66 |    1:12.41   |      181191      |     186631
      13  | 41:28.32 |    0:35.12   |      186632      |     189268
      14  | 42:03.44 |    0:32.10   |      189269      |     191678
      15  | 42:35.54 |    0:56.71   |      191679      |     195949
      16  | 43:32.50 |    1:44.25   |      195950      |     203774
      17  | 45:17.00 |    1:13.53   |      203775      |     209302
      18  | 46:30.53 |    0:28.69   |      209303      |     211471
      19  | 46:59.47 |    0:43.30   |      211472      |     214726
      20  | 47:43.02 |    1:10.72   |      214727      |     220048
      21  | 48:53.74 |    1:30.42   |      220049      |     226840
      22  | 50:24.41 |    1:58.03   |      226841      |     235693
      23  | 52:22.44 |    2:48.43   |      235694      |     248336
      24  | 55:11.12 |    0:26.16   |      248337      |     250302
      25  | 55:37.28 |    0:35.37   |      250303      |     252964
      26  | 56:12.65 |    0:25.40   |      252965      |     254879
      27  | 56:38.30 |    1:39.35   |      254880      |     262339
      28  | 58:17.65 |    0:51.63   |      262340      |     266227
      29  | 59:09.53 |    1:22.42   |      266228      |     272419
Характеристики диапазона извлечения и сообщения об ошибках
Выбранный диапазон
     Имя файла D:\Музыка lossless\Lang Lang It's Me\CD2 Rachmaninov Piano Concerto № 2; Paganini Rhapsody\Lang Lang - Piano Concerto № 2; Paganini Rhapsody.wav
     Пиковый уровень 98.4 %
     Качество диапазона 100.0 %
     CRC теста 225090C3
     CRC копии 225090C3
     Копирование... OK
Ошибок не произошло
AccurateRip: сводка
Трек  1  точное извлечение (доверие 70)  [5B117D05]
Трек  2  точное извлечение (доверие 70)  [592F919C]
Трек  3  точное извлечение (доверие 69)  [B8EF1EB4]
Трек  4  точное извлечение (доверие 71)  [470DEBD1]
Трек  5  точное извлечение (доверие 71)  [173C4544]
Трек  6  точное извлечение (доверие 71)  [094A318B]
Трек  7  точное извлечение (доверие 71)  [79369D7A]
Трек  8  точное извлечение (доверие 71)  [C89F4490]
Трек  9  точное извлечение (доверие 71)  [EB1035A0]
Трек 10  точное извлечение (доверие 71)  [F69A7E40]
Трек 11  точное извлечение (доверие 71)  [150210F8]
Трек 12  точное извлечение (доверие 71)  [39D135F6]
Трек 13  точное извлечение (доверие 71)  [4D1E823D]
Трек 14  точное извлечение (доверие 71)  [2827669A]
Трек 15  точное извлечение (доверие 71)  [A62C2B42]
Трек 16  точное извлечение (доверие 71)  [EC813D90]
Трек 17  точное извлечение (доверие 71)  [9019226C]
Трек 18  точное извлечение (доверие 71)  [11AE808E]
Трек 19  точное извлечение (доверие 70)  [B277FD2E]
Трек 20  точное извлечение (доверие 71)  [21C19AFB]
Трек 21  точное извлечение (доверие 71)  [DF3212F7]
Трек 22  точное извлечение (доверие 71)  [08F110A7]
Трек 23  точное извлечение (доверие 71)  [77365FB3]
Трек 24  точное извлечение (доверие 71)  [221F2488]
Трек 25  точное извлечение (доверие 71)  [37017100]
Трек 26  точное извлечение (доверие 70)  [0D6A0EC0]
Трек 27  точное извлечение (доверие 71)  [F63C04F8]
Трек 28  точное извлечение (доверие 71)  [614545A1]
Трек 29  точное извлечение (доверие 64)  [68356789]
Все треки извлечены точно
Конец отчёта

-

CUE

REM GENRE Classical
REM DATE 2004
REM DISCID 8F0E301D
REM COMMENT "ExactAudioCopy v0.99pb5"
PERFORMER "Lang Lang"
TITLE "Piano Concerto № 2; Paganini Rhapsody"
FILE "Lang Lang - Piano Concerto № 2; Paganini Rhapsody.ape" WAVE
  TRACK 01 AUDIO
    TITLE "Piano Concerto № 2 Op 18 с-moll - I. Moderato - Piu vivo - Allegro - Maestoso (Alla marcia) - Moderato"
    PERFORMER "Lang Lang"
    INDEX 01 00:00:00
  TRACK 02 AUDIO
    TITLE "Piano Concerto №.2 Op 18 с-moll - II. Adagio sostenuto"
    PERFORMER "Lang Lang"
    INDEX 01 11:44:53
  TRACK 03 AUDIO
    TITLE "Piano Concerto №.2 Op 18 с-moll - III. Allegro scherzando etc"
    PERFORMER "Lang Lang"
    INDEX 01 24:11:71
  TRACK 04 AUDIO
    TITLE "Paganini Rhapsody Op 43 - Introduction. Allegro vivace"
    PERFORMER "Lang Lang"
    INDEX 00 36:23:49
    INDEX 01 36:32:49
  TRACK 05 AUDIO
    TITLE "Paganini Rhapsody Op 43 - Variation I (Precedente)"
    PERFORMER "Lang Lang"
    INDEX 01 36:41:17
  TRACK 06 AUDIO
    TITLE "Paganini Rhapsody Op 43 - Tema. L'istesso tempo"
    PERFORMER "Lang Lang"
    INDEX 01 37:01:67
  TRACK 07 AUDIO
    TITLE "Paganini Rhapsody Op 43 - Variation II. L'istesso tempo"
    PERFORMER "Lang Lang"
    INDEX 01 37:22:32
  TRACK 08 AUDIO
    TITLE "Paganini Rhapsody Op 43 - Variation III. L'istesso tempo"
    PERFORMER "Lang Lang"
    INDEX 01 37:42:59
  TRACK 09 AUDIO
    TITLE "Paganini Rhapsody Op 43 - Variation IV. Piu vivo"
    PERFORMER "Lang Lang"
    INDEX 01 38:09:00
  TRACK 10 AUDIO
    TITLE "Paganini Rhapsody Op 43 - Variation V. Tempo precedente"
    PERFORMER "Lang Lang"
    INDEX 01 38:38:27
  TRACK 11 AUDIO
    TITLE "Paganini Rhapsody Op 43 - Variation VI. L'istesso tempo"
    PERFORMER "Lang Lang"
    INDEX 01 39:08:28
  TRACK 12 AUDIO
    TITLE "Paganini Rhapsody Op 43 - Variation VII. Meno mosso, a tempo moderato"
    PERFORMER "Lang Lang"
    INDEX 01 40:15:66
  TRACK 13 AUDIO
    TITLE "Paganini Rhapsody Op 43 - Variation VIII. Tempo I"
    PERFORMER "Lang Lang"
    INDEX 01 41:28:32
  TRACK 14 AUDIO
    TITLE "Paganini Rhapsody Op 43 - Variation IX. L'istesso tempo"
    PERFORMER "Lang Lang"
    INDEX 01 42:03:44
  TRACK 15 AUDIO
    TITLE "Paganini Rhapsody Op 43 - Variation X"
    PERFORMER "Lang Lang"
    INDEX 01 42:35:54
  TRACK 16 AUDIO
    TITLE "Paganini Rhapsody Op 43 - Variation XI. Moderato"
    PERFORMER "Lang Lang"
    INDEX 01 43:32:50
  TRACK 17 AUDIO
    TITLE "Paganini Rhapsody Op 43 - Variation XII. Tempo di Minuetto"
    PERFORMER "Lang Lang"
    INDEX 01 45:17:00
  TRACK 18 AUDIO
    TITLE "Paganini Rhapsody Op 43 - Variation XIII. Allegro"
    PERFORMER "Lang Lang"
    INDEX 01 46:30:53
  TRACK 19 AUDIO
    TITLE "Paganini Rhapsody Op 43 - Variation XIV. L'istesso tempo"
    PERFORMER "Lang Lang"
    INDEX 01 46:59:47
  TRACK 20 AUDIO
    TITLE "Paganini Rhapsody Op 43 - Variation XV. Piu vivo. Scherzando"
    PERFORMER "Lang Lang"
    INDEX 01 47:43:02
  TRACK 21 AUDIO
    TITLE "Paganini Rhapsody Op 43 - Variation XVI. Allegretto"
    PERFORMER "Lang Lang"
    INDEX 01 48:53:74
  TRACK 22 AUDIO
    TITLE "Paganini Rhapsody Op 43 - Variation XVII"
    PERFORMER "Lang Lang"
    INDEX 01 50:24:41
  TRACK 23 AUDIO
    TITLE "Paganini Rhapsody Op 43 - Variation XVIII. Andante cantabile"
    PERFORMER "Lang Lang"
    INDEX 01 52:22:44
  TRACK 24 AUDIO
    TITLE "Paganini Rhapsody Op 43 - Variation XIX. L'istesso tempo"
    PERFORMER "Lang Lang"
    INDEX 01 55:11:12
  TRACK 25 AUDIO
    TITLE "Paganini Rhapsody Op 43 - Variation XX. Un poco piu vivo"
    PERFORMER "Lang Lang"
    INDEX 01 55:37:28
  TRACK 26 AUDIO
    TITLE "Paganini Rhapsody Op 43 - Variation XXI. Un poco piu vivo"
    PERFORMER "Lang Lang"
    INDEX 01 56:12:65
  TRACK 27 AUDIO
    TITLE "Paganini Rhapsody Op 43 - Variation XXII. Un poco piu vivo (alla breve)"
    PERFORMER "Lang Lang"
    INDEX 01 56:38:30
  TRACK 28 AUDIO
    TITLE "Paganini Rhapsody Op 43 - Variation XXIII. L'istesso tempo"
    PERFORMER "Lang Lang"
    INDEX 01 58:17:65
  TRACK 29 AUDIO
    TITLE "Paganini Rhapsody Op 43 - Variation XXIV. A tempo un poco meno mosso"
    PERFORMER "Lang Lang"
    INDEX 01 59:09:53
-CD3 – 01h14'30"
Ludwig van Beethoven. Piano Concerto № 1 C-Dur / in C Major, Op 15
01. I. Allegro con brio [00h18'18"]
02. II. Largo [00h11'26"]
03. III. Rondo (Allegro scherzando) [00h09'28"]
Ludwig van Beethoven. Piano Concerto № 4 G-Dur / in G Major, Op 58
04. I. Allegro moderato [00h19'12"]
05. II. Andante con moto [00h05'45"]
06. III. Rondo (Vivace) [00h10'20"]
Orchestrу de Paris, cond. Christoph Eschenbach, Piano – Lang Lang
-

EAC log

Exact Audio Copy V0.99 prebeta 5 from 4. May 2009
Отчёт EAC об извлечении, выполненном 15. августа 2014, 23:22
Lang Lang / Piano Concertos № 1, 4
Дисковод: PIONEER DVD-RW  DVR-111D   Adapter: 1  ID: 0
Режим чтения                 : Достоверность
Использование точного потока : Да
Отключение кэша аудио        : Да
Использование указателей C2  : Нет
Коррекция смещения при чтении                     : 48
Способность читать области Lead-in и Lead-out     : Нет
Заполнение пропущенных сэмплов тишиной            : Да
Удаление блоков с тишиной в начале и конце        : Нет
При вычислениях CRC использовались нулевые сэмплы : Да
Интерфейс                                         : Установленный внешний ASPI-интерфейс
Выходной формат          : Monkey's Audio (без потерь)
Выбранный битрейт        : Normal Lossless Compression
Качество                 : Высокий
Добавление ID3-тэга      : Нет
Утилита сжатия           : C:\Program Files\Monkey's Audio\MAC.exe
TOC извлечённого CD
     Трек |   Старт  | Длительность | Начальный сектор | Конечный сектор
    ---------------------------------------------------------------------
       1  |  0:00.00 |   18:18.02   |           0      |      82351
       2  | 18:18.02 |   11:26.07   |       82352      |     133808
       3  | 29:44.09 |    9:28.24   |      133809      |     176432
       4  | 39:12.33 |   19:12.15   |      176433      |     262847
       5  | 58:24.48 |    5:45.10   |      262848      |     288732
       6  | 64:09.58 |   10:19.61   |      288733      |     335218
Характеристики диапазона извлечения и сообщения об ошибках
Выбранный диапазон
     Имя файла D:\Музыка lossless\Lang Lang It's Me\CD3 Beethoven Piano Concertos № 1, 4\Lang Lang - Piano Concertos № 1, 4.wav
     Пиковый уровень 90.2 %
     Качество диапазона 99.9 %
     CRC теста 1B2A37ED
     CRC копии 1B2A37ED
     Копирование... OK
Ошибок не произошло
AccurateRip: сводка
Трек  1  точное извлечение (доверие 73)  [AF8A145A]
Трек  2  точное извлечение (доверие 74)  [967BD239]
Трек  3  точное извлечение (доверие 73)  [BE81463D]
Трек  4  точное извлечение (доверие 71)  [AD4D346E]
Трек  5  точное извлечение (доверие 73)  [92857F1F]
Трек  6  точное извлечение (доверие 71)  [05900C15]
Все треки извлечены точно
Конец отчёта

-

CUE

REM GENRE Classical
REM DATE 2007
REM DISCID 47117506
REM COMMENT "ExactAudioCopy v0.99pb5"
PERFORMER "Lang Lang"
TITLE "Piano Concertos № 1, 4"
FILE "Lang Lang - Piano Concertos № 1, 4.ape" WAVE
  TRACK 01 AUDIO
    TITLE "Piano Concerto № 1 Op 15 C-Dur - I. Allegro con brio"
    PERFORMER "Lang Lang"
    INDEX 01 00:00:00
  TRACK 02 AUDIO
    TITLE "Piano Concerto № 1 Op 15 C-Dur - II. Largo"
    PERFORMER "Lang Lang"
    INDEX 01 18:18:02
  TRACK 03 AUDIO
    TITLE "Piano Concerto № 1 Op 15 C-Dur - III. Rondo (Allegro scherzando)"
    PERFORMER "Lang Lang"
    INDEX 01 29:44:09
  TRACK 04 AUDIO
    TITLE "Piano Concerto № 4 Op 58 G-Dur - I. Allegro moderato"
    PERFORMER "Lang Lang"
    INDEX 00 38:57:66
    INDEX 01 39:12:33
  TRACK 05 AUDIO
    TITLE "Piano Concerto № 4 Op 58 G-Dur - II. Andante con moto"
    PERFORMER "Lang Lang"
    INDEX 01 58:24:48
  TRACK 06 AUDIO
    TITLE "Piano Concerto № 4 Op 58 G-Dur - III. Rondo (Vivace)"
    PERFORMER "Lang Lang"
    INDEX 01 64:09:58
-CD4 – 01h13'13"
Frederic Chopin. Piano Concerto № 2 f-moll / in F minor, Op 21
01. I. Maestoso [00h14'23"]
02. II. Larghetto [00h09'42"]
03. III. Allegro vivace [00h08'56"]
Frederic Chopin. Piano Concerto № 1 e-moll / in E minor, Op 11
04. I. Allegro maestoso [00h14'23"]
05. II. Romanze. Larghetto [00h09'42"]
06. III. Rondo. Vivace [00h08'56"]
Wiener Philarmoniker, cond. Zubin Mehta, Piano – Lang Lang
-

EAC log

Exact Audio Copy V0.99 prebeta 5 from 4. May 2009
Отчёт EAC об извлечении, выполненном 15. августа 2014, 22:31
Lang Lang / Piano Concertos № 1, 2
Дисковод: PIONEER DVD-RW  DVR-111D   Adapter: 1  ID: 0
Режим чтения                 : Достоверность
Использование точного потока : Да
Отключение кэша аудио        : Да
Использование указателей C2  : Нет
Коррекция смещения при чтении                     : 48
Способность читать области Lead-in и Lead-out     : Нет
Заполнение пропущенных сэмплов тишиной            : Да
Удаление блоков с тишиной в начале и конце        : Нет
При вычислениях CRC использовались нулевые сэмплы : Да
Интерфейс                                         : Установленный внешний ASPI-интерфейс
Выходной формат          : Monkey's Audio (без потерь)
Выбранный битрейт        : Normal Lossless Compression
Качество                 : Высокий
Добавление ID3-тэга      : Нет
Утилита сжатия           : C:\Program Files\Monkey's Audio\MAC.exe
TOC извлечённого CD
     Трек |   Старт  | Длительность | Начальный сектор | Конечный сектор
    ---------------------------------------------------------------------
       1  |  0:00.00 |   14:23.29   |           0      |      64753
       2  | 14:23.29 |    9:41.41   |       64754      |     108369
       3  | 24:04.70 |    8:56.08   |      108370      |     148577
       4  | 33:01.03 |   20:04.65   |      148578      |     238942
       5  | 53:05.68 |   10:00.15   |      238943      |     283957
       6  | 63:06.08 |   10:06.61   |      283958      |     329468
Характеристики диапазона извлечения и сообщения об ошибках
Выбранный диапазон
     Имя файла D:\Музыка lossless\Lang Lang It's Me\CD4 Chopin Piano Concertos № 1, 2\Lang Lang - Piano Concertos № 1, 2.wav
     Пиковый уровень 99.9 %
     Качество диапазона 100.0 %
     CRC теста 0BCA0BB6
     CRC копии 0BCA0BB6
     Копирование... OK
Ошибок не произошло
AccurateRip: сводка
Трек  1  точное извлечение (доверие 76)  [D2C8CA01]
Трек  2  точное извлечение (доверие 75)  [0E3BEE69]
Трек  3  точное извлечение (доверие 74)  [B39E3226]
Трек  4  точное извлечение (доверие 73)  [AECC56EC]
Трек  5  точное извлечение (доверие 75)  [14E99150]
Трек  6  точное извлечение (доверие 75)  [0993E51E]
Все треки извлечены точно
Конец отчёта

-

CUE

REM GENRE Classical
REM DATE 2008
REM DISCID 66112806
REM COMMENT "ExactAudioCopy v0.99pb5"
PERFORMER "Lang Lang"
TITLE "Piano Concertos № 1, 2.ape"
FILE "Lang Lang - Piano Concertos № 1, 2.ape" WAVE
  TRACK 01 AUDIO
    TITLE "Piano Concerto № 2 Op 21 f-moll - I. Maestoso"
    PERFORMER "Lang Lang"
    INDEX 01 00:00:00
  TRACK 02 AUDIO
    TITLE "Piano Concerto № 2 Op 21 f-moll - II. Larghetto"
    PERFORMER "Lang Lang"
    INDEX 01 14:23:29
  TRACK 03 AUDIO
    TITLE "Piano Concerto № 2 Op 21 f-moll - III. Allegro vivace"
    PERFORMER "Lang Lang"
    INDEX 01 24:04:70
  TRACK 04 AUDIO
    TITLE "Piano Concerto № 1 Op 11 e-moll - I. Allegro maestoso"
    PERFORMER "Lang Lang"
    INDEX 00 32:55:55
    INDEX 01 33:01:03
  TRACK 05 AUDIO
    TITLE "Piano Concerto № 1 Op 11 e-moll - II. Romance. Larghetto "
    PERFORMER "Lang Lang"
    INDEX 01 53:05:68
  TRACK 06 AUDIO
    TITLE "Piano Concerto № 1 Op 11 e-moll - III. Rondo. Vivace"
    PERFORMER "Lang Lang"
    INDEX 01 63:06:08
-
[teatrix.ru].t9717.torrent 
Торрент: Зарегистрирован [ 2015-10-23 17:11 ] · D2C391E1CC23D10B4789AC288F95AD751986F975

Скачать .torrent

Скачать

24 KB

Статус: проверено
Скачан: 1 раз
Размер: 978 MB
terms.php



Быстрый ответ

Имя:

      
Для отправки сообщений необходимо включить JavaScript
Показать сообщения:    

Текущее время: 04-Дек 17:19

Часовой пояс: UTC + 3


Вы можете начинать темы
Вы можете отвечать на сообщения
Вы не можете редактировать свои сообщения
Вы не можете удалять свои сообщения
Вы не можете голосовать в опросах
Вы не можете прикреплять файлы к сообщениям
Вы можете скачивать файлы