(Classical) Early Music - From Ancient Times To The Renaissance (2010) [10CD BoxSet] - 2005, 2010, FLAC (tracks+.cue) lossless


Статистика раздачи [Обновить пиров]
Размер:  4.11 GB   |    Зарегистрирован:  1 год 2 месяца   |    Скачан:  2 раза

Полного источника не было: 3 часа

Личеров:  1  [  0 KB/s  ]   Подробная статистика пиров
 
   
 
 
 

[Цитировать]

Early Music - From Ancient Times To The Renaissance (2010) [10CD BoxSet]
Жанр: Classical
Год издания диска: 2014
Издатель (лейбл): Sony Classical
Номер по каталогу: CDVP 1964047
Аудиокодек: FLAC
Тип рипа: tracks+.cue
Битрейт аудио: lossless
Продолжительность: 10CD. 12:33:50
Источник: скачано из сети
Наличие сканов в содержимом раздачи: да

CD 01 - Music of the Ancient World (68'10"):

Треклист:
01 - Akousate (Music of Ancient Greece)
02 - Melomai (Music of Ancient Greece)
03 - Eros (Music of Ancient Greece)
04 - Nomos M (Music of Ancient Greece)
05 - Daktylos amera (Music of Ancient Greece)
06 - Makrotatos (Music of Ancient Greece)
07 - Ekleipsis (Music of Ancient Greece)
08 - Psaume 23 (The Music of the Bible)
09 - Psaume 24 (The Music of the Bible)
10 - Cantique des Cantiques I,1 (The Music of the Bible)
11 - Lamentations I,1 (The Music of the Bible)
12 - Psaume 150 ''Alleluia'' (The Music of the Bible)
13 - Esther V,1 (The Music of the Bible)
14 - Alleluia, Tropaire de la venue de l' Epoux (Byzantine Chant)
15 - Exapostilarion de l'Office de Mardi Saint- version arabe (Byzantine Chant)
16 - Exapostilarion de l'Office de Mardi Saint- version grecque (Byzantine Chant)
17 - Exapostilarion de l'Office de Mardi Saint- version arabe (Byzantine Chant)
18 - Kinonikon (Byzantine Chant)
19 - Extrait du Canon de Samedi Saint- premiere stance (Byzantine Chant)
20 - Extrait du Canon de Samedi Saint- deuxieme stance (Byzantine Chant)
21 - Extrait du Canon de Samedi Saint- troisieme stance (Byzantine Chant)
22 - Axion esti (Melchite Sacred Chant)
23 - Ya walidata-l-ilah (Melchite Sacred Chant)
24 - Alleluia Martinus (Alleluias and Offertories of the Gauls)
25 - Offertoire Martinus igitur (Alleluias and Offertories of the Gauls)

LOG EAC CD:

Exact Audio Copy V1.0 beta 3 from 29. August 2011
EAC extraction logfile from 25. June 2012, 14:06
Various / Century 1 - Music of the Ancient World
Used drive : PLEXTOR DVDR PX-860A Adapter: 0 ID: 0
Read mode : SecureUtilize accurate stream : YesDefeat audio cache : YesMake use of C2 pointers : No
Read offset correction : 96Overread into Lead-In and Lead-Out : NoFill up missing offset samples with silence : YesDelete leading and trailing silent blocks : NoNull samples used in CRC calculations : YesUsed interface : Native Win32 interface for Win NT & 2000Gap handling : Appended to previous track
Used output format : User Defined EncoderSelected bitrate : 1024 kBit/sQuality : HighAdd ID3 tag : NoCommand line compressor : C:\Program Files\Exact Audio Copy\Flac\flac.exeAdditional command line options : -8 -V -T "ARTIST=%artist%" -T "TITLE=%title%" -T "ALBUM=%albumtitle%" -T "DATE=%year%" -T "TRACKNUMBER=%tracknr%" -T "GENRE=%genre%" -T "PERFORMER=%albuminterpret%" -T "COMPOSER=%composer%" %haslyrics%--tag-from-file=LYRICS="%lyricsfile%"%haslyrics% -T "ALBUMARTIST=%albumartist%" -T "DISCNUMBER=%cdnumber%" -T "TOTALDISCS=%totalcds%" -T "TOTALTRACKS=%numtracks%" -T "COMMENT=EAC Secure Mode, Test & Copy, AccurateRip, FLAC -8" %source% -o %dest%
TOC of the extracted CD
Track | Start | Length | Start sector | End sector --------------------------------------------------------- 1 | 0:00.00 | 3:44.23 | 0 | 16822 2 | 3:44.23 | 2:23.52 | 16823 | 27599 3 | 6:08.00 | 0:45.54 | 27600 | 31028 4 | 6:53.54 | 1:13.47 | 31029 | 36550 5 | 8:07.26 | 2:38.51 | 36551 | 48451 6 | 10:46.02 | 2:56.23 | 48452 | 61674 7 | 13:42.25 | 4:54.50 | 61675 | 83774 8 | 18:37.00 | 2:13.00 | 83775 | 93749 9 | 20:50.00 | 2:59.37 | 93750 | 107211 10 | 23:49.37 | 1:39.38 | 107212 | 114674 11 | 25:29.00 | 1:54.00 | 114675 | 123224 12 | 27:23.00 | 0:59.26 | 123225 | 127675 13 | 28:22.26 | 2:28.49 | 127676 | 138824 14 | 30:51.00 | 2:45.53 | 138825 | 151252 15 | 33:36.53 | 1:06.10 | 151253 | 156212 16 | 34:42.63 | 1:15.27 | 156213 | 161864 17 | 35:58.15 | 1:18.15 | 161865 | 167729 18 | 37:16.30 | 6:15.67 | 167730 | 195921 19 | 43:32.22 | 1:57.00 | 195922 | 204696 20 | 45:29.22 | 2:17.30 | 204697 | 215001 21 | 47:46.52 | 1:39.23 | 215002 | 222449 22 | 49:26.00 | 4:36.47 | 222450 | 243196 23 | 54:02.47 | 2:57.28 | 243197 | 256499 24 | 57:00.00 | 4:48.70 | 256500 | 278169 25 | 61:48.70 | 6:20.61 | 278170 | 306730
Track 1
Filename I:\DL\Various - Century 1 - Music of the Ancient World (2005) [FLAC]\01 - Akousate (Music of Ancient Greece).wav
Pre-gap length 0:00:02.00
Peak level 20.6 % Extraction speed 4.6 X Track quality 100.0 % Test CRC 7C70ABF9 Copy CRC 7C70ABF9 Accurately ripped (confidence 2) [BBFD5492] (AR v2) Copy OK
Track 2
Filename I:\DL\Various - Century 1 - Music of the Ancient World (2005) [FLAC]\02 - Melomai (Music of Ancient Greece).wav
Peak level 42.7 % Extraction speed 4.6 X Track quality 100.0 % Test CRC 1A8D6652 Copy CRC 1A8D6652 Accurately ripped (confidence 2) [B8BB23BE] (AR v2) Copy OK
Track 3
Filename I:\DL\Various - Century 1 - Music of the Ancient World (2005) [FLAC]\03 - Eros (Music of Ancient Greece).wav
Peak level 89.2 % Extraction speed 3.3 X Track quality 100.0 % Test CRC 19A0D191 Copy CRC 19A0D191 Accurately ripped (confidence 2) [E9278D1E] (AR v2) Copy OK
Track 4
Filename I:\DL\Various - Century 1 - Music of the Ancient World (2005) [FLAC]\04 - Nomos M (Music of Ancient Greece).wav
Peak level 17.5 % Extraction speed 4.0 X Track quality 100.0 % Test CRC 4B7E0A69 Copy CRC 4B7E0A69 Accurately ripped (confidence 2) [E18F6DCD] (AR v2) Copy OK
Track 5
Filename I:\DL\Various - Century 1 - Music of the Ancient World (2005) [FLAC]\05 - Daktylos amera (Music of Ancient Greece).wav
Peak level 52.4 % Extraction speed 4.3 X Track quality 99.9 % Test CRC 241B2867 Copy CRC 241B2867 Accurately ripped (confidence 2) [7785010F] (AR v2) Copy OK
Track 6
Filename I:\DL\Various - Century 1 - Music of the Ancient World (2005) [FLAC]\06 - Makrotatos (Music of Ancient Greece).wav
Peak level 100.0 % Extraction speed 4.6 X Track quality 99.9 % Test CRC 7F50C7FF Copy CRC 7F50C7FF Accurately ripped (confidence 2) [E4890BB7] (AR v2) Copy OK
Track 7
Filename I:\DL\Various - Century 1 - Music of the Ancient World (2005) [FLAC]\07 - Ekleipsis (Music of Ancient Greece).wav
Peak level 59.3 % Extraction speed 6.2 X Track quality 100.0 % Test CRC 270AAA66 Copy CRC 270AAA66 Accurately ripped (confidence 2) [933711BC] (AR v2) Copy OK
Track 8
Filename I:\DL\Various - Century 1 - Music of the Ancient World (2005) [FLAC]\08 - Psaume 23 (The Music of the Bible).wav
Pre-gap length 0:00:04.32
Peak level 32.2 % Extraction speed 5.7 X Track quality 100.0 % Test CRC 7BA180A7 Copy CRC 7BA180A7 Accurately ripped (confidence 2) [41468235] (AR v2) Copy OK
Track 9
Filename I:\DL\Various - Century 1 - Music of the Ancient World (2005) [FLAC]\09 - Psaume 24 (The Music of the Bible).wav
Peak level 74.9 % Extraction speed 6.2 X Track quality 100.0 % Test CRC 69D42E48 Copy CRC 69D42E48 Accurately ripped (confidence 2) [A9E4BCA7] (AR v2) Copy OK
Track 10
Filename I:\DL\Various - Century 1 - Music of the Ancient World (2005) [FLAC]\10 - Cantique des Cantiques I,1 (The Music of the Bible).wav
Peak level 10.5 % Extraction speed 5.6 X Track quality 100.0 % Test CRC BFB71A17 Copy CRC BFB71A17 Accurately ripped (confidence 2) [75ED99C3] (AR v2) Copy OK
Track 11
Filename I:\DL\Various - Century 1 - Music of the Ancient World (2005) [FLAC]\11 - Lamentations I,1 (The Music of the Bible).wav
Peak level 32.8 % Extraction speed 5.9 X Track quality 100.0 % Test CRC 1D972033 Copy CRC 1D972033 Accurately ripped (confidence 2) [9C84923C] (AR v2) Copy OK
Track 12
Filename I:\DL\Various - Century 1 - Music of the Ancient World (2005) [FLAC]\12 - Psaume 150 ''Alleluia'' (The Music of the Bible).wav
Peak level 69.2 % Extraction speed 4.9 X Track quality 100.0 % Test CRC 4048C86C Copy CRC 4048C86C Accurately ripped (confidence 2) [888118C8] (AR v2) Copy OK
Track 13
Filename I:\DL\Various - Century 1 - Music of the Ancient World (2005) [FLAC]\13 - Esther V,1 (The Music of the Bible).wav
Peak level 13.8 % Extraction speed 6.4 X Track quality 100.0 % Test CRC CBE8EC48 Copy CRC CBE8EC48 Accurately ripped (confidence 2) [BEC407F6] (AR v2) Copy OK
Track 14
Filename I:\DL\Various - Century 1 - Music of the Ancient World (2005) [FLAC]\14 - Alleluia, Tropaire de la venue de l' Epoux (Byzantine Chant).wav
Pre-gap length 0:00:05.29
Peak level 56.6 % Extraction speed 6.7 X Track quality 100.0 % Test CRC 7543D1BA Copy CRC 7543D1BA Accurately ripped (confidence 2) [385DA28D] (AR v2) Copy OK
Track 15
Filename I:\DL\Various - Century 1 - Music of the Ancient World (2005) [FLAC]\15 - Exapostilarion de l'Office de Mardi Saint- version arabe (Byzantine Chant).wav
Peak level 91.3 % Extraction speed 5.3 X Track quality 100.0 % Test CRC 1A66B012 Copy CRC 1A66B012 Accurately ripped (confidence 2) [C7FD2D1F] (AR v2) Copy OK
Track 16
Filename I:\DL\Various - Century 1 - Music of the Ancient World (2005) [FLAC]\16 - Exapostilarion de l'Office de Mardi Saint- version grecque (Byzantine Chant).wav
Peak level 99.7 % Extraction speed 4.1 X Track quality 99.8 % Test CRC 7FC5B803 Copy CRC 7FC5B803 Accurately ripped (confidence 2) [E26E96E5] (AR v2) Copy OK
Track 17
Filename I:\DL\Various - Century 1 - Music of the Ancient World (2005) [FLAC]\17 - Exapostilarion de l'Office de Mardi Saint- version arabe (Byzantine Chant).wav
Peak level 77.8 % Extraction speed 5.8 X Track quality 100.0 % Test CRC EFED7121 Copy CRC EFED7121 Accurately ripped (confidence 2) [DAD14EF4] (AR v2) Copy OK
Track 18
Filename I:\DL\Various - Century 1 - Music of the Ancient World (2005) [FLAC]\18 - Kinonikon (Byzantine Chant).wav
Peak level 97.2 % Extraction speed 8.0 X Track quality 100.0 % Test CRC E68CDED4 Copy CRC E68CDED4 Accurately ripped (confidence 2) [822E5C60] (AR v2) Copy OK
Track 19
Filename I:\DL\Various - Century 1 - Music of the Ancient World (2005) [FLAC]\19 - Extrait du Canon de Samedi Saint- premiere stance (Byzantine Chant).wav
Peak level 68.9 % Extraction speed 6.9 X Track quality 100.0 % Test CRC 4B69DAF2 Copy CRC 4B69DAF2 Accurately ripped (confidence 2) [8DEF31E5] (AR v2) Copy OK
Track 20
Filename I:\DL\Various - Century 1 - Music of the Ancient World (2005) [FLAC]\20 - Extrait du Canon de Samedi Saint- deuxieme stance (Byzantine Chant).wav
Peak level 87.7 % Extraction speed 7.2 X Track quality 100.0 % Test CRC B4BA1E6B Copy CRC B4BA1E6B Accurately ripped (confidence 2) [94172474] (AR v2) Copy OK
Track 21
Filename I:\DL\Various - Century 1 - Music of the Ancient World (2005) [FLAC]\21 - Extrait du Canon de Samedi Saint- troisieme stance (Byzantine Chant).wav
Peak level 48.1 % Extraction speed 6.7 X Track quality 100.0 % Test CRC 48F4B0A2 Copy CRC 48F4B0A2 Accurately ripped (confidence 2) [BD11063B] (AR v2) Copy OK
Track 22
Filename I:\DL\Various - Century 1 - Music of the Ancient World (2005) [FLAC]\22 - Axion esti (Melchite Sacred Chant).wav
Pre-gap length 0:00:05.42
Peak level 71.9 % Extraction speed 8.4 X Track quality 100.0 % Test CRC 1D2EACC3 Copy CRC 1D2EACC3 Accurately ripped (confidence 2) [58FDE38F] (AR v2) Copy OK
Track 23
Filename I:\DL\Various - Century 1 - Music of the Ancient World (2005) [FLAC]\23 - Ya walidata-l-ilah (Melchite Sacred Chant).wav
Peak level 50.4 % Extraction speed 8.1 X Track quality 100.0 % Test CRC 94D59002 Copy CRC 94D59002 Accurately ripped (confidence 2) [C9026CCB] (AR v2) Copy OK
Track 24
Filename I:\DL\Various - Century 1 - Music of the Ancient World (2005) [FLAC]\24 - Alleluia Martinus (Alleluias and Offertories of the Gauls).wav
Pre-gap length 0:00:05.01
Peak level 55.7 % Extraction speed 8.8 X Track quality 100.0 % Test CRC 763766C3 Copy CRC 763766C3 Accurately ripped (confidence 2) [6D55BFE3] (AR v2) Copy OK
Track 25
Filename I:\DL\Various - Century 1 - Music of the Ancient World (2005) [FLAC]\25 - Offertoire Martinus igitur (Alleluias and Offertories of the Gauls).wav
Peak level 41.5 % Extraction speed 8.5 X Track quality 99.9 % Test CRC A23872B3 Copy CRC A23872B3 Accurately ripped (confidence 2) [93E99567] (AR v2) Copy OK
All tracks accurately ripped
No errors occurred
End of status report
---- CUETools DB Plugin V2.1.3
[CTDB TOCID: E58aqXABtG3RSdeMqL0Aj9LcvNw-] found, Submit result: E58aqXABtG3RSdeMqL0Aj9LcvNw- has been confirmed[442dfd7d] (4/4) Accurately ripped
==== Log checksum C8DDF9C5C40B68A5C9A2817A92B335E4DF537506FC1A45341DCE5D6CB6B56960 ====

LOG (.CUE):

REM GENRE OtherREM DATE 2005REM DISCID 4B0FF919REM COMMENT "ExactAudioCopy v1.0b3"PERFORMER "Various"TITLE "Century 1 - Music of the Ancient World"FILE "01 - Akousate (Music of Ancient Greece).wav" WAVE TRACK 01 AUDIO TITLE "Akousate (Music of Ancient Greece)" PERFORMER "Various" FLAGS DCP INDEX 01 00:00:00FILE "02 - Melomai (Music of Ancient Greece).wav" WAVE TRACK 02 AUDIO TITLE "Melomai (Music of Ancient Greece)" PERFORMER "Various" FLAGS DCP INDEX 01 00:00:00FILE "03 - Eros (Music of Ancient Greece).wav" WAVE TRACK 03 AUDIO TITLE "Eros (Music of Ancient Greece)" PERFORMER "Various" FLAGS DCP INDEX 01 00:00:00FILE "04 - Nomos M (Music of Ancient Greece).wav" WAVE TRACK 04 AUDIO TITLE "Nomos M (Music of Ancient Greece)" PERFORMER "Various" FLAGS DCP INDEX 01 00:00:00FILE "05 - Daktylos amera (Music of Ancient Greece).wav" WAVE TRACK 05 AUDIO TITLE "Daktylos amera (Music of Ancient Greece)" PERFORMER "Various" FLAGS DCP INDEX 01 00:00:00FILE "06 - Makrotatos (Music of Ancient Greece).wav" WAVE TRACK 06 AUDIO TITLE "Makrotatos (Music of Ancient Greece)" PERFORMER "Various" FLAGS DCP INDEX 01 00:00:00FILE "07 - Ekleipsis (Music of Ancient Greece).wav" WAVE TRACK 07 AUDIO TITLE "Ekleipsis (Music of Ancient Greece)" PERFORMER "Various" FLAGS DCP INDEX 01 00:00:00 TRACK 08 AUDIO TITLE "Psaume 23 (The Music of the Bible)" PERFORMER "Various" FLAGS DCP INDEX 00 04:50:26FILE "08 - Psaume 23 (The Music of the Bible).wav" WAVE INDEX 01 00:00:00FILE "09 - Psaume 24 (The Music of the Bible).wav" WAVE TRACK 09 AUDIO TITLE "Psaume 24 (The Music of the Bible)" PERFORMER "Various" FLAGS DCP INDEX 01 00:00:00FILE "10 - Cantique des Cantiques I,1 (The Music of the Bible).wav" WAVE TRACK 10 AUDIO TITLE "Cantique des Cantiques I,1 (The Music of the Bible)" PERFORMER "Various" FLAGS DCP INDEX 01 00:00:00FILE "11 - Lamentations I,1 (The Music of the Bible).wav" WAVE TRACK 11 AUDIO TITLE "Lamentations I,1 (The Music of the Bible)" PERFORMER "Various" FLAGS DCP INDEX 01 00:00:00FILE "12 - Psaume 150 ''Alleluia'' (The Music of the Bible).wav" WAVE TRACK 12 AUDIO TITLE "Psaume 150 'Alleluia' (The Music of the Bible)" PERFORMER "Various" FLAGS DCP INDEX 01 00:00:00FILE "13 - Esther V,1 (The Music of the Bible).wav" WAVE TRACK 13 AUDIO TITLE "Esther V,1 (The Music of the Bible)" PERFORMER "Various" FLAGS DCP INDEX 01 00:00:00 TRACK 14 AUDIO TITLE "Alleluia, Tropaire de la venue de l' Epoux (Byzantine Chant)" PERFORMER "Various" FLAGS DCP INDEX 00 02:23:27FILE "14 - Alleluia, Tropaire de la venue de l' Epoux (Byzantine Chant).wav" WAVE INDEX 01 00:00:00FILE "15 - Exapostilarion de l'Office de Mardi Saint- version arabe (Byzantine Chant).wav" WAVE TRACK 15 AUDIO TITLE "Exapostilarion de l'Office de Mardi Saint: version arabe (Byzantine Chant)" PERFORMER "Various" FLAGS DCP INDEX 01 00:00:00FILE "16 - Exapostilarion de l'Office de Mardi Saint- version grecque (Byzantine Chant).wav" WAVE TRACK 16 AUDIO TITLE "Exapostilarion de l'Office de Mardi Saint: version grecque (Byzantine Chant)" PERFORMER "Various" FLAGS DCP INDEX 01 00:00:00FILE "17 - Exapostilarion de l'Office de Mardi Saint- version arabe (Byzantine Chant).wav" WAVE TRACK 17 AUDIO TITLE "Exapostilarion de l'Office de Mardi Saint: version arabe (Byzantine Chant)" PERFORMER "Various" FLAGS DCP INDEX 01 00:00:00FILE "18 - Kinonikon (Byzantine Chant).wav" WAVE TRACK 18 AUDIO TITLE "Kinonikon (Byzantine Chant)" PERFORMER "Various" FLAGS DCP INDEX 01 00:00:00FILE "19 - Extrait du Canon de Samedi Saint- premiere stance (Byzantine Chant).wav" WAVE TRACK 19 AUDIO TITLE "Extrait du Canon de Samedi Saint: premiere stance (Byzantine Chant)" PERFORMER "Various" FLAGS DCP INDEX 01 00:00:00FILE "20 - Extrait du Canon de Samedi Saint- deuxieme stance (Byzantine Chant).wav" WAVE TRACK 20 AUDIO TITLE "Extrait du Canon de Samedi Saint: deuxieme stance (Byzantine Chant)" PERFORMER "Various" FLAGS DCP INDEX 01 00:00:00FILE "21 - Extrait du Canon de Samedi Saint- troisieme stance (Byzantine Chant).wav" WAVE TRACK 21 AUDIO TITLE "Extrait du Canon de Samedi Saint: troisieme stance (Byzantine Chant)" PERFORMER "Various" FLAGS DCP INDEX 01 00:00:00 TRACK 22 AUDIO TITLE "Axion esti (Melchite Sacred Chant)" PERFORMER "Various" FLAGS DCP INDEX 00 01:33:66FILE "22 - Axion esti (Melchite Sacred Chant).wav" WAVE INDEX 01 00:00:00FILE "23 - Ya walidata-l-ilah (Melchite Sacred Chant).wav" WAVE TRACK 23 AUDIO TITLE "Ya walidata-l-ilah (Melchite Sacred Chant)" PERFORMER "Various" FLAGS DCP INDEX 01 00:00:00 TRACK 24 AUDIO TITLE "Alleluia Martinus (Alleluias and Offertories of the Gauls)" PERFORMER "Various" FLAGS DCP INDEX 00 02:52:27FILE "24 - Alleluia Martinus (Alleluias and Offertories of the Gauls).wav" WAVE INDEX 01 00:00:00FILE "25 - Offertoire Martinus igitur (Alleluias and Offertories of the Gauls).wav" WAVE TRACK 25 AUDIO TITLE "Offertoire Martinus igitur (Alleluias and Offertories of the Gauls)" PERFORMER "Various" FLAGS DCP INDEX 01 00:00:00

CD 02 - Chant of the early Christians (70'21"):

Треклист:
1 - Chant Ambrosien - Lucernarium - Paravi lucernam Christo meo
02 - Chant Ambrosien - Ingressa - Lux fulgebit hodie super nos
03 - Chant Ambrosien - Psalmellus - Tecum principium in die virtutis tue
04 - Chant Vieux-Romain - Introit - Resurrexi
05 - Chant Vieux-Romain - Offertoire - Terra tremuit
06 - Chant Vieux-Romain - Alleluia
07 - Chant Beneventain - Introit - Maria vidit angelum (tutti)
08 - Chant Mozarabe - Invocation sacerdotale d'introduction - Per gloriam nominis tui
09 - Chant Mozarabe - Gloria in excelsis Deo
10 - Chant Mozarabe - Ad confractionem panis - Qui venit ad me non esuriet
11 - Chant Mozarabe - Pretre - Humiliate vos ad benedictionem!
12 - Chant Mozarabe - Ad accedentes - Gustate et videte
13 - Chant Vieux-Romain - Ad processionem Kyrie
14 - Chant Vieux-Romain - Alleluia - Versus O kyrios evasileosen, Versus Ke gar estereosen

LOG EAC CD:

Exact Audio Copy V1.0 beta 3 from 29. August 2011
EAC extraction logfile from 4. July 2012, 9:40
Ensemble Organum, dir. Marcel Peres / Century 2 - Chant of the Early Christians
Used drive : PLEXTOR DVDR PX-860A Adapter: 0 ID: 0
Read mode : SecureUtilize accurate stream : YesDefeat audio cache : YesMake use of C2 pointers : No
Read offset correction : 96Overread into Lead-In and Lead-Out : NoFill up missing offset samples with silence : YesDelete leading and trailing silent blocks : NoNull samples used in CRC calculations : YesUsed interface : Native Win32 interface for Win NT & 2000Gap handling : Appended to previous track
Used output format : User Defined EncoderSelected bitrate : 1024 kBit/sQuality : HighAdd ID3 tag : NoCommand line compressor : C:\Program Files\Exact Audio Copy\Flac\flac.exeAdditional command line options : -8 -V -T "ARTIST=%artist%" -T "TITLE=%title%" -T "ALBUM=%albumtitle%" -T "DATE=%year%" -T "TRACKNUMBER=%tracknr%" -T "GENRE=%genre%" -T "PERFORMER=%albuminterpret%" -T "COMPOSER=%composer%" %haslyrics%--tag-from-file=LYRICS="%lyricsfile%"%haslyrics% -T "ALBUMARTIST=%albumartist%" -T "DISCNUMBER=%cdnumber%" -T "TOTALDISCS=%totalcds%" -T "TOTALTRACKS=%numtracks%" -T "COMMENT=EAC Secure Mode, Test & Copy, AccurateRip, FLAC -8" %source% -o %dest%
TOC of the extracted CD
Track | Start | Length | Start sector | End sector --------------------------------------------------------- 1 | 0:00.00 | 4:44.00 | 0 | 21299 2 | 4:44.00 | 1:54.00 | 21300 | 29849 3 | 6:38.00 | 10:27.00 | 29850 | 76874 4 | 17:05.00 | 7:24.33 | 76875 | 110207 5 | 24:29.33 | 9:58.37 | 110208 | 155094 6 | 34:27.70 | 4:25.05 | 155095 | 174974 7 | 38:53.00 | 9:41.00 | 174975 | 218549 8 | 48:34.00 | 2:11.18 | 218550 | 228392 9 | 50:45.18 | 2:48.18 | 228393 | 241010 10 | 53:33.36 | 2:35.13 | 241011 | 252648 11 | 56:08.49 | 0:47.21 | 252649 | 256194 12 | 56:55.70 | 2:31.05 | 256195 | 267524 13 | 59:27.00 | 5:19.02 | 267525 | 291451 14 | 64:46.02 | 5:37.17 | 291452 | 316743
Track 1
Filename I:\DL\Ensemble Organum, dir. Marcel Peres - Century 2 - Chant of the Early Christians (2005) [FLAC]\01 - Chant Ambrosien - Lucernarium - Paravi lucernam Christo meo.wav
Pre-gap length 0:00:02.00
Peak level 75.1 % Extraction speed 4.8 X Track quality 100.0 % Test CRC 116DE613 Copy CRC 116DE613 Accurately ripped (confidence 2) [33E04B71] (AR v2) Copy OK
Track 2
Filename I:\DL\Ensemble Organum, dir. Marcel Peres - Century 2 - Chant of the Early Christians (2005) [FLAC]\02 - Chant Ambrosien - Ingressa - Lux fulgebit hodie super nos.wav
Peak level 25.6 % Extraction speed 4.4 X Track quality 100.0 % Test CRC ABB133E2 Copy CRC ABB133E2 Accurately ripped (confidence 2) [F407F527] (AR v2) Copy OK
Track 3
Filename I:\DL\Ensemble Organum, dir. Marcel Peres - Century 2 - Chant of the Early Christians (2005) [FLAC]\03 - Chant Ambrosien - Psalmellus - Tecum principium in die virtutis tue.wav
Peak level 62.7 % Extraction speed 6.0 X Track quality 100.0 % Test CRC FEFAE17C Copy CRC FEFAE17C Accurately ripped (confidence 2) [D10945D8] (AR v2) Copy OK
Track 4
Filename I:\DL\Ensemble Organum, dir. Marcel Peres - Century 2 - Chant of the Early Christians (2005) [FLAC]\04 - Chant Vieux-Romain - Introit - Resurrexi.wav
Pre-gap length 0:00:05.97
Peak level 75.8 % Extraction speed 6.7 X Track quality 100.0 % Test CRC 8BEAD2B5 Copy CRC 8BEAD2B5 Accurately ripped (confidence 2) [25CC8C22] (AR v2) Copy OK
Track 5
Filename I:\DL\Ensemble Organum, dir. Marcel Peres - Century 2 - Chant of the Early Christians (2005) [FLAC]\05 - Chant Vieux-Romain - Offertoire - Terra tremuit.wav
Peak level 74.4 % Extraction speed 7.4 X Track quality 100.0 % Test CRC DF653DB5 Copy CRC DF653DB5 Accurately ripped (confidence 2) [B8E80AB7] (AR v2) Copy OK
Track 6
Filename I:\DL\Ensemble Organum, dir. Marcel Peres - Century 2 - Chant of the Early Christians (2005) [FLAC]\06 - Chant Vieux-Romain - Alleluia.wav
Peak level 84.4 % Extraction speed 7.3 X Track quality 100.0 % Test CRC E2A53D1C Copy CRC E2A53D1C Accurately ripped (confidence 2) [77DD8033] (AR v2) Copy OK
Track 7
Filename I:\DL\Ensemble Organum, dir. Marcel Peres - Century 2 - Chant of the Early Christians (2005) [FLAC]\07 - Chant Beneventain - Introit - Maria vidit angelum (tutti).wav
Pre-gap length 0:00:05.10
Peak level 85.6 % Extraction speed 7.8 X Track quality 99.9 % Test CRC E4324278 Copy CRC E4324278 Accurately ripped (confidence 2) [CE415CA3] (AR v2) Copy OK
Track 8
Filename I:\DL\Ensemble Organum, dir. Marcel Peres - Century 2 - Chant of the Early Christians (2005) [FLAC]\08 - Chant Mozarabe - Invocation sacerdotale d'introduction - Per gloriam nominis tui.wav
Pre-gap length 0:00:04.85
Peak level 47.3 % Extraction speed 7.1 X Track quality 100.0 % Test CRC DE674886 Copy CRC DE674886 Accurately ripped (confidence 2) [79787EEA] (AR v2) Copy OK
Track 9
Filename I:\DL\Ensemble Organum, dir. Marcel Peres - Century 2 - Chant of the Early Christians (2005) [FLAC]\09 - Chant Mozarabe - Gloria in excelsis Deo.wav
Peak level 51.2 % Extraction speed 7.5 X Track quality 100.0 % Test CRC 7148734D Copy CRC 7148734D Accurately ripped (confidence 2) [F5CA69E5] (AR v2) Copy OK
Track 10
Filename I:\DL\Ensemble Organum, dir. Marcel Peres - Century 2 - Chant of the Early Christians (2005) [FLAC]\10 - Chant Mozarabe - Ad confractionem panis - Qui venit ad me non esuriet.wav
Peak level 45.0 % Extraction speed 7.4 X Track quality 100.0 % Test CRC 4A4FEE4B Copy CRC 4A4FEE4B Accurately ripped (confidence 2) [F835C4D2] (AR v2) Copy OK
Track 11
Filename I:\DL\Ensemble Organum, dir. Marcel Peres - Century 2 - Chant of the Early Christians (2005) [FLAC]\11 - Chant Mozarabe - Pretre - Humiliate vos ad benedictionem!.wav
Peak level 34.9 % Extraction speed 5.3 X Track quality 100.0 % Test CRC 4851C3BE Copy CRC 4851C3BE Accurately ripped (confidence 2) [6A007769] (AR v2) Copy OK
Track 12
Filename I:\DL\Ensemble Organum, dir. Marcel Peres - Century 2 - Chant of the Early Christians (2005) [FLAC]\12 - Chant Mozarabe - Ad accedentes - Gustate et videte.wav
Peak level 48.7 % Extraction speed 6.5 X Track quality 99.9 % Test CRC F1941F31 Copy CRC F1941F31 Accurately ripped (confidence 2) [60B02615] (AR v2) Copy OK
Track 13
Filename I:\DL\Ensemble Organum, dir. Marcel Peres - Century 2 - Chant of the Early Christians (2005) [FLAC]\13 - Chant Vieux-Romain - Ad processionem Kyrie.wav
Pre-gap length 0:00:04.61
Peak level 68.1 % Extraction speed 7.8 X Track quality 99.9 % Test CRC A78D1B30 Copy CRC A78D1B30 Accurately ripped (confidence 2) [327A1926] (AR v2) Copy OK
Track 14
Filename I:\DL\Ensemble Organum, dir. Marcel Peres - Century 2 - Chant of the Early Christians (2005) [FLAC]\14 - Chant Vieux-Romain - Alleluia - Versus O kyrios evasileosen, Versus Ke gar estereosen.wav
Peak level 72.9 % Extraction speed 8.9 X Track quality 100.0 % Test CRC B401426E Copy CRC B401426E Accurately ripped (confidence 2) [9305BDBC] (AR v2) Copy OK
All tracks accurately ripped
No errors occurred
End of status report
---- CUETools DB Plugin V2.1.3
[CTDB TOCID: y3doONYw2gJTZ.FZoCsWI64c1iI-] found, Submit result: y3doONYw2gJTZ.FZoCsWI64c1iI- has been confirmed[3399e760] (01/10) No match[5aea39ef] (06/10) Accurately ripped[f1b7cbd2] (03/10) No match
==== Log checksum 2551BD34CB678B2F06E39E369DAC73D752C48D6A43286E0559DA0A996230AE7D ====

LOG (.CUE):

REM GENRE ChantREM DATE 2005REM DISCID C4107F0EREM COMMENT "ExactAudioCopy v1.0b3"PERFORMER "Ensemble Organum, dir. Marcel Peres"TITLE "Century 2 - Chant of the Early Christians"FILE "01 - Chant Ambrosien - Lucernarium - Paravi lucernam Christo meo.wav" WAVE TRACK 01 AUDIO TITLE "Chant Ambrosien - Lucernarium - Paravi lucernam Christo meo" PERFORMER "Ensemble Organum, dir. Marcel Peres" FLAGS DCP INDEX 01 00:00:00FILE "02 - Chant Ambrosien - Ingressa - Lux fulgebit hodie super nos.wav" WAVE TRACK 02 AUDIO TITLE "Chant Ambrosien - Ingressa - Lux fulgebit hodie super nos" PERFORMER "Ensemble Organum, dir. Marcel Peres" FLAGS DCP INDEX 01 00:00:00FILE "03 - Chant Ambrosien - Psalmellus - Tecum principium in die virtutis tue.wav" WAVE TRACK 03 AUDIO TITLE "Chant Ambrosien - Psalmellus - Tecum principium in die virtutis tue" PERFORMER "Ensemble Organum, dir. Marcel Peres" FLAGS DCP INDEX 01 00:00:00 TRACK 04 AUDIO TITLE "Chant Vieux-Romain - Introпt - Resurrexi" PERFORMER "Ensemble Organum, dir. Marcel Peres" FLAGS DCP INDEX 00 10:21:02FILE "04 - Chant Vieux-Romain - Introit - Resurrexi.wav" WAVE INDEX 01 00:00:00FILE "05 - Chant Vieux-Romain - Offertoire - Terra tremuit.wav" WAVE TRACK 05 AUDIO TITLE "Chant Vieux-Romain - Offertoire - Terra tremuit" PERFORMER "Ensemble Organum, dir. Marcel Peres" FLAGS DCP INDEX 01 00:00:00FILE "06 - Chant Vieux-Romain - Alleluia.wav" WAVE TRACK 06 AUDIO TITLE "Chant Vieux-Romain - Alleluia" PERFORMER "Ensemble Organum, dir. Marcel Peres" FLAGS DCP INDEX 01 00:00:00 TRACK 07 AUDIO TITLE "Chant Beneventain - Introпt - Maria vidit angelum (tutti)" PERFORMER "Ensemble Organum, dir. Marcel Peres" FLAGS DCP INDEX 00 04:19:72FILE "07 - Chant Beneventain - Introit - Maria vidit angelum (tutti).wav" WAVE INDEX 01 00:00:00 TRACK 08 AUDIO TITLE "Chant Mozarabe - Invocation sacerdotale d'introduction : Per gloriam nominis tui" PERFORMER "Ensemble Organum, dir. Marcel Peres" FLAGS DCP INDEX 00 09:36:11FILE "08 - Chant Mozarabe - Invocation sacerdotale d'introduction - Per gloriam nominis tui.wav" WAVE INDEX 01 00:00:00FILE "09 - Chant Mozarabe - Gloria in excelsis Deo.wav" WAVE TRACK 09 AUDIO TITLE "Chant Mozarabe - Gloria in excelsis Deo" PERFORMER "Ensemble Organum, dir. Marcel Peres" FLAGS DCP INDEX 01 00:00:00FILE "10 - Chant Mozarabe - Ad confractionem panis - Qui venit ad me non esuriet.wav" WAVE TRACK 10 AUDIO TITLE "Chant Mozarabe - Ad confractionem panis - Qui venit ad me non esuriet" PERFORMER "Ensemble Organum, dir. Marcel Peres" FLAGS DCP INDEX 01 00:00:00FILE "11 - Chant Mozarabe - Pretre - Humiliate vos ad benedictionem!.wav" WAVE TRACK 11 AUDIO TITLE "Chant Mozarabe - Prкtre - Humiliate vos ad benedictionem!" PERFORMER "Ensemble Organum, dir. Marcel Peres" FLAGS DCP INDEX 01 00:00:00FILE "12 - Chant Mozarabe - Ad accedentes - Gustate et videte.wav" WAVE TRACK 12 AUDIO TITLE "Chant Mozarabe - Ad accedentes - Gustate et videte" PERFORMER "Ensemble Organum, dir. Marcel Peres" FLAGS DCP INDEX 01 00:00:00 TRACK 13 AUDIO TITLE "Chant Vieux-Romain - Ad processionem Kyrie" PERFORMER "Ensemble Organum, dir. Marcel Peres" FLAGS DCP INDEX 00 02:26:34FILE "13 - Chant Vieux-Romain - Ad processionem Kyrie.wav" WAVE INDEX 01 00:00:00FILE "14 - Chant Vieux-Romain - Alleluia - Versus O kyrios evasileosen, Versus Ke gar estereosen.wav" WAVE TRACK 14 AUDIO TITLE "Chant Vieux-Romain - Alleluia - Versus O kyrios evasileosen, Versus Ke gar es..." PERFORMER "Ensemble Organum, dir. Marcel Peres" FLAGS DCP INDEX 01 00:00:00

CD 03 - Gregorian Chant (76'56"):

Треклист:
01 - Universi qui te expectant (The Vast Corpus of Gregorian Chant)
02 - Introit- Requiem Aeternam (The Vast Corpus of Gregorian Chant)
03 - Kyrie eleison (The Vast Corpus of Gregorian Chant)
04 - Graduel- Requiem aeternam (The Vast Corpus of Gregorian Chant)
05 - Trait- Absolve, Domine (The Vast Corpus of Gregorian Chant)
06 - Sequence- Dies irae (The Vast Corpus of Gregorian Chant)
07 - Offertoire- Domine Jesu Christe (The Vast Corpus of Gregorian Chant)
08 - Sanctus (The Vast Corpus of Gregorian Chant)
09 - Agnus Dei (The Vast Corpus of Gregorian Chant)
10 - Communion- Lux aeterna (The Vast Corpus of Gregorian Chant)
11 - Repons- Libera me (The Vast Corpus of Gregorian Chant)
12 - Antienne- In paradisum (The Vast Corpus of Gregorian Chant)
13 - Agnus dei- Omnipotens eterne (Mass from the Year 1000 - excerpts)
14 - Psallite Domino (Mass from the Year 1000 - excerpts)
15 - Hymne- Cives clestis patrie (Mass from the Year 1000 - excerpts)
16 - Invitatoire- Regem regum dominum (Codex Calixtinus. Plainchant for Santiago da Compostela)
17 - Repons- Iacobe servorum (Codex Calixtinus. Plainchant for Santiago da Compostela)
18 - Offertoire- Ascendens Ihesus in montem (Codex Calixtinus. Plainchant for Santiago da Compostela)
19 - In timore De (Cistercian Chant. 12th century)
20 - Testamentum eternum (Cistercian Chant. 12th century)
21 - Dedit Dominus confessionem sancto suo (Cistercian Chant. 12th century)
22 - Anonyme- Natus est rex (Magnus Liber Organi. 12 th century)
23 - Adam de St. Victor- In natale (Magnus Liber Organi. 12 th century)

LOG EAC CD:

Exact Audio Copy V1.0 beta 3 from 29. August 2011
EAC extraction logfile from 11. July 2012, 8:37
Various / Gregorian Chant
Used drive : PLEXTOR DVDR PX-860A Adapter: 0 ID: 0
Read mode : SecureUtilize accurate stream : YesDefeat audio cache : YesMake use of C2 pointers : No
Read offset correction : 96Overread into Lead-In and Lead-Out : NoFill up missing offset samples with silence : YesDelete leading and trailing silent blocks : NoNull samples used in CRC calculations : YesUsed interface : Native Win32 interface for Win NT & 2000Gap handling : Appended to previous track
Used output format : User Defined EncoderSelected bitrate : 1024 kBit/sQuality : HighAdd ID3 tag : NoCommand line compressor : C:\Program Files\Exact Audio Copy\Flac\flac.exeAdditional command line options : -8 -V -T "ARTIST=%artist%" -T "TITLE=%title%" -T "ALBUM=%albumtitle%" -T "DATE=%year%" -T "TRACKNUMBER=%tracknr%" -T "GENRE=%genre%" -T "PERFORMER=%albuminterpret%" -T "COMPOSER=%composer%" %haslyrics%--tag-from-file=LYRICS="%lyricsfile%"%haslyrics% -T "ALBUMARTIST=%albumartist%" -T "DISCNUMBER=%cdnumber%" -T "TOTALDISCS=%totalcds%" -T "TOTALTRACKS=%numtracks%" -T "COMMENT=EAC Secure Mode, Test & Copy, AccurateRip, FLAC -8" %source% -o %dest%
TOC of the extracted CD
Track | Start | Length | Start sector | End sector --------------------------------------------------------- 1 | 0:00.00 | 2:21.40 | 0 | 10614 2 | 2:21.40 | 1:58.12 | 10615 | 19476 3 | 4:19.52 | 1:33.73 | 19477 | 26524 4 | 5:53.50 | 3:06.36 | 26525 | 40510 5 | 9:00.11 | 2:26.58 | 40511 | 51518 6 | 11:26.69 | 6:30.59 | 51519 | 80827 7 | 17:57.53 | 3:58.05 | 80828 | 98682 8 | 21:55.58 | 0:45.16 | 98683 | 102073 9 | 22:40.74 | 0:54.54 | 102074 | 106177 10 | 23:35.53 | 1:01.28 | 106178 | 110780 11 | 24:37.06 | 4:27.55 | 110781 | 130860 12 | 29:04.61 | 1:10.57 | 130861 | 136167 13 | 30:15.43 | 3:03.18 | 136168 | 149910 14 | 33:18.61 | 2:31.14 | 149911 | 161249 15 | 35:50.00 | 5:39.33 | 161250 | 186707 16 | 41:29.33 | 0:52.34 | 186708 | 190641 17 | 42:21.67 | 2:14.11 | 190642 | 200702 18 | 44:36.03 | 3:48.52 | 200703 | 217854 19 | 48:24.55 | 5:59.49 | 217855 | 244828 20 | 54:24.29 | 5:33.38 | 244829 | 269841 21 | 59:57.67 | 5:25.59 | 269842 | 294275 22 | 65:23.51 | 5:27.40 | 294276 | 318840 23 | 70:51.16 | 6:03.46 | 318841 | 346111
Track 1
Filename I:\DL\Various - Gregorian Chant (2005) [FLAC]\01 - Universi qui te expectant (The Vast Corpus of Gregorian Chant).wav
Pre-gap length 0:00:02.00
Peak level 68.7 % Extraction speed 4.1 X Track quality 100.0 % Test CRC 385B0EA4 Copy CRC 385B0EA4 Accurately ripped (confidence 6) [4FEA4A06] (AR v1) Copy OK
Track 2
Filename I:\DL\Various - Gregorian Chant (2005) [FLAC]\02 - Introit- Requiem Aeternam (The Vast Corpus of Gregorian Chant).wav
Pre-gap length 0:00:01.80
Peak level 54.8 % Extraction speed 3.4 X Track quality 99.9 % Test CRC BE9B0891 Copy CRC BE9B0891 Accurately ripped (confidence 6) [1EBFE10E] (AR v1) Copy OK
Track 3
Filename I:\DL\Various - Gregorian Chant (2005) [FLAC]\03 - Kyrie eleison (The Vast Corpus of Gregorian Chant).wav
Peak level 40.0 % Extraction speed 4.0 X Track quality 100.0 % Test CRC F4A38DC7 Copy CRC F4A38DC7 Accurately ripped (confidence 6) [F094C538] (AR v1) Copy OK
Track 4
Filename I:\DL\Various - Gregorian Chant (2005) [FLAC]\04 - Graduel- Requiem aeternam (The Vast Corpus of Gregorian Chant).wav
Peak level 55.5 % Extraction speed 5.0 X Track quality 100.0 % Test CRC C4B8B2D3 Copy CRC C4B8B2D3 Accurately ripped (confidence 6) [A3094A08] (AR v1) Copy OK
Track 5
Filename I:\DL\Various - Gregorian Chant (2005) [FLAC]\05 - Trait- Absolve, Domine (The Vast Corpus of Gregorian Chant).wav
Peak level 55.9 % Extraction speed 5.0 X Track quality 100.0 % Test CRC 0AD723FA Copy CRC 0AD723FA Accurately ripped (confidence 6) [841BB319] (AR v1) Copy OK
Track 6
Filename I:\DL\Various - Gregorian Chant (2005) [FLAC]\06 - Sequence- Dies irae (The Vast Corpus of Gregorian Chant).wav
Pre-gap length 0:00:02.96
Peak level 51.7 % Extraction speed 5.7 X Track quality 99.9 % Test CRC E2C98750 Copy CRC E2C98750 Accurately ripped (confidence 6) [F1D5637F] (AR v1) Copy OK
Track 7
Filename I:\DL\Various - Gregorian Chant (2005) [FLAC]\07 - Offertoire- Domine Jesu Christe (The Vast Corpus of Gregorian Chant).wav
Pre-gap length 0:00:03.21
Peak level 53.2 % Extraction speed 5.5 X Track quality 99.9 % Test CRC 178781A7 Copy CRC 178781A7 Accurately ripped (confidence 6) [5101DB51] (AR v1) Copy OK
Track 8
Filename I:\DL\Various - Gregorian Chant (2005) [FLAC]\08 - Sanctus (The Vast Corpus of Gregorian Chant).wav
Pre-gap length 0:00:02.36
Peak level 43.2 % Extraction speed 4.0 X Track quality 100.0 % Test CRC 886AD781 Copy CRC 886AD781 Accurately ripped (confidence 6) [43307AA1] (AR v1) Copy OK
Track 9
Filename I:\DL\Various - Gregorian Chant (2005) [FLAC]\09 - Agnus Dei (The Vast Corpus of Gregorian Chant).wav
Peak level 39.1 % Extraction speed 4.3 X Track quality 100.0 % Test CRC A3BEEEA2 Copy CRC A3BEEEA2 Accurately ripped (confidence 6) [9605D15C] (AR v1) Copy OK
Track 10
Filename I:\DL\Various - Gregorian Chant (2005) [FLAC]\10 - Communion- Lux aeterna (The Vast Corpus of Gregorian Chant).wav
Pre-gap length 0:00:02.76
Peak level 40.4 % Extraction speed 3.4 X Track quality 99.8 % Test CRC 1B5E153D Copy CRC 1B5E153D Accurately ripped (confidence 6) [2B4DDF90] (AR v1) Copy OK
Track 11
Filename I:\DL\Various - Gregorian Chant (2005) [FLAC]\11 - Repons- Libera me (The Vast Corpus of Gregorian Chant).wav
Peak level 49.6 % Extraction speed 6.7 X Track quality 100.0 % Test CRC 45D29CA2 Copy CRC 45D29CA2 Accurately ripped (confidence 6) [EF54788A] (AR v1) Copy OK
Track 12
Filename I:\DL\Various - Gregorian Chant (2005) [FLAC]\12 - Antienne- In paradisum (The Vast Corpus of Gregorian Chant).wav
Peak level 21.1 % Extraction speed 5.2 X Track quality 100.0 % Test CRC D35F8B31 Copy CRC D35F8B31 Accurately ripped (confidence 6) [D2AD01AD] (AR v1) Copy OK
Track 13
Filename I:\DL\Various - Gregorian Chant (2005) [FLAC]\13 - Agnus dei- Omnipotens eterne (Mass from the Year 1000 - excerpts).wav
Pre-gap length 0:00:02.21
Peak level 77.3 % Extraction speed 5.7 X Track quality 99.9 % Test CRC 8A6514DF Copy CRC 8A6514DF Accurately ripped (confidence 6) [7E4FC009] (AR v1) Copy OK
Track 14
Filename I:\DL\Various - Gregorian Chant (2005) [FLAC]\14 - Psallite Domino (Mass from the Year 1000 - excerpts).wav
Pre-gap length 0:00:02.32
Peak level 94.9 % Extraction speed 6.6 X Track quality 100.0 % Test CRC 50A97154 Copy CRC 50A97154 Accurately ripped (confidence 6) [FA45C06A] (AR v1) Copy OK
Track 15
Filename I:\DL\Various - Gregorian Chant (2005) [FLAC]\15 - Hymne- Cives clestis patrie (Mass from the Year 1000 - excerpts).wav
Pre-gap length 0:00:02.18
Peak level 85.0 % Extraction speed 7.6 X Track quality 100.0 % Test CRC A5B91078 Copy CRC A5B91078 Accurately ripped (confidence 6) [DCA44DFD] (AR v1) Copy OK
Track 16
Filename I:\DL\Various - Gregorian Chant (2005) [FLAC]\16 - Invitatoire- Regem regum dominum (Codex Calixtinus. Plainchant for Santiago da Compostela).wav
Pre-gap length 0:00:02.97
Peak level 33.8 % Extraction speed 3.7 X Track quality 99.7 % Test CRC 22216395 Copy CRC 22216395 Accurately ripped (confidence 6) [E82989B0] (AR v1) Copy OK
Track 17
Filename I:\DL\Various - Gregorian Chant (2005) [FLAC]\17 - Repons- Iacobe servorum (Codex Calixtinus. Plainchant for Santiago da Compostela).wav
Pre-gap length 0:00:01.53
Peak level 57.5 % Extraction speed 6.7 X Track quality 100.0 % Test CRC 0B8FC72E Copy CRC 0B8FC72E Accurately ripped (confidence 6) [48960C66] (AR v1) Copy OK
Track 18
Filename I:\DL\Various - Gregorian Chant (2005) [FLAC]\18 - Offertoire- Ascendens Ihesus in montem (Codex Calixtinus. Plainchant for Santiago da Compostela).wav
Pre-gap length 0:00:02.90
Peak level 98.4 % Extraction speed 7.6 X Track quality 100.0 % Test CRC 6E3BAF41 Copy CRC 6E3BAF41 Accurately ripped (confidence 6) [8C267582] (AR v1) Copy OK
Track 19
Filename I:\DL\Various - Gregorian Chant (2005) [FLAC]\19 - In timore De (Cistercian Chant. 12th century).wav
Pre-gap length 0:00:02.49
Peak level 85.2 % Extraction speed 8.3 X Track quality 100.0 % Test CRC 64148E39 Copy CRC 64148E39 Accurately ripped (confidence 6) [4ACD9F24] (AR v1) Copy OK
Track 20
Filename I:\DL\Various - Gregorian Chant (2005) [FLAC]\20 - Testamentum eternum (Cistercian Chant. 12th century).wav
Peak level 48.1 % Extraction speed 8.5 X Track quality 100.0 % Test CRC FF3A1062 Copy CRC FF3A1062 Accurately ripped (confidence 6) [B4D3A132] (AR v1) Copy OK
Track 21
Filename I:\DL\Various - Gregorian Chant (2005) [FLAC]\21 - Dedit Dominus confessionem sancto suo (Cistercian Chant. 12th century).wav
Peak level 57.8 % Extraction speed 8.7 X Track quality 100.0 % Test CRC 593B2CF3 Copy CRC 593B2CF3 Accurately ripped (confidence 6) [58FFF0BA] (AR v1) Copy OK
Track 22
Filename I:\DL\Various - Gregorian Chant (2005) [FLAC]\22 - Anonyme- Natus est rex (Magnus Liber Organi. 12 th century).wav
Pre-gap length 0:00:03.30
Peak level 76.6 % Extraction speed 8.9 X Track quality 100.0 % Test CRC 67F1FFF1 Copy CRC 67F1FFF1 Accurately ripped (confidence 6) [1B284591] (AR v1) Copy OK
Track 23
Filename I:\DL\Various - Gregorian Chant (2005) [FLAC]\23 - Adam de St. Victor- In natale (Magnus Liber Organi. 12 th century).wav
Pre-gap length 0:00:01.70
Peak level 47.4 % Extraction speed 9.3 X Track quality 100.0 % Test CRC A8EDFBA8 Copy CRC A8EDFBA8 Accurately ripped (confidence 6) [4053D610] (AR v1) Copy OK
All tracks accurately ripped
No errors occurred
End of status report
---- CUETools DB Plugin V2.1.3
[CTDB TOCID: ZW1bOU71e8j8.aMZxcPjWe1wGN4-] found, Submit result: ZW1bOU71e8j8.aMZxcPjWe1wGN4- has been confirmed[1351a80c] (08/11) Accurately ripped[1aab1a7a] (03/11) No match
==== Log checksum A1C89C6502BBF6E08C70DACBE4419D252CAE147FE072497367DF750B0565B169 ====

LOG (.CUE):

REM GENRE ClassicalREM DATE 2005REM DISCID 4E120617REM COMMENT "ExactAudioCopy v1.0b3"PERFORMER "Various"TITLE "Gregorian Chant"FILE "01 - Universi qui te expectant (The Vast Corpus of Gregorian Chant).wav" WAVE TRACK 01 AUDIO TITLE "Universi qui te expectant (The Vast Corpus of Gregorian Chant)" PERFORMER "Various" FLAGS DCP INDEX 01 00:00:00 TRACK 02 AUDIO TITLE "Introit: Requiem Aeternam (The Vast Corpus of Gregorian Chant)" PERFORMER "Various" FLAGS DCP INDEX 00 02:19:55FILE "02 - Introit- Requiem Aeternam (The Vast Corpus of Gregorian Chant).wav" WAVE INDEX 01 00:00:00FILE "03 - Kyrie eleison (The Vast Corpus of Gregorian Chant).wav" WAVE TRACK 03 AUDIO TITLE "Kyrie eleison (The Vast Corpus of Gregorian Chant)" PERFORMER "Various" FLAGS DCP INDEX 01 00:00:00FILE "04 - Graduel- Requiem aeternam (The Vast Corpus of Gregorian Chant).wav" WAVE TRACK 04 AUDIO TITLE "Graduel: Requiem aeternam (The Vast Corpus of Gregorian Chant)" PERFORMER "Various" FLAGS DCP INDEX 01 00:00:00FILE "05 - Trait- Absolve, Domine (The Vast Corpus of Gregorian Chant).wav" WAVE TRACK 05 AUDIO TITLE "Trait: Absolve, Domine (The Vast Corpus of Gregorian Chant)" PERFORMER "Various" FLAGS DCP INDEX 01 00:00:00 TRACK 06 AUDIO TITLE "Sequence: Dies irae (The Vast Corpus of Gregorian Chant)" PERFORMER "Various" FLAGS DCP INDEX 00 02:23:61FILE "06 - Sequence- Dies irae (The Vast Corpus of Gregorian Chant).wav" WAVE INDEX 01 00:00:00 TRACK 07 AUDIO TITLE "Offertoire: Domine Jesu Christe (The Vast Corpus of Gregorian Chant)" PERFORMER "Various" FLAGS DCP INDEX 00 06:27:43FILE "07 - Offertoire- Domine Jesu Christe (The Vast Corpus of Gregorian Chant).wav" WAVE INDEX 01 00:00:00 TRACK 08 AUDIO TITLE "Sanctus (The Vast Corpus of Gregorian Chant)" PERFORMER "Various" FLAGS DCP INDEX 00 03:55:53FILE "08 - Sanctus (The Vast Corpus of Gregorian Chant).wav" WAVE INDEX 01 00:00:00FILE "09 - Agnus Dei (The Vast Corpus of Gregorian Chant).wav" WAVE TRACK 09 AUDIO TITLE "Agnus Dei (The Vast Corpus of Gregorian Chant)" PERFORMER "Various" FLAGS DCP INDEX 01 00:00:00 TRACK 10 AUDIO TITLE "Communion: Lux aeterna (The Vast Corpus of Gregorian Chant)" PERFORMER "Various" FLAGS DCP INDEX 00 00:51:72FILE "10 - Communion- Lux aeterna (The Vast Corpus of Gregorian Chant).wav" WAVE INDEX 01 00:00:00FILE "11 - Repons- Libera me (The Vast Corpus of Gregorian Chant).wav" WAVE TRACK 11 AUDIO TITLE "Repons: Libera me (The Vast Corpus of Gregorian Chant)" PERFORMER "Various" FLAGS DCP INDEX 01 00:00:00FILE "12 - Antienne- In paradisum (The Vast Corpus of Gregorian Chant).wav" WAVE TRACK 12 AUDIO TITLE "Antienne: In paradisum (The Vast Corpus of Gregorian Chant)" PERFORMER "Various" FLAGS DCP INDEX 01 00:00:00 TRACK 13 AUDIO TITLE "Agnus dei: Omnipotens eterne (Mass from the Year 1000 - excerpts)" PERFORMER "Various" FLAGS DCP INDEX 00 01:08:41FILE "13 - Agnus dei- Omnipotens eterne (Mass from the Year 1000 - excerpts).wav" WAVE INDEX 01 00:00:00 TRACK 14 AUDIO TITLE "Psallite Domino (Mass from the Year 1000 - excerpts)" PERFORMER "Various" FLAGS DCP INDEX 00 03:00:69FILE "14 - Psallite Domino (Mass from the Year 1000 - excerpts).wav" WAVE INDEX 01 00:00:00 TRACK 15 AUDIO TITLE "Hymne: Cives clestis patrie (Mass from the Year 1000 - excerpts)" PERFORMER "Various" FLAGS DCP INDEX 00 02:29:00FILE "15 - Hymne- Cives clestis patrie (Mass from the Year 1000 - excerpts).wav" WAVE INDEX 01 00:00:00 TRACK 16 AUDIO TITLE "Invitatoire: Regem regum dominum (Codex Calixtinus. Plainchant for Santiago d..." PERFORMER "Various" FLAGS DCP INDEX 00 05:36:35FILE "16 - Invitatoire- Regem regum dominum (Codex Calixtinus. Plainchant for Santiago da Compostela).wav" WAVE INDEX 01 00:00:00 TRACK 17 AUDIO TITLE "Repons: Iacobe servorum (Codex Calixtinus. Plainchant for Santiago da Compost..." PERFORMER "Various" FLAGS DCP INDEX 00 00:50:69FILE "17 - Repons- Iacobe servorum (Codex Calixtinus. Plainchant for Santiago da Compostela).wav" WAVE INDEX 01 00:00:00 TRACK 18 AUDIO TITLE "Offertoire: Ascendens Ihesus in montem (Codex Calixtinus. Plainchant for Sant..." PERFORMER "Various" FLAGS DCP INDEX 00 02:11:18FILE "18 - Offertoire- Ascendens Ihesus in montem (Codex Calixtinus. Plainchant for Santiago da Compostela).wav" WAVE INDEX 01 00:00:00 TRACK 19 AUDIO TITLE "In timore De (Cistercian Chant. 12th century)" PERFORMER "Various" FLAGS DCP INDEX 00 03:46:15FILE "19 - In timore De (Cistercian Chant. 12th century).wav" WAVE INDEX 01 00:00:00FILE "20 - Testamentum eternum (Cistercian Chant. 12th century).wav" WAVE TRACK 20 AUDIO TITLE "Testamentum eternum (Cistercian Chant. 12th century)" PERFORMER "Various" FLAGS DCP INDEX 01 00:00:00FILE "21 - Dedit Dominus confessionem sancto suo (Cistercian Chant. 12th century).wav" WAVE TRACK 21 AUDIO TITLE "Dedit Dominus confessionem sancto suo (Cistercian Chant. 12th century)" PERFORMER "Various" FLAGS DCP INDEX 01 00:00:00 TRACK 22 AUDIO TITLE "Anonyme: Natus est rex (Magnus Liber Organi. 12 th century)" PERFORMER "Various" FLAGS DCP INDEX 00 05:22:36FILE "22 - Anonyme- Natus est rex (Magnus Liber Organi. 12 th century).wav" WAVE INDEX 01 00:00:00 TRACK 23 AUDIO TITLE "Adam de St. Victor: In natale (Magnus Liber Organi. 12 th century)" PERFORMER "Various" FLAGS DCP INDEX 00 05:25:62FILE "23 - Adam de St. Victor- In natale (Magnus Liber Organi. 12 th century).wav" WAVE INDEX 01 00:00:00

CD 04 - Minnesanger and other courtly arts (76'17"):

Треклист:
01 - En Langue d'Oc, Les Troubadours (XIe-XIIe siecles) - A l'entrada del temps clar (Anonyme fin XIIe siecle)
02 - En Langue d'Oc, Les Troubadours (XIe-XIIe siecles) - Bernart de Ventadorn (1130-1180) - Vida
03 - En Langue d'Oc, Les Troubadours (XIe-XIIe siecles) - Folquet de Marselha (1180-1231) - Sitot me soi
04 - En Langue d'Oil, Les Trouveres (XIIe-XIIIe siecles) - Volez vous que je vous chant (Anonyme)
05 - En Langue d'Oil, Les Trouveres (XIIe-XIIIe siecles) - Gautier de Coincy (1167-1236) - Efforcier m'estuet ma voix
06 - En Langue d'Oil, Les Trouveres (XIIe-XIIIe siecles) - Gautier de Coincy (1167-1236) - Conduit - Hyer matin a l'enjornee
07 - En Langue d'Oil, Les Trouveres (XIIe-XIIIe siecles) - Gautier de Coincy (1167-1236) - Motet - Hyer matin - Benedicamus Domino
08 - En Langue d'Oil, Les Trouveres (XIIe-XIIIe siecles) - Gautier de Coincy (1167-1236) - Ja pour yver
09 - En Langue d'Oil, Les Trouveres (XIIe-XIIIe siecles) - Thibaut de Champagne (1201-1253) - Deus est ensi comme li pellicanz
10 - En Langue d'Oil, Les Trouveres (XIIe-XIIIe siecles) - Adam de la Halle (1240-1287) - Entre Adan et Anikel - Chies bien seans
11 - En Espagne - Cantigas de Santa Maria (Alphonse le Sage, XIIIe siecle) - Bailemos nos ja todas tres
12 - En Espagne - Cantigas de Santa Maria (Alphonse le Sage, XIIIe siecle) - Todos los santos
13 - En Espagne - Cantigas de Santa Maria (Alphonse le Sage, XIIIe siecle) - Martin Codax (1250-1275) - Quantas sabedes amar
14 - En Allemagne - Les Minnesanger (Empire romain germanique, XIIIe siecle) - Neidhart von Reuental (1180-1237) - Sic an, guldin huon !
15 - En Allemagne - Les Minnesanger (Empire romain germanique, XIIIe siecle) - Tannhauser (1205-1270) - Ich lobe ein wip
16 - En Allemagne - Les Minnesanger (Empire romain germanique, XIIIe siecle) - Neidhart von Reuental - Owe dirre not
17 - Les Manuscrit des Carmina Burana (XIIIe siecle) - Bacche, bene venies
18 - Les Manuscrit des Carmina Burana (XIIIe siecle) - Deduc Syon uberrimas

LOG EAC CD:

Exact Audio Copy V1.0 beta 3 from 29. August 2011
EAC extraction logfile from 14. July 2012, 11:45
Various / Touveres & Troubadours
Used drive : PLEXTOR DVDR PX-860A Adapter: 0 ID: 0
Read mode : SecureUtilize accurate stream : YesDefeat audio cache : YesMake use of C2 pointers : No
Read offset correction : 96Overread into Lead-In and Lead-Out : NoFill up missing offset samples with silence : YesDelete leading and trailing silent blocks : NoNull samples used in CRC calculations : YesUsed interface : Native Win32 interface for Win NT & 2000Gap handling : Appended to previous track
Used output format : User Defined EncoderSelected bitrate : 1024 kBit/sQuality : HighAdd ID3 tag : NoCommand line compressor : C:\Program Files\Exact Audio Copy\Flac\flac.exeAdditional command line options : -8 -V -T "ARTIST=%artist%" -T "TITLE=%title%" -T "ALBUM=%albumtitle%" -T "DATE=%year%" -T "TRACKNUMBER=%tracknr%" -T "GENRE=%genre%" -T "PERFORMER=%albuminterpret%" -T "COMPOSER=%composer%" %haslyrics%--tag-from-file=LYRICS="%lyricsfile%"%haslyrics% -T "ALBUMARTIST=%albumartist%" -T "DISCNUMBER=%cdnumber%" -T "TOTALDISCS=%totalcds%" -T "TOTALTRACKS=%numtracks%" -T "COMMENT=EAC Secure Mode, Test & Copy, AccurateRip, FLAC -8" %source% -o %dest%
TOC of the extracted CD
Track | Start | Length | Start sector | End sector --------------------------------------------------------- 1 | 0:00.00 | 2:48.20 | 0 | 12619 2 | 2:48.20 | 2:37.55 | 12620 | 24449 3 | 5:26.00 | 11:13.04 | 24450 | 74928 4 | 16:39.04 | 4:36.45 | 74929 | 95673 5 | 21:15.49 | 1:49.35 | 95674 | 103883 6 | 23:05.09 | 0:54.29 | 103884 | 107962 7 | 23:59.38 | 1:02.32 | 107963 | 112644 8 | 25:01.70 | 13:34.32 | 112645 | 173726 9 | 38:36.27 | 4:45.00 | 173727 | 195101 10 | 43:21.27 | 1:13.52 | 195102 | 200628 11 | 44:35.04 | 2:57.37 | 200629 | 213940 12 | 47:32.41 | 3:05.50 | 213941 | 227865 13 | 50:38.16 | 5:55.71 | 227866 | 254561 14 | 56:34.12 | 6:13.56 | 254562 | 282592 15 | 62:47.68 | 3:32.00 | 282593 | 298492 16 | 66:19.68 | 4:00.05 | 298493 | 316497 17 | 70:19.73 | 3:02.69 | 316498 | 330216 18 | 73:22.67 | 2:55.10 | 330217 | 343351
Track 1
Filename I:\DL\Various Artists - Touveres & Troubadours (2005) [FLAC]\01 - En Langue d'Oc, Les Troubadours (XIe-XIIe siecles) - A l'entrada del temps clar (Anonyme fin XIIe siecle).wav
Pre-gap length 0:00:02.00
Peak level 78.3 % Extraction speed 4.3 X Track quality 100.0 % Test CRC C01D7723 Copy CRC C01D7723 Accurately ripped (confidence 2) [D3FE85A6] (AR v2) Copy OK
Track 2
Filename I:\DL\Various Artists - Touveres & Troubadours (2005) [FLAC]\02 - En Langue d'Oc, Les Troubadours (XIe-XIIe siecles) - Bernart de Ventadorn (1130-1180) - Vida.wav
Peak level 59.0 % Extraction speed 4.5 X Track quality 100.0 % Test CRC DE7B391D Copy CRC DE7B391D Accurately ripped (confidence 2) [02F33BAC] (AR v2) Copy OK
Track 3
Filename I:\DL\Various Artists - Touveres & Troubadours (2005) [FLAC]\03 - En Langue d'Oc, Les Troubadours (XIe-XIIe siecles) - Folquet de Marselha (1180-1231) - Sitot me soi.wav
Peak level 66.9 % Extraction speed 6.0 X Track quality 100.0 % Test CRC 40EC6C3C Copy CRC 40EC6C3C Accurately ripped (confidence 2) [2B9F2F03] (AR v2) Copy OK
Track 4
Filename I:\DL\Various Artists - Touveres & Troubadours (2005) [FLAC]\04 - En Langue d'Oil, Les Trouveres (XIIe-XIIIe siecles) - Volez vous que je vous chant (Anonyme).wav
Pre-gap length 0:00:04.54
Peak level 41.9 % Extraction speed 6.2 X Track quality 100.0 % Test CRC C28F76CE Copy CRC C28F76CE Accurately ripped (confidence 2) [6F82955F] (AR v2) Copy OK
Track 5
Filename I:\DL\Various Artists - Touveres & Troubadours (2005) [FLAC]\05 - En Langue d'Oil, Les Trouveres (XIIe-XIIIe siecles) - Gautier de Coincy (1167-1236) - Efforcier m'estuet ma voix.wav
Peak level 98.8 % Extraction speed 5.4 X Track quality 100.0 % Test CRC A47A9CBC Copy CRC A47A9CBC Accurately ripped (confidence 2) [92809315] (AR v2) Copy OK
Track 6
Filename I:\DL\Various Artists - Touveres & Troubadours (2005) [FLAC]\06 - En Langue d'Oil, Les Trouveres (XIIe-XIIIe siecles) - Gautier de Coincy (1167-1236) - Conduit - Hyer matin a l'enjornee.wav
Peak level 16.6 % Extraction speed 4.4 X Track quality 100.0 % Test CRC EFB27262 Copy CRC EFB27262 Accurately ripped (confidence 2) [27DF35B4] (AR v2) Copy OK
Track 7
Filename I:\DL\Various Artists - Touveres & Troubadours (2005) [FLAC]\07 - En Langue d'Oil, Les Trouveres (XIIe-XIIIe siecles) - Gautier de Coincy (1167-1236) - Motet - Hyer matin - Benedicamus Domino.wav
Peak level 24.5 % Extraction speed 3.5 X Track quality 99.8 % Test CRC B8148347 Copy CRC B8148347 Accurately ripped (confidence 2) [B5447B88] (AR v2) Copy OK
Track 8
Filename I:\DL\Various Artists - Touveres & Troubadours (2005) [FLAC]\08 - En Langue d'Oil, Les Trouveres (XIIe-XIIIe siecles) - Gautier de Coincy (1167-1236) - Ja pour yver.wav
Peak level 87.5 % Extraction speed 7.6 X Track quality 100.0 % Test CRC 0354C5B4 Copy CRC 0354C5B4 Accurately ripped (confidence 2) [0B2907A4] (AR v2) Copy OK
Track 9
Filename I:\DL\Various Artists - Touveres & Troubadours (2005) [FLAC]\09 - En Langue d'Oil, Les Trouveres (XIIe-XIIIe siecles) - Thibaut de Champagne (1201-1253) - Deus est ensi comme li pellicanz.wav
Peak level 30.8 % Extraction speed 7.6 X Track quality 100.0 % Test CRC 1F7EAB8A Copy CRC 1F7EAB8A Accurately ripped (confidence 2) [920BDE16] (AR v2) Copy OK
Track 10
Filename I:\DL\Various Artists - Touveres & Troubadours (2005) [FLAC]\10 - En Langue d'Oil, Les Trouveres (XIIe-XIIIe siecles) - Adam de la Halle (1240-1287) - Entre Adan et Anikel - Chies bien seans.wav
Peak level 46.0 % Extraction speed 4.4 X Track quality 99.8 % Test CRC B9BC673E Copy CRC B9BC673E Accurately ripped (confidence 2) [1DA97CE0] (AR v2) Copy OK
Track 11
Filename I:\DL\Various Artists - Touveres & Troubadours (2005) [FLAC]\11 - En Espagne - Cantigas de Santa Maria (Alphonse le Sage, XIIIe siecle) - Bailemos nos ja todas tres.wav
Pre-gap length 0:00:04.98
Peak level 58.2 % Extraction speed 7.3 X Track quality 100.0 % Test CRC D45FD83C Copy CRC D45FD83C Accurately ripped (confidence 2) [2C4786C4] (AR v2) Copy OK
Track 12
Filename I:\DL\Various Artists - Touveres & Troubadours (2005) [FLAC]\12 - En Espagne - Cantigas de Santa Maria (Alphonse le Sage, XIIIe siecle) - Todos los santos.wav
Peak level 64.3 % Extraction speed 7.6 X Track quality 100.0 % Test CRC CC3C3096 Copy CRC CC3C3096 Accurately ripped (confidence 2) [B07C2871] (AR v2) Copy OK
Track 13
Filename I:\DL\Various Artists - Touveres & Troubadours (2005) [FLAC]\13 - En Espagne - Cantigas de Santa Maria (Alphonse le Sage, XIIIe siecle) - Martin Codax (1250-1275) - Quantas sabedes amar.wav
Peak level 38.6 % Extraction speed 8.4 X Track quality 100.0 % Test CRC 1156B3E5 Copy CRC 1156B3E5 Accurately ripped (confidence 2) [62E986D3] (AR v2) Copy OK
Track 14
Filename I:\DL\Various Artists - Touveres & Troubadours (2005) [FLAC]\14 - En Allemagne - Les Minnesanger (Empire romain germanique, XIIIe siecle) - Neidhart von Reuental (1180-1237) - Sic an, guldin huon !.wav
Pre-gap length 0:00:04.80
Peak level 45.9 % Extraction speed 8.7 X Track quality 100.0 % Test CRC D9F65D50 Copy CRC D9F65D50 Accurately ripped (confidence 2) [92E6F9E9] (AR v2) Copy OK
Track 15
Filename I:\DL\Various Artists - Touveres & Troubadours (2005) [FLAC]\15 - En Allemagne - Les Minnesanger (Empire romain germanique, XIIIe siecle) - Tannhauser (1205-1270) - Ich lobe ein wip.wav
Peak level 71.7 % Extraction speed 8.3 X Track quality 100.0 % Test CRC 62773D8C Copy CRC 62773D8C Accurately ripped (confidence 2) [1E0658DC] (AR v2) Copy OK
Track 16
Filename I:\DL\Various Artists - Touveres & Troubadours (2005) [FLAC]\16 - En Allemagne - Les Minnesanger (Empire romain germanique, XIIIe siecle) - Neidhart von Reuental - Owe dirre not.wav
Peak level 71.8 % Extraction speed 8.6 X Track quality 100.0 % Test CRC 1B114F3B Copy CRC 1B114F3B Accurately ripped (confidence 2) [F0B2F130] (AR v2) Copy OK
Track 17
Filename I:\DL\Various Artists - Touveres & Troubadours (2005) [FLAC]\17 - Les Manuscrit des Carmina Burana (XIIIe siecle) - Bacche, bene venies.wav
Peak level 82.2 % Extraction speed 7.3 X Track quality 99.9 % Test CRC 749F93C0 Copy CRC 749F93C0 Accurately ripped (confidence 2) [CC7F74E8] (AR v2) Copy OK
Track 18
Filename I:\DL\Various Artists - Touveres & Troubadours (2005) [FLAC]\18 - Les Manuscrit des Carmina Burana (XIIIe siecle) - Deduc Syon uberrimas.wav
Peak level 65.7 % Extraction speed 8.4 X Track quality 100.0 % Test CRC 025D2A5A Copy CRC 025D2A5A Accurately ripped (confidence 2) [2FF9AAF8] (AR v2) Copy OK
All tracks accurately ripped
No errors occurred
End of status report
---- CUETools DB Plugin V2.1.3
[CTDB TOCID: dAYftR1hrNpsTxRzoZp38zekPaQ-] found, Submit result: dAYftR1hrNpsTxRzoZp38zekPaQ- has been confirmed[5956600b] (8/8) Accurately ripped
==== Log checksum CA6E2807D4C73870D1A803EEDD2E1CDF1F895D0E486085796118678E6C203FC6 ====

LOG (.CUE):

REM GENRE ClassicalREM DATE 2005REM DISCID F111E212REM COMMENT "ExactAudioCopy v1.0b3"PERFORMER "Various"TITLE "Touveres & Troubadours"FILE "01 - En Langue d'Oc, Les Troubadours (XIe-XIIe siecles) - A l'entrada del temps clar (Anonyme fin XIIe siecle).wav" WAVE TRACK 01 AUDIO TITLE "A l'entrada del temps clar (Anonyme fin XIIe siиcle)" PERFORMER "En Langue d'Oc, Les Troubadours (XIe-XIIe siиcles)" FLAGS DCP INDEX 01 00:00:00FILE "02 - En Langue d'Oc, Les Troubadours (XIe-XIIe siecles) - Bernart de Ventadorn (1130-1180) - Vida.wav" WAVE TRACK 02 AUDIO TITLE "Bernart de Ventadorn (1130-1180) : Vida" PERFORMER "En Langue d'Oc, Les Troubadours (XIe-XIIe siиcles)" FLAGS DCP INDEX 01 00:00:00FILE "03 - En Langue d'Oc, Les Troubadours (XIe-XIIe siecles) - Folquet de Marselha (1180-1231) - Sitot me soi.wav" WAVE TRACK 03 AUDIO TITLE "Folquet de Marselha (1180-1231) : Sitot me soi" PERFORMER "En Langue d'Oc, Les Troubadours (XIe-XIIe siиcles)" FLAGS DCP INDEX 01 00:00:00 TRACK 04 AUDIO TITLE "Volez vous que je vous chant (Anonyme)" PERFORMER "En Langue d'Oil, Les Trouvиres (XIIe-XIIIe siиcles)" FLAGS DCP INDEX 00 11:08:38FILE "04 - En L
[teatrix.ru].t9718.torrent 
Торрент: Зарегистрирован [ 2015-10-23 17:11 ] · 6F364FF4C12737F3F8E91F6B2DEA214A84059C74

Скачать .torrent

Скачать

69 KB

Статус: проверено
Скачан: 2 раз
Размер: 4.11 GB
terms.php



Быстрый ответ

Имя:

      
Для отправки сообщений необходимо включить JavaScript
Показать сообщения:    

Текущее время: 20-Янв 14:59

Часовой пояс: UTC + 3


Вы можете начинать темы
Вы можете отвечать на сообщения
Вы не можете редактировать свои сообщения
Вы не можете удалять свои сообщения
Вы не можете голосовать в опросах
Вы не можете прикреплять файлы к сообщениям
Вы можете скачивать файлы