(Classical, 20th century) Reinbert de Leeuw - 75 Years - Martin, Janacek, Стравинский, Gorecki, Vivier, Губайдулина, Уствольская, Antheil, Messiaen - Netherlands Chamber Choir, Schoenberg Ensemble, Asko Ensemble -8CD- 2013, FLAC (image+.cue) lossless


Статистика раздачи [Обновить пиров]
Размер:  1.77 GB   |    Зарегистрирован:  1 год 1 месяц   |    Скачан:  0 раз

Полного источника не было: Никогда

Личеров:  1  [  0 KB/s  ]   Подробная статистика пиров
 
   
 
 
 

[Цитировать]

Reinbert de Leeuw - 75 Years - Martin, Janáček, Стравинский, Górecki, Vivier, Губайдулина, Уствольская, Antheil, Messiaen
Жанр: Classical, 20th century
Страна-производитель диска: The Netherlands
Год издания диска: 2013
Издатель (лейбл): Decca
Дата записи: 1977-1996
Аудиокодек: FLAC
Тип рипа: image+.cue
Битрейт аудио: lossless
Продолжительность: 8:30:22
Источник: собственный рип
Наличие сканов в содержимом раздачи: да
Треклист:

CD1: Frank Martin

Frank Martin (1890-1974)
[1]-[23] Die Weise von Liebe und Tod des Cornets Christoph Rilke
für Alt und Kammerorchester (nach der Dichtung von Rainer Maria Rilke)
Jard van Nes alto
Nieuw Sinfonietta Amsterdam
Reinbert de Leeuw

CD2: Leoš Janáček

Leoš Janáček (1854-1928)
[1] Kacena divoká - The Wild Duck
[2] Holubička - The Dove
[3] Což ta naše bříza - Our Birch Tree
[4] Elegie na smrt dcery Olgy - Elegy on the Death of Daughter Olga
[5] Kantor Halfar - Teacher Halfar
[6] Vlčí stopa - The Wolfs Trail
[7]-[9] Hradčanské písničky
[10] Potulný silence - The Wandering Madman
[11] Říkadla - Nursery Rhymes
Netherlands Chamber Choir
Schönberg Ensemble
Reinbert de Leeuw

CD3: Игорь Стравинский

Игорь Стравинский (1882-1971)
[1]-[5] Месса
[6] Отче наш
[7] Символ веры
[8] Богородице дево, радуйся
[9]-[11] Tres sacrae antiones Carlo Gesualdo
[12] Anthem T.S.Eliot
[13] Introitus
[14]-[20] Cantata
Rosemary Hardy soprano (Cantata)
Ian Bostridge tenor (Cantata)
Netherlands Chamber Choir
Schönberg Ensemble
Reinbert de Leeuw

CD4: Henryk Mikołaj Górecki

Henryk Gorecki (1933-2010)
[1]-[4] Kleines Requiem für eine Polka, Op.66
for piano and 13 instruments
[5]-[7] Lerchenmusik, Op.53
Harmen de Boer clarinet (Op.53)
Larissa Groeneveld cello (Op.53)
Schönberg Ensemble
Reinbert de Leeuw
piano, conductor

CD5: Claude Vivier

Claude Vivier (1948-1983)
[1] Prologue pour un Marco Polo
[2] Bouchara
[3] Zipangu
[4] Lonely Child
Susan Narucki soprano (1, 2, 4)
Alison Wells soprano (1)
Helena Rasker alto (1)
Peter Hall tenor (1)
James Ottaway baritone(1)
Harry van der Kamp bass (1)
Johan Leysen speaker (1)
Schönberg Ensemble
Asko Ensemble
Reinbert de Leeuw
conductor

CD6: София Губайдулина

София Губайдулина (1931)
[1]-[5] Jetzt immer Schnee
[6]-[18] Perception
Stella Kleindienst soprano ([6]-[18])
Siegfried Lorenz baritone ([6]-[18])
Leonid Stasov speaker ([1]-[5])
Netherlands Chamber Choir ([1]-[5])
Schönberg Ensemble
Reinbert de Leeuw

CD7: Галина Уствольская

Галина Уствольская (1919-2006)
[1]-[3] Composition I Dona nobis pacem
[4]-[13] Composition II Dies irae
[14] Composition III Benedictus qui venit
Schönberg Ensemble
Reinbert de Leeuw

CD8: Olivier Messiaen, George Antheil

Olivier Messiaen (1908-1992)
[1]-[8] Quatuor pour la fin de Temps
Reinbert de Leeuw piano
Vera Beths violin
George Pieterson clarinet
Anner Bijlsma cello
George Antheil (1900-1959)
[9] Ballet Mécanique
[10] A Jazz Symphony
Nederlands Blazersensemble
Reinbert de Leeuw
Исполнители:
Netherlands Chamber Choir
Schönberg Ensemble
Reinbert de Leeuw

CD1

Exact Audio Copy V1.0 beta 3 from 29. August 2011
EAC extraction logfile from 26. April 2014, 15:43
Jard van Nes, Nieuw Sinfonietta Amsterdam, Reinbert de Leeuw / Martin - Die Weise von Liebe und Tod des Cornets Christoph Rilke
Used drive : HL-DT-STDVDRAM GSA-4083N Adapter: 1 ID: 0
Read mode : SecureUtilize accurate stream : YesDefeat audio cache : YesMake use of C2 pointers : No
Read offset correction : 667Overread into Lead-In and Lead-Out : NoFill up missing offset samples with silence : YesDelete leading and trailing silent blocks : NoNull samples used in CRC calculations : YesUsed interface : Native Win32 interface for Win NT & 2000
Used output format : User Defined EncoderSelected bitrate : 896 kBit/sQuality : HighAdd ID3 tag : NoCommand line compressor : C:\Program Files\Exact Audio Copy\Flac\flac.exeAdditional command line options : -V -8 %source%
TOC of the extracted CD
Track | Start | Length | Start sector | End sector --------------------------------------------------------- 1 | 0:00.33 | 4:29.00 | 33 | 20207 2 | 4:29.33 | 2:15.00 | 20208 | 30332 3 | 6:44.33 | 3:16.00 | 30333 | 45032 4 | 10:00.33 | 4:01.00 | 45033 | 63107 5 | 14:01.33 | 3:08.00 | 63108 | 77207 6 | 17:09.33 | 2:15.52 | 77208 | 87384 7 | 19:25.10 | 2:49.23 | 87385 | 100082 8 | 22:14.33 | 3:11.37 | 100083 | 114444 9 | 25:25.70 | 2:49.38 | 114445 | 127157 10 | 28:15.33 | 1:38.00 | 127158 | 134507 11 | 29:53.33 | 2:54.32 | 134508 | 147589 12 | 32:47.65 | 4:07.03 | 147590 | 166117 13 | 36:54.68 | 2:15.40 | 166118 | 176282 14 | 39:10.33 | 2:24.70 | 176283 | 187152 15 | 41:35.28 | 3:21.22 | 187153 | 202249 16 | 44:56.50 | 3:14.58 | 202250 | 216857 17 | 48:11.33 | 1:21.57 | 216858 | 222989 18 | 49:33.15 | 1:34.70 | 222990 | 230109 19 | 51:08.10 | 1:20.35 | 230110 | 236144 20 | 52:28.45 | 1:03.03 | 236145 | 240872 21 | 53:31.48 | 1:32.05 | 240873 | 247777 22 | 55:03.53 | 3:49.12 | 247778 | 264964 23 | 58:52.65 | 2:05.43 | 264965 | 274382
Range status and errors
Selected range
Filename J:\New Music\Reinbert de Leeuw - 75 Years\Reinbert de Leeuw - CD1.wav
Peak level 100.0 % Extraction speed 2.6 X Range quality 100.0 % Test CRC 9E78318D Copy CRC 9E78318D Copy OK
No errors occurred
AccurateRip summary
Track 1 accurately ripped (confidence 2) [BBEF5A07] (AR v2)Track 2 accurately ripped (confidence 2) [89C2578B] (AR v2)Track 3 accurately ripped (confidence 2) [F0B352DB] (AR v2)Track 4 accurately ripped (confidence 2) [BA68740E] (AR v2)Track 5 accurately ripped (confidence 2) [77C662D5] (AR v2)Track 6 accurately ripped (confidence 2) [85147792] (AR v2)Track 7 accurately ripped (confidence 2) [C4C9A368] (AR v2)Track 8 accurately ripped (confidence 2) [6905DC41] (AR v2)Track 9 accurately ripped (confidence 2) [57C6FD1E] (AR v2)Track 10 accurately ripped (confidence 2) [6F249FA1] (AR v2)Track 11 accurately ripped (confidence 2) [3186C19B] (AR v2)Track 12 accurately ripped (confidence 2) [4BD8FA15] (AR v2)Track 13 accurately ripped (confidence 2) [D09FE3AA] (AR v2)Track 14 accurately ripped (confidence 2) [42688A39] (AR v2)Track 15 accurately ripped (confidence 2) [5C655F95] (AR v2)Track 16 accurately ripped (confidence 2) [66921776] (AR v2)Track 17 accurately ripped (confidence 2) [7419B2D1] (AR v2)Track 18 accurately ripped (confidence 2) [6319E31E] (AR v2)Track 19 accurately ripped (confidence 2) [9D69B359] (AR v2)Track 20 accurately ripped (confidence 2) [6D316A7E] (AR v2)Track 21 accurately ripped (confidence 2) [614D6F6F] (AR v2)Track 22 accurately ripped (confidence 2) [6BABAE9D] (AR v2)Track 23 accurately ripped (confidence 2) [F3D131E7] (AR v2)
All tracks accurately ripped
End of status report
==== Log checksum F4FB064742F575E78131FF62A7DBCF96FEC59A4C26407CFFE3576E5ACD6B637F ====

CD2

Exact Audio Copy V1.0 beta 3 from 29. August 2011
EAC extraction logfile from 26. April 2014, 16:37
Netherlands Chamber Choir, Schönberg Ensemble, Reinbert De Leeuw / Janacek - Choral Works
Used drive : HL-DT-STDVDRAM GSA-4083N Adapter: 1 ID: 0
Read mode : SecureUtilize accurate stream : YesDefeat audio cache : YesMake use of C2 pointers : No
Read offset correction : 667Overread into Lead-In and Lead-Out : NoFill up missing offset samples with silence : YesDelete leading and trailing silent blocks : NoNull samples used in CRC calculations : YesUsed interface : Native Win32 interface for Win NT & 2000
Used output format : User Defined EncoderSelected bitrate : 896 kBit/sQuality : HighAdd ID3 tag : NoCommand line compressor : C:\Program Files\Exact Audio Copy\Flac\flac.exeAdditional command line options : -V -8 %source%
TOC of the extracted CD
Track | Start | Length | Start sector | End sector --------------------------------------------------------- 1 | 0:00.33 | 2:48.00 | 33 | 12632 2 | 2:48.33 | 2:42.00 | 12633 | 24782 3 | 5:30.33 | 2:16.00 | 24783 | 34982 4 | 7:46.33 | 6:20.00 | 34983 | 63482 5 | 14:06.33 | 4:48.00 | 63483 | 85082 6 | 18:54.33 | 7:19.00 | 85083 | 118007 7 | 26:13.33 | 3:04.00 | 118008 | 131807 8 | 29:17.33 | 3:43.00 | 131808 | 148532 9 | 33:00.33 | 8:13.00 | 148533 | 185507 10 | 41:13.33 | 4:33.00 | 185508 | 205982 11 | 45:46.33 | 14:08.00 | 205983 | 269582
Range status and errors
Selected range
Filename J:\New Music\Reinbert de Leeuw - 75 Years\Reinbert de Leeuw - CD2.wav
Peak level 76.3 % Extraction speed 2.6 X Range quality 100.0 % Test CRC 6EA13C6A Copy CRC 6EA13C6A Copy OK
No errors occurred
AccurateRip summary
Track 1 accurately ripped (confidence 2) [0A5DD0E0] (AR v2)Track 2 accurately ripped (confidence 2) [3BD01A14] (AR v2)Track 3 accurately ripped (confidence 2) [95B3FA35] (AR v2)Track 4 accurately ripped (confidence 2) [169FCADB] (AR v2)Track 5 accurately ripped (confidence 2) [C90A823E] (AR v2)Track 6 accurately ripped (confidence 2) [B5564718] (AR v2)Track 7 accurately ripped (confidence 2) [651203F6] (AR v2)Track 8 accurately ripped (confidence 2) [6FD8E061] (AR v2)Track 9 accurately ripped (confidence 2) [A3036CC2] (AR v2)Track 10 accurately ripped (confidence 2) [692212D1] (AR v2)Track 11 accurately ripped (confidence 2) [922ECB65] (AR v2)
All tracks accurately ripped
End of status report
==== Log checksum DB9F2B636C2CF2502DA81C2E1F7D5DACEC1F87A390F24F80A20275F4D4D01C55 ====

CD3

Exact Audio Copy V1.0 beta 3 from 29. August 2011
EAC extraction logfile from 27. April 2014, 2:20
Netherlands Chamber Choir, Reinbert De Leeuw / Stravinsky - Sacred Choral Works
Used drive : HL-DT-STDVDRAM GSA-4083N Adapter: 1 ID: 0
Read mode : SecureUtilize accurate stream : YesDefeat audio cache : YesMake use of C2 pointers : No
Read offset correction : 667Overread into Lead-In and Lead-Out : NoFill up missing offset samples with silence : YesDelete leading and trailing silent blocks : NoNull samples used in CRC calculations : YesUsed interface : Native Win32 interface for Win NT & 2000
Used output format : User Defined EncoderSelected bitrate : 896 kBit/sQuality : HighAdd ID3 tag : NoCommand line compressor : C:\Program Files\Exact Audio Copy\Flac\flac.exeAdditional command line options : -V -8 %source%
TOC of the extracted CD
Track | Start | Length | Start sector | End sector --------------------------------------------------------- 1 | 0:00.33 | 2:53.00 | 33 | 13007 2 | 2:53.33 | 3:23.00 | 13008 | 28232 3 | 6:16.33 | 4:43.00 | 28233 | 49457 4 | 10:59.33 | 3:25.00 | 49458 | 64832 5 | 14:24.33 | 2:40.00 | 64833 | 76832 6 | 17:04.33 | 1:27.00 | 76833 | 83357 7 | 18:31.33 | 2:27.00 | 83358 | 94382 8 | 20:58.33 | 1:17.00 | 94383 | 100157 9 | 22:15.33 | 2:03.00 | 100158 | 109382 10 | 24:18.33 | 2:12.00 | 109383 | 119282 11 | 26:30.33 | 2:45.00 | 119283 | 131657 12 | 29:15.33 | 2:23.00 | 131658 | 142382 13 | 31:38.33 | 4:12.00 | 142383 | 161282 14 | 35:50.33 | 1:48.00 | 161283 | 169382 15 | 37:38.33 | 4:02.00 | 169383 | 187532 16 | 41:40.33 | 1:48.00 | 187533 | 195632 17 | 43:28.33 | 10:37.00 | 195633 | 243407 18 | 54:05.33 | 1:45.00 | 243408 | 251282 19 | 55:50.33 | 2:04.00 | 251283 | 260582 20 | 57:54.33 | 2:25.00 | 260583 | 271457
Range status and errors
Selected range
Filename J:\New Music\Reinbert de Leeuw - 75 Years\Reinbert de Leeuw - CD3.wav
Peak level 85.7 % Extraction speed 2.7 X Range quality 99.9 % Test CRC B136E01B Copy CRC B136E01B Copy OK
No errors occurred
AccurateRip summary
Track 1 accurately ripped (confidence 2) [F166F6C4] (AR v2)Track 2 accurately ripped (confidence 2) [AA3968AA] (AR v2)Track 3 accurately ripped (confidence 2) [1DE7DED4] (AR v2)Track 4 accurately ripped (confidence 2) [0396F986] (AR v2)Track 5 accurately ripped (confidence 2) [75657F8A] (AR v2)Track 6 accurately ripped (confidence 2) [5CF4DDFD] (AR v2)Track 7 accurately ripped (confidence 2) [9DC32ADF] (AR v2)Track 8 accurately ripped (confidence 2) [62B45E45] (AR v2)Track 9 accurately ripped (confidence 2) [FF49661F] (AR v2)Track 10 accurately ripped (confidence 2) [EAAA120A] (AR v2)Track 11 accurately ripped (confidence 2) [946C8D6A] (AR v2)Track 12 accurately ripped (confidence 2) [2F606059] (AR v2)Track 13 accurately ripped (confidence 2) [E777DEF2] (AR v2)Track 14 accurately ripped (confidence 2) [A8C8F437] (AR v2)Track 15 accurately ripped (confidence 2) [F65B933C] (AR v2)Track 16 accurately ripped (confidence 2) [3EAC8B69] (AR v2)Track 17 accurately ripped (confidence 2) [08EE1D59] (AR v2)Track 18 accurately ripped (confidence 2) [541FAC65] (AR v2)Track 19 accurately ripped (confidence 2) [785F018F] (AR v2)Track 20 accurately ripped (confidence 2) [9735CBDF] (AR v2)
All tracks accurately ripped
End of status report
==== Log checksum C4A2BD9FAD8A3F70BB3E0B96474A6932A99B4B8B01AF10763CFB8FE4EC73AE84 ====

CD4

Exact Audio Copy V1.0 beta 3 from 29. August 2011
EAC extraction logfile from 27. April 2014, 3:20
Schonberg Ensemble, Reinbert de Leeuw / Górecki - Kleines Requiem; Lerchenmusik
Used drive : HL-DT-STDVDRAM GSA-4083N Adapter: 1 ID: 0
Read mode : SecureUtilize accurate stream : YesDefeat audio cache : YesMake use of C2 pointers : No
Read offset correction : 667Overread into Lead-In and Lead-Out : NoFill up missing offset samples with silence : YesDelete leading and trailing silent blocks : NoNull samples used in CRC calculations : YesUsed interface : Native Win32 interface for Win NT & 2000
Used output format : User Defined EncoderSelected bitrate : 896 kBit/sQuality : HighAdd ID3 tag : NoCommand line compressor : C:\Program Files\Exact Audio Copy\Flac\flac.exeAdditional command line options : -V -8 %source%
TOC of the extracted CD
Track | Start | Length | Start sector | End sector --------------------------------------------------------- 1 | 0:00.33 | 8:51.62 | 33 | 39919 2 | 8:52.20 | 5:16.38 | 39920 | 63657 3 | 14:08.58 | 2:40.50 | 63658 | 75707 4 | 16:49.33 | 6:49.00 | 75708 | 106382 5 | 23:38.33 | 15:40.00 | 106383 | 176882 6 | 39:18.33 | 12:14.00 | 176883 | 231932 7 | 51:32.33 | 15:27.00 | 231933 | 301457
Range status and errors
Selected range
Filename J:\New Music\Reinbert de Leeuw - 75 Years\Reinbert de Leeuw - CD4.wav
Peak level 100.0 % Extraction speed 2.6 X Range quality 100.0 % Test CRC 111AEF81 Copy CRC 111AEF81 Copy OK
No errors occurred
AccurateRip summary
Track 1 accurately ripped (confidence 2) [77A124ED] (AR v2)Track 2 accurately ripped (confidence 2) [E7E4AF32] (AR v2)Track 3 accurately ripped (confidence 2) [A27EE2CC] (AR v2)Track 4 accurately ripped (confidence 2) [72DB7802] (AR v2)Track 5 accurately ripped (confidence 2) [6CE2193C] (AR v2)Track 6 accurately ripped (confidence 2) [46AEDD90] (AR v2)Track 7 accurately ripped (confidence 2) [82F4D761] (AR v2)
All tracks accurately ripped
End of status report
==== Log checksum 45683C4FE1DC778AB4B0C1137B87E17E7B8B0E95078CFFA827ECE3C459FEDFC0 ====

CD5

Exact Audio Copy V1.0 beta 3 from 29. August 2011
EAC extraction logfile from 27. April 2014, 21:00
Schonberg Ensemble, Asko Ensemble, Reinbert de Leeuw / Vivier - Prologue pour un Marco Polo; Bouchara; Zipangu; Lonely Child
Used drive : HL-DT-STDVDRAM GSA-4083N Adapter: 1 ID: 0
Read mode : SecureUtilize accurate stream : YesDefeat audio cache : YesMake use of C2 pointers : No
Read offset correction : 667Overread into Lead-In and Lead-Out : NoFill up missing offset samples with silence : YesDelete leading and trailing silent blocks : NoNull samples used in CRC calculations : YesUsed interface : Native Win32 interface for Win NT & 2000
Used output format : User Defined EncoderSelected bitrate : 896 kBit/sQuality : HighAdd ID3 tag : NoCommand line compressor : C:\Program Files\Exact Audio Copy\Flac\flac.exeAdditional command line options : -V -8 %source%
TOC of the extracted CD
Track | Start | Length | Start sector | End sector --------------------------------------------------------- 1 | 0:00.33 | 22:15.00 | 33 | 100157 2 | 22:15.33 | 12:20.00 | 100158 | 155657 3 | 34:35.33 | 14:06.00 | 155658 | 219107 4 | 48:41.33 | 16:36.00 | 219108 | 293807
Range status and errors
Selected range
Filename J:\New Music\Reinbert de Leeuw - 75 Years\Reinbert de Leeuw - CD5.wav
Peak level 98.5 % Extraction speed 2.6 X Range quality 100.0 % Test CRC 58DC3D6C Copy CRC 58DC3D6C Copy OK
No errors occurred
AccurateRip summary
Track 1 accurately ripped (confidence 2) [FCAF13E2] (AR v2)Track 2 accurately ripped (confidence 2) [F2AFEB2B] (AR v2)Track 3 accurately ripped (confidence 2) [973E510D] (AR v2)Track 4 accurately ripped (confidence 2) [2E13521F] (AR v2)
All tracks accurately ripped
End of status report
==== Log checksum 9F5584DD5B09A916D3FE450CE1345922AF2A9002C9E0F31FE2836CC73906926F ====

CD6

Exact Audio Copy V1.0 beta 3 from 29. August 2011
EAC extraction logfile from 27. April 2014, 22:13
Netherlands Chamber Choir, Schönberg Ensemble, Reinbert De Leeuw / Sofia Gubaidulina - Jetzt immer Schnee; Perception
Used drive : HL-DT-STDVDRAM GSA-4083N Adapter: 1 ID: 0
Read mode : SecureUtilize accurate stream : YesDefeat audio cache : YesMake use of C2 pointers : No
Read offset correction : 667Overread into Lead-In and Lead-Out : NoFill up missing offset samples with silence : YesDelete leading and trailing silent blocks : NoNull samples used in CRC calculations : YesUsed interface : Native Win32 interface for Win NT & 2000
Used output format : User Defined EncoderSelected bitrate : 896 kBit/sQuality : HighAdd ID3 tag : NoCommand line compressor : C:\Program Files\Exact Audio Copy\Flac\flac.exeAdditional command line options : -V -8 %source%
TOC of the extracted CD
Track | Start | Length | Start sector | End sector --------------------------------------------------------- 1 | 0:00.33 | 7:25.00 | 33 | 33407 2 | 7:25.33 | 3:44.60 | 33408 | 50267 3 | 11:10.18 | 4:22.15 | 50268 | 69932 4 | 15:32.33 | 6:39.00 | 69933 | 99857 5 | 22:11.33 | 5:36.00 | 99858 | 125057 6 | 27:47.33 | 2:44.50 | 125058 | 137407 7 | 30:32.08 | 4:59.25 | 137408 | 159857 8 | 35:31.33 | 1:33.00 | 159858 | 166832 9 | 37:04.33 | 2:39.00 | 166833 | 178757 10 | 39:43.33 | 0:24.35 | 178758 | 180592 11 | 40:07.68 | 2:27.40 | 180593 | 191657 12 | 42:35.33 | 8:09.00 | 191658 | 228332 13 | 50:44.33 | 1:57.00 | 228333 | 237107 14 | 52:41.33 | 6:54.00 | 237108 | 268157 15 | 59:35.33 | 4:43.00 | 268158 | 289382 16 | 64:18.33 | 0:48.00 | 289383 | 292982 17 | 65:06.33 | 9:56.00 | 292983 | 337682 18 | 75:02.33 | 2:29.00 | 337683 | 348857
Range status and errors
Selected range
Filename J:\New Music\Reinbert de Leeuw - 75 Years\Reinbert de Leeuw - CD6.wav
Peak level 100.0 % Extraction speed 2.6 X Range quality 100.0 % Test CRC 0AAD46A6 Copy CRC 0AAD46A6 Copy OK
No errors occurred
AccurateRip summary
Track 1 accurately ripped (confidence 2) [69820792] (AR v2)Track 2 accurately ripped (confidence 2) [1DC86B18] (AR v2)Track 3 accurately ripped (confidence 2) [C1BC011A] (AR v2)Track 4 accurately ripped (confidence 2) [FF558123] (AR v2)Track 5 accurately ripped (confidence 2) [3155DDB3] (AR v2)Track 6 accurately ripped (confidence 2) [554ACB4A] (AR v2)Track 7 accurately ripped (confidence 2) [536EA89E] (AR v2)Track 8 accurately ripped (confidence 2) [0C7C1F34] (AR v2)Track 9 accurately ripped (confidence 2) [462B66B1] (AR v2)Track 10 accurately ripped (confidence 2) [50AC0F9C] (AR v2)Track 11 accurately ripped (confidence 2) [3DA93142] (AR v2)Track 12 accurately ripped (confidence 2) [DCFEC2DE] (AR v2)Track 13 accurately ripped (confidence 2) [5C0AE967] (AR v2)Track 14 accurately ripped (confidence 2) [81379C3E] (AR v2)Track 15 accurately ripped (confidence 2) [0636550C] (AR v2)Track 16 accurately ripped (confidence 2) [650BE876] (AR v2)Track 17 accurately ripped (confidence 2) [81A937DC] (AR v2)Track 18 accurately ripped (confidence 2) [0C876388] (AR v2)
All tracks accurately ripped
End of status report
==== Log checksum 7B728364BF11C2F1F43F2CCCFDD3D310D5354883B9B6001A4141FDDBF6FD7513 ====

CD7

Exact Audio Copy V1.0 beta 3 from 29. August 2011
EAC extraction logfile from 28. April 2014, 1:24
Schönberg Ensemble, Reinbert de Leeuw / Galina Ustvolskaya - Compositions I, II & III
Used drive : HL-DT-STDVDRAM GSA-4083N Adapter: 1 ID: 0
Read mode : SecureUtilize accurate stream : YesDefeat audio cache : YesMake use of C2 pointers : No
Read offset correction : 667Overread into Lead-In and Lead-Out : NoFill up missing offset samples with silence : YesDelete leading and trailing silent blocks : NoNull samples used in CRC calculations : YesUsed interface : Native Win32 interface for Win NT & 2000
Used output format : User Defined EncoderSelected bitrate : 896 kBit/sQuality : HighAdd ID3 tag : NoCommand line compressor : C:\Program Files\Exact Audio Copy\Flac\flac.exeAdditional command line options : -V -8 %source%
TOC of the extracted CD
Track | Start | Length | Start sector | End sector --------------------------------------------------------- 1 | 0:00.33 | 6:51.00 | 33 | 30857 2 | 6:51.33 | 5:12.00 | 30858 | 54257 3 | 12:03.33 | 4:03.00 | 54258 | 72482 4 | 16:06.33 | 1:32.00 | 72483 | 79382 5 | 17:38.33 | 3:10.00 | 79383 | 93632 6 | 20:48.33 | 3:13.00 | 93633 | 108107 7 | 24:01.33 | 0:54.00 | 108108 | 112157 8 | 24:55.33 | 1:56.25 | 112158 | 120882 9 | 26:51.58 | 0:42.30 | 120883 | 124062 10 | 27:34.13 | 2:18.30 | 124063 | 134442 11 | 29:52.43 | 1:01.07 | 134443 | 139024 12 | 30:53.50 | 1:44.13 | 139025 | 146837 13 | 32:37.63 | 4:44.45 | 146838 | 168182 14 | 37:22.33 | 8:23.00 | 168183 | 205907
Range status and errors
Selected range
Filename J:\New Music\Reinbert de Leeuw - 75 Years\Reinbert de Leeuw - CD7.wav
Peak level 100.0 % Extraction speed 2.7 X Range quality 100.0 % Test CRC DA1EBE30 Copy CRC DA1EBE30 Copy OK
No errors occurred
AccurateRip summary
Track 1 cannot be verified as accurate (confidence 4) [C6E42E39], AccurateRip returned [A3D07A6D] (AR v2)Track 2 cannot be verified as accurate (confidence 4) [67B92DFE], AccurateRip returned [6CCC296A] (AR v2)Track 3 cannot be verified as accurate (confidence 4) [5FE94FF1], AccurateRip returned [7FA74E8F] (AR v2)Track 4 cannot be verified as accurate (confidence 4) [AAC19960], AccurateRip returned [E9F86669] (AR v2)Track 5 cannot be verified as accurate (confidence 4) [30EC6F63], AccurateRip returned [8127827B] (AR v2)Track 6 cannot be verified as accurate (confidence 4) [E03B3193], AccurateRip returned [DFC12F36] (AR v2)Track 7 cannot be verified as accurate (confidence 4) [40C4C11E], AccurateRip returned [84C6986F] (AR v2)Track 8 cannot be verified as accurate (confidence 4) [AF3043F7], AccurateRip returned [518D2C15] (AR v2)Track 9 cannot be verified as accurate (confidence 4) [A654BB02], AccurateRip returned [5F8EFC70] (AR v2)Track 10 cannot be verified as accurate (confidence 4) [F66F54CF], AccurateRip returned [0CB286EB] (AR v2)Track 11 cannot be verified as accurate (confidence 4) [4D2710CF], AccurateRip returned [2D23563F] (AR v2)Track 12 cannot be verified as accurate (confidence 4) [A176F80D], AccurateRip returned [EBE4C69A] (AR v2)Track 13 cannot be verified as accurate (confidence 4) [F7355BD7], AccurateRip returned [3009E1D2] (AR v2)Track 14 cannot be verified as accurate (confidence 4) [8EEE99D4], AccurateRip returned [D0A26D05] (AR v2)
No tracks could be verified as accurateYou may have a different pressing from the one(s) in the database
End of status report
==== Log checksum FC65BF07A56650A4E774E501CB140F238ED0DF7123F340F0AD87E5320110A799 ====

CD8

Exact Audio Copy V1.0 beta 3 from 29. August 2011
EAC extraction logfile from 28. April 2014, 8:21
Reinbert de Leeuw / Messiaen - Quatuor pour la fin de Temps; Antheil - Ballet mécanique & Jazz Symphony
Used drive : HL-DT-STDVDRAM GSA-4083N Adapter: 1 ID: 0
Read mode : SecureUtilize accurate stream : YesDefeat audio cache : YesMake use of C2 pointers : No
Read offset correction : 667Overread into Lead-In and Lead-Out : NoFill up missing offset samples with silence : YesDelete leading and trailing silent blocks : NoNull samples used in CRC calculations : YesUsed interface : Native Win32 interface for Win NT & 2000
Used output format : User Defined EncoderSelected bitrate : 896 kBit/sQuality : HighAdd ID3 tag : NoCommand line compressor : C:\Program Files\Exact Audio Copy\Flac\flac.exeAdditional command line options : -V -8 %source%
TOC of the extracted CD
Track | Start | Length | Start sector | End sector --------------------------------------------------------- 1 | 0:00.00 | 2:52.18 | 0 | 12917 2 | 2:52.18 | 4:55.24 | 12918 | 35066 3 | 7:47.42 | 8:04.33 | 35067 | 71399 4 | 15:52.00 | 1:50.10 | 71400 | 79659 5 | 17:42.10 | 10:16.27 | 79660 | 125886 6 | 27:58.37 | 6:47.36 | 125887 | 156447 7 | 34:45.73 | 7:34.33 | 156448 | 190530 8 | 42:20.31 | 9:30.50 | 190531 | 233330 9 | 51:51.06 | 15:10.00 | 233331 | 301580 10 | 67:01.06 | 6:38.01 | 301581 | 331431
Range status and errors
Selected range
Filename J:\New Music\Reinbert de Leeuw - 75 Years\Reinbert de Leeuw - CD8.wav
Peak level 98.8 % Extraction speed 2.7 X Range quality 100.0 % Test CRC F1119BE9 Copy CRC F1119BE9 Copy OK
No errors occurred
AccurateRip summary
Track 1 accurately ripped (confidence 1) [17CAE41F] (AR v2)Track 2 accurately ripped (confidence 1) [508FB11D] (AR v2)Track 3 accurately ripped (confidence 1) [63232296] (AR v2)Track 4 accurately ripped (confidence 1) [1D1643B1] (AR v2)Track 5 accurately ripped (confidence 1) [30A3B555] (AR v2)Track 6 accurately ripped (confidence 1) [B3B567D9] (AR v2)Track 7 accurately ripped (confidence 1) [215DC564] (AR v2)Track 8 accurately ripped (confidence 1) [B2C4B637] (AR v2)Track 9 accurately ripped (confidence 2) [045AF7DC] (AR v2)Track 10 accurately ripped (confidence 2) [052A3420] (AR v2)
All tracks accurately ripped
End of status report
==== Log checksum 7D9471B74F945E5B83B4380EF94994B2BD873B52AAF74DEFDE3EF8DCFFF0045B ====
[teatrix.ru].t9719.torrent 
Торрент: Зарегистрирован [ 2015-10-23 17:11 ] · 37CCF6632777CD2C735D3E5380149F6DB1451762

Скачать .torrent

Скачать

41 KB

Статус: проверено
Скачан: 0 раз
Размер: 1.77 GB
terms.php



Быстрый ответ

Имя:

      
Для отправки сообщений необходимо включить JavaScript
Показать сообщения:    

Текущее время: 11-Дек 12:57

Часовой пояс: UTC + 3


Вы можете начинать темы
Вы можете отвечать на сообщения
Вы не можете редактировать свои сообщения
Вы не можете удалять свои сообщения
Вы не можете голосовать в опросах
Вы не можете прикреплять файлы к сообщениям
Вы можете скачивать файлы