(piano) Edwin Fischer - Piano Playing from the Heart (Bach, Mozart, Beethoven, Schubert, Brahms) - 2010, FLAC (tracks) lossless


Статистика раздачи [Обновить пиров]
Размер:  3.81 GB   |    Зарегистрирован:  1 год 1 месяц   |    Скачан:  0 раз

Полного источника не было: Никогда

Личеров:  2  [  0 KB/s  ]   Подробная статистика пиров
 
   
 
 
 

[Цитировать]

Edwin Fischer - Piano Playing from the Heart (Bach, Mozart, Beethoven, Schubert, Brahms, Furtwangler)
Жанр: piano
Страна-производитель диска: EU
Год издания диска: 2010
Издатель (лейбл): EMI
Номер по каталогу: 50999 6 29499 2
Дата записи: 1933-1954
Аудиокодек: FLAC
Тип рипа: tracks
Битрейт аудио: lossless
Продолжительность: 70.57 + 76.53 + 79.30 + 78.55 + 79.26 + 67.21 + 75.05 + 63.57 + 77.54 + 68.43 + 78.38 + 59.09
Источник: скачано с
Наличие сканов в содержимом раздачи: да
Треклист:
CD1
Bach
1-3 Concerto No.l BWV1052
4-6 Concerto No.4 BWV1055
7-9 Concerto No.5 BWV1056
Edwin Fischer Chamber Orchestra / Edwin Fischer
10-12 Brandenburg Concerto No.5 BWV1050
Philhirmonia Orchestra / Edwin Fischer
CD2
Bach
1-3 Brandenburg Concerto No.2 in F BWV1047
4-6 Concerto for three keyboards BWV1064
7-9 Concerto No.2 BWV1053
Edwin Fischer, Ronald Smith, Denis Matthews pianos
Philharmonia Orchestra / Edwin Fischer
10 Fantasia in С minor BWV906
11 Fantasia and Fugue in A minor BWV904
12 Chromatic Fantasia and Fugue in D minor BWV903
CD3-CD5
Bach - Das Wohltemperierte Clavier
CD6
Mozart
1-3 Concerto No.17 in G K453
Chamber Orchestra / Edwin Fischer
4-6 Concerto No.20 in D minor K466
London Philharmonic Orchestra / Edwin Fischer
7-9 Sonata No.10 in С K330
CD7
Mozart
1-3 Concerto No.22 in E flat K482
Barbirolli Chamber Orchestra / Sir John Barbirolli
4-6 Concerto No.24 in С minor K491
London Philharmonic Orchestra / Lawrance Collingwood
7-9 Sonata No.11 in A K331
CD8
Mozart
1-3 Concerto No.25 in С K503
Philharmonia Orchestra / Josef Krips
4 Rondo K382
5 Fantasia K396
6 FantasiaK475
7 Romance KVAnh.205
8 Minuet in G Kl а/т. Fischer
CD9
Beethoven
1-3 Concerto No.5 in E flat Op.73 'Emperor'
Philharmonia Orchestra / Wilhelm Furtwangler
4-6 Sonata No.8 in С minor Op.13 'Pathetique'
7-9 Sonata No.23 in F minor Op.57 'Appassionata'
CD10
Beethoven
1-3 Concerto No.3 in С minor Op.37
4-6 Concerto No.4 in G Op.58
Philharmonia Orchestra / Edwin Fischer
CD11
Schubert
1-4 Impromptus D899
5-8 Impromptus D935
9-14 Moments musicaux D780
CD12
Brahms
1-4 Concerto No.2 Op.83
Furtwangler
Symphonic Concerto in В minor
5 II. Adagio - Sehr langsam
Berliner Philharmoniker / Wilhelm Furtwangler
Исполнители:
Edwin Fischer (piano)

Лог создания рипа

[pre]CD1
X Lossless Decoder version 20110821 (136.1)
XLD extraction logfile from 2011-10-05 17:51:34 +0300
Various Artists / Icon - Edwin Fischer - Piano Playing From The Heart
Used drive : TSSTcorp CDDVDW SE-S084C (revision TS01)
Ripper mode : XLD Secure Ripper
Disable audio cache : OK for the drive with a cache less than 1375KiB
Make use of C2 pointers : NO
Read offset correction : 6
Max retry count : 100
Gap status : Analyzed, Appended (except HTOA)
TOC of the extracted CD
Track | Start | Length | Start sector | End sector
---------------------------------------------------------
1 | 00:00:00 | 07:19:58 | 0 | 32982
2 | 07:19:58 | 06:59:67 | 32983 | 64474
3 | 14:19:50 | 07:21:50 | 64475 | 97599
4 | 21:41:25 | 03:56:58 | 97600 | 115357
5 | 25:38:08 | 05:44:22 | 115358 | 141179
6 | 31:22:30 | 05:03:03 | 141180 | 163907
7 | 36:25:33 | 03:54:70 | 163908 | 181527
8 | 40:20:28 | 03:36:12 | 181528 | 197739
9 | 43:56:40 | 02:54:33 | 197740 | 210822
10 | 46:50:73 | 11:29:45 | 210823 | 262542
11 | 58:20:43 | 06:43:47 | 262543 | 292814
12 | 65:04:15 | 05:52:55 | 292815 | 319269
AccurateRip Summary
Track 01 : OK (confidence 4)
Track 02 : OK (confidence 4)
Track 03 : OK (confidence 4)
Track 04 : OK (confidence 4)
Track 05 : OK (confidence 4)
Track 06 : OK (confidence 4)
Track 07 : OK (confidence 4)
Track 08 : OK (confidence 4)
Track 09 : OK (confidence 4)
Track 10 : OK (confidence 4)
Track 11 : OK (confidence 4)
Track 12 : OK (confidence 4)
->All tracks accurately ripped.
All Tracks
Album gain : 0.60 dB
Peak : 0.937317
Statistics
Read error : 0
Jitter error (maybe fixed) : 0
Retry sector count : 0
Damaged sector count : 0
Track 01
Filename : /Users/detemps/Documents/Edwin Fischer - Piano Playing From The Heart (2010) [FLAC] {EMI, 6 29499 2}/Disc 1of12/01 - Keyboard Concerto No. 1 in D Minor, BWV1052 - I. Allegro.flac
Pre-gap length : 00:02:00
Track gain : 0.47 dB
Peak : 0.808838
CRC32 hash (test run) : 19C54904
CRC32 hash : 19C54904
CRC32 hash (skip zero) : 208A9E46
AccurateRip signature : EA663F13
->Accurately ripped! (confidence 4)
Statistics
Read error : 0
Jitter error (maybe fixed) : 0
Retry sector count : 0
Damaged sector count : 0
Track 02
Filename : /Users/detemps/Documents/Edwin Fischer - Piano Playing From The Heart (2010) [FLAC] {EMI, 6 29499 2}/Disc 1of12/02 - Keyboard Concerto No. 1 in D Minor, BWV1052 - II. Adagio.flac
Pre-gap length : 00:02:00
Track gain : 3.83 dB
Peak : 0.582092
CRC32 hash (test run) : CB0DC016
CRC32 hash : CB0DC016
CRC32 hash (skip zero) : 63434925
AccurateRip signature : F589911E
->Accurately ripped! (confidence 4)
Statistics
Read error : 0
Jitter error (maybe fixed) : 0
Retry sector count : 0
Damaged sector count : 0
Track 03
Filename : /Users/detemps/Documents/Edwin Fischer - Piano Playing From The Heart (2010) [FLAC] {EMI, 6 29499 2}/Disc 1of12/03 - Keyboard Concerto No. 1 in D Minor, BWV1052 - III. Allegro.flac
Pre-gap length : 00:03:17
Track gain : -0.02 dB
Peak : 0.777161
CRC32 hash (test run) : E5F3A572
CRC32 hash : E5F3A572
CRC32 hash (skip zero) : BA8A7A21
AccurateRip signature : D0A6003F
->Accurately ripped! (confidence 4)
Statistics
Read error : 0
Jitter error (maybe fixed) : 0
Retry sector count : 0
Damaged sector count : 0
Track 04
Filename : /Users/detemps/Documents/Edwin Fischer - Piano Playing From The Heart (2010) [FLAC] {EMI, 6 29499 2}/Disc 1of12/04 - Keyboard Concerto No. 4 in A Major, BWV1055 - I. Allegro.flac
Pre-gap length : 00:07:35
Track gain : 0.47 dB
Peak : 0.869751
CRC32 hash (test run) : 9198C009
CRC32 hash : 9198C009
CRC32 hash (skip zero) : DBA2AFFD
AccurateRip signature : 6766889D
->Accurately ripped! (confidence 4)
Statistics
Read error : 0
Jitter error (maybe fixed) : 0
Retry sector count : 0
Damaged sector count : 0
Track 05
Filename : /Users/detemps/Documents/Edwin Fischer - Piano Playing From The Heart (2010) [FLAC] {EMI, 6 29499 2}/Disc 1of12/05 - Keyboard Concerto No. 4 in A Major, BWV1055 - II. Larghetto.flac
Pre-gap length : 00:03:53
Track gain : 3.22 dB
Peak : 0.618225
CRC32 hash (test run) : 64A364CA
CRC32 hash : 64A364CA
CRC32 hash (skip zero) : 08482344
AccurateRip signature : 8F85529E
->Accurately ripped! (confidence 4)
Statistics
Read error : 0
Jitter error (maybe fixed) : 0
Retry sector count : 0
Damaged sector count : 0
Track 06
Filename : /Users/detemps/Documents/Edwin Fischer - Piano Playing From The Heart (2010) [FLAC] {EMI, 6 29499 2}/Disc 1of12/06 - Keyboard Concerto No. 4 in A Major, BWV1055 - III. Allegro ma non tanto.flac
Pre-gap length : 00:02:55
Track gain : 0.67 dB
Peak : 0.732330
CRC32 hash (test run) : C2203A5F
CRC32 hash : C2203A5F
CRC32 hash (skip zero) : FAF20968
AccurateRip signature : 6444FF14
->Accurately ripped! (confidence 4)
Statistics
Read error : 0
Jitter error (maybe fixed) : 0
Retry sector count : 0
Damaged sector count : 0
Track 07
Filename : /Users/detemps/Documents/Edwin Fischer - Piano Playing From The Heart (2010) [FLAC] {EMI, 6 29499 2}/Disc 1of12/07 - Keyboard Concerto No. 5 in F Minor, BWV1056 - I. (Allegro moderato).flac
Pre-gap length : 00:08:00
Track gain : -1.92 dB
Peak : 0.904327
CRC32 hash (test run) : ECC560C7
CRC32 hash : ECC560C7
CRC32 hash (skip zero) : C19A706C
AccurateRip signature : 6EED5E67
->Accurately ripped! (confidence 4)
Statistics
Read error : 0
Jitter error (maybe fixed) : 0
Retry sector count : 0
Damaged sector count : 0
Track 08
Filename : /Users/detemps/Documents/Edwin Fischer - Piano Playing From The Heart (2010) [FLAC] {EMI, 6 29499 2}/Disc 1of12/08 - Keyboard Concerto No. 5 in F Minor, BWV1056 - II. Largo.flac
Pre-gap length : 00:02:03
Track gain : 6.74 dB
Peak : 0.473602
CRC32 hash (test run) : EE1742E6
CRC32 hash : EE1742E6
CRC32 hash (skip zero) : 4CA5504D
AccurateRip signature : C51EE003
->Accurately ripped! (confidence 4)
Statistics
Read error : 0
Jitter error (maybe fixed) : 0
Retry sector count : 0
Damaged sector count : 0
Track 09
Filename : /Users/detemps/Documents/Edwin Fischer - Piano Playing From The Heart (2010) [FLAC] {EMI, 6 29499 2}/Disc 1of12/09 - Keyboard Concerto No. 5 in F Minor, BWV1056 - III. Presto.flac
Pre-gap length : 00:02:55
Track gain : -1.07 dB
Peak : 0.839752
CRC32 hash (test run) : E1FF724F
CRC32 hash : E1FF724F
CRC32 hash (skip zero) : 452E9C2E
AccurateRip signature : 66C512CF
->Accurately ripped! (confidence 4)
Statistics
Read error : 0
Jitter error (maybe fixed) : 0
Retry sector count : 0
Damaged sector count : 0
Track 10
Filename : /Users/detemps/Documents/Edwin Fischer - Piano Playing From The Heart (2010) [FLAC] {EMI, 6 29499 2}/Disc 1of12/10 - Brandenburg Concerto No. 5 in D Major, BWV1050 - I. Allegro.flac
Pre-gap length : 00:06:40
Track gain : 0.74 dB
Peak : 0.814972
CRC32 hash (test run) : 4D7E0851
CRC32 hash : 4D7E0851
CRC32 hash (skip zero) : 84924B22
AccurateRip signature : 70C0244A
->Accurately ripped! (confidence 4)
Statistics
Read error : 0
Jitter error (maybe fixed) : 0
Retry sector count : 0
Damaged sector count : 0
Track 11
Filename : /Users/detemps/Documents/Edwin Fischer - Piano Playing From The Heart (2010) [FLAC] {EMI, 6 29499 2}/Disc 1of12/11 - Brandenburg Concerto No. 5 in D Major, BWV1050 - II. Affettuoso.flac
Pre-gap length : 00:02:35
Track gain : 5.11 dB
Peak : 0.424042
CRC32 hash (test run) : 4CE02AE2
CRC32 hash : 4CE02AE2
CRC32 hash (skip zero) : 1D85DD70
AccurateRip signature : A0237161
->Accurately ripped! (confidence 4)
Statistics
Read error : 0
Jitter error (maybe fixed) : 0
Retry sector count : 0
Damaged sector count : 0
Track 12
Filename : /Users/detemps/Documents/Edwin Fischer - Piano Playing From The Heart (2010) [FLAC] {EMI, 6 29499 2}/Disc 1of12/12 - Brandenburg Concerto No. 5 in D Major, BWV1050 - III. Allegro.flac
Pre-gap length : 00:02:52
Track gain : -0.87 dB
Peak : 0.937317
CRC32 hash (test run) : 48D38239
CRC32 hash : 48D38239
CRC32 hash (skip zero) : 7AB405D5
AccurateRip signature : 2F8A64AD
->Accurately ripped! (confidence 4)
Statistics
Read error : 0
Jitter error (maybe fixed) : 0
Retry sector count : 0
Damaged sector count : 0
No errors occurred
End of status report
CD2
X Lossless Decoder version 20110821 (136.1)
XLD extraction logfile from 2011-10-05 18:19:44 +0300
Various Artists / Icon - Edwin Fischer - Piano Playing From The Heart
Used drive : TSSTcorp CDDVDW SE-S084C (revision TS01)
Ripper mode : XLD Secure Ripper
Disable audio cache : OK for the drive with a cache less than 1375KiB
Make use of C2 pointers : NO
Read offset correction : 6
Max retry count : 100
Gap status : Analyzed, Appended (except HTOA)
TOC of the extracted CD
Track | Start | Length | Start sector | End sector
---------------------------------------------------------
1 | 00:00:00 | 05:41:46 | 0 | 25620
2 | 05:41:46 | 04:00:34 | 25621 | 43654
3 | 09:42:05 | 03:17:44 | 43655 | 58473
4 | 12:59:49 | 06:58:10 | 58474 | 89833
5 | 19:57:59 | 07:10:40 | 89834 | 122123
6 | 27:08:24 | 04:51:25 | 122124 | 143973
7 | 31:59:49 | 08:09:61 | 143974 | 180709
8 | 40:09:35 | 06:20:28 | 180710 | 209237
9 | 46:29:63 | 06:22:43 | 209238 | 237930
10 | 52:52:31 | 04:13:73 | 237931 | 256978
11 | 57:06:29 | 07:41:02 | 256979 | 291555
12 | 64:47:31 | 12:06:06 | 291556 | 346011
AccurateRip Summary
Track 01 : OK (confidence 4)
Track 02 : OK (confidence 4)
Track 03 : OK (confidence 4)
Track 04 : OK (confidence 4)
Track 05 : OK (confidence 4)
Track 06 : OK (confidence 4)
Track 07 : OK (confidence 4)
Track 08 : OK (confidence 4)
Track 09 : OK (confidence 4)
Track 10 : OK (confidence 4)
Track 11 : OK (confidence 4)
Track 12 : OK (confidence 4)
->All tracks accurately ripped.
All Tracks
Album gain : -0.77 dB
Peak : 0.928436
Statistics
Read error : 0
Jitter error (maybe fixed) : 0
Retry sector count : 0
Damaged sector count : 0
Track 01
Filename : /Users/detemps/Documents/Edwin Fischer - Piano Playing From The Heart (2010) [FLAC] {EMI, 6 29499 2}/Disc 2of12/01 - Brandenburg Concerto No. 2 in F Major, BWV1047 - I..flac
Pre-gap length : 00:02:00
Track gain : -1.54 dB
Peak : 0.728333
CRC32 hash (test run) : 6FD4CBC5
CRC32 hash : 6FD4CBC5
CRC32 hash (skip zero) : C797EAE7
AccurateRip signature : 2EC012B0
->Accurately ripped! (confidence 4)
Statistics
Read error : 0
Jitter error (maybe fixed) : 0
Retry sector count : 0
Damaged sector count : 0
Track 02
Filename : /Users/detemps/Documents/Edwin Fischer - Piano Playing From The Heart (2010) [FLAC] {EMI, 6 29499 2}/Disc 2of12/02 - Brandenburg Concerto No. 2 in F Major, BWV1047 - II. Andante.flac
Track gain : 2.03 dB
Peak : 0.469971
CRC32 hash (test run) : A2A883C6
CRC32 hash : A2A883C6
CRC32 hash (skip zero) : 627545E2
AccurateRip signature : 8D1B413D
->Accurately ripped! (confidence 4)
Statistics
Read error : 0
Jitter error (maybe fixed) : 0
Retry sector count : 0
Damaged sector count : 0
Track 03
Filename : /Users/detemps/Documents/Edwin Fischer - Piano Playing From The Heart (2010) [FLAC] {EMI, 6 29499 2}/Disc 2of12/03 - Brandenburg Concerto No. 2 in F Major, BWV1047 - III. Allegro assai.flac
Track gain : -2.81 dB
Peak : 0.928436
CRC32 hash (test run) : 5325C562
CRC32 hash : 5325C562
CRC32 hash (skip zero) : 8A068F9F
AccurateRip signature : ECE8FD96
->Accurately ripped! (confidence 4)
Statistics
Read error : 0
Jitter error (maybe fixed) : 0
Retry sector count : 0
Damaged sector count : 0
Track 04
Filename : /Users/detemps/Documents/Edwin Fischer - Piano Playing From The Heart (2010) [FLAC] {EMI, 6 29499 2}/Disc 2of12/04 - Concerto for three keyboards in C Major, BWV1064 - I. Allegro.flac
Pre-gap length : 00:05:65
Track gain : -3.26 dB
Peak : 0.829437
CRC32 hash (test run) : 87EBE2E6
CRC32 hash : 87EBE2E6
CRC32 hash (skip zero) : DB9E05C9
AccurateRip signature : 7209BF5E
->Accurately ripped! (confidence 4)
Statistics
Read error : 0
Jitter error (maybe fixed) : 0
Retry sector count : 0
Damaged sector count : 0
Track 05
Filename : /Users/detemps/Documents/Edwin Fischer - Piano Playing From The Heart (2010) [FLAC] {EMI, 6 29499 2}/Disc 2of12/05 - Concerto for three keyboards in C Major, BWV1064 - II. Adagio cantabile e molto espressivo.flac
Track gain : 2.53 dB
Peak : 0.714142
CRC32 hash (test run) : 087538F2
CRC32 hash : 087538F2
CRC32 hash (skip zero) : 77379C96
AccurateRip signature : 2074756B
->Accurately ripped! (confidence 4)
Statistics
Read error : 0
Jitter error (maybe fixed) : 0
Retry sector count : 0
Damaged sector count : 0
Track 06
Filename : /Users/detemps/Documents/Edwin Fischer - Piano Playing From The Heart (2010) [FLAC] {EMI, 6 29499 2}/Disc 2of12/06 - Concerto for three keyboards in C Major, BWV1064 - III. Allegro.flac
Track gain : -1.71 dB
Peak : 0.754639
CRC32 hash (test run) : 79EA2BAF
CRC32 hash : 79EA2BAF
CRC32 hash (skip zero) : 7DCE5407
AccurateRip signature : 74541169
->Accurately ripped! (confidence 4)
Statistics
Read error : 0
Jitter error (maybe fixed) : 0
Retry sector count : 0
Damaged sector count : 0
Track 07
Filename : /Users/detemps/Documents/Edwin Fischer - Piano Playing From The Heart (2010) [FLAC] {EMI, 6 29499 2}/Disc 2of12/07 - Keyboard Concerto No. 2 in E Major, BWV1053 - I..flac
Pre-gap length : 00:05:28
Track gain : -1.46 dB
Peak : 0.844086
CRC32 hash (test run) : CA75F4E5
CRC32 hash : CA75F4E5
CRC32 hash (skip zero) : 6A1F9432
AccurateRip signature : 888A6A58
->Accurately ripped! (confidence 4)
Statistics
Read error : 0
Jitter error (maybe fixed) : 0
Retry sector count : 0
Damaged sector count : 0
Track 08
Filename : /Users/detemps/Documents/Edwin Fischer - Piano Playing From The Heart (2010) [FLAC] {EMI, 6 29499 2}/Disc 2of12/08 - Keyboard Concerto No. 2 in E Major, BWV1053 - II. Siciliano.flac
Track gain : 3.65 dB
Peak : 0.391541
CRC32 hash (test run) : CE390F1A
CRC32 hash : CE390F1A
CRC32 hash (skip zero) : 1BD829A6
AccurateRip signature : 3AA5B76C
->Accurately ripped! (confidence 4)
Statistics
Read error : 0
Jitter error (maybe fixed) : 0
Retry sector count : 0
Damaged sector count : 0
Track 09
Filename : /Users/detemps/Documents/Edwin Fischer - Piano Playing From The Heart (2010) [FLAC] {EMI, 6 29499 2}/Disc 2of12/09 - Keyboard Concerto No. 2 in E Major, BWV1053 - III. Allegro.flac
Track gain : -1.07 dB
Peak : 0.769714
CRC32 hash (test run) : B65140E9
CRC32 hash : B65140E9
CRC32 hash (skip zero) : B3CA78BE
AccurateRip signature : 20B2CA3F
->Accurately ripped! (confidence 4)
Statistics
Read error : 0
Jitter error (maybe fixed) : 0
Retry sector count : 0
Damaged sector count : 0
Track 10
Filename : /Users/detemps/Documents/Edwin Fischer - Piano Playing From The Heart (2010) [FLAC] {EMI, 6 29499 2}/Disc 2of12/10 - Fantasia in C Minor, BWV906.flac
Pre-gap length : 00:05:35
Track gain : -0.64 dB
Peak : 0.713928
CRC32 hash (test run) : 439BE275
CRC32 hash : 439BE275
CRC32 hash (skip zero) : 6C246409
AccurateRip signature : 305189A3
->Accurately ripped! (confidence 4)
Statistics
Read error : 0
Jitter error (maybe fixed) : 0
Retry sector count : 0
Damaged sector count : 0
Track 11
Filename : /Users/detemps/Documents/Edwin Fischer - Piano Playing From The Heart (2010) [FLAC] {EMI, 6 29499 2}/Disc 2of12/11 - Fantasia and Fugue in A Minor, BWV904.flac
Pre-gap length : 00:04:53
Track gain : 2.13 dB
Peak : 0.644653
CRC32 hash (test run) : 403CC600
CRC32 hash : 403CC600
CRC32 hash (skip zero) : 3EB32766
AccurateRip signature : EEA5A8EC
->Accurately ripped! (confidence 4)
Statistics
Read error : 0
Jitter error (maybe fixed) : 0
Retry sector count : 0
Damaged sector count : 0
Track 12
Filename : /Users/detemps/Documents/Edwin Fischer - Piano Playing From The Heart (2010) [FLAC] {EMI, 6 29499 2}/Disc 2of12/12 - Chromatic Fantasia and Fugue in D Minor, BWV903.flac
Pre-gap length : 00:05:32
Track gain : 3.64 dB
Peak : 0.598938
CRC32 hash (test run) : 633DC3D0
CRC32 hash : 633DC3D0
CRC32 hash (skip zero) : 5D23A776
AccurateRip signature : DD0D509E
->Accurately ripped! (confidence 4)
Statistics
Read error : 0
Jitter error (maybe fixed) : 0
Retry sector count : 0
Damaged sector count : 0
No errors occurred
End of status report
CD3
X Lossless Decoder version 20110821 (136.1)
XLD extraction logfile from 2011-10-05 21:39:56 +0300
Edwin Fischer / Icon - Edwin Fischer - Piano Playing From The Heart
Used drive : TSSTcorp CDDVDW SE-S084C (revision TS01)
Ripper mode : XLD Secure Ripper
Disable audio cache : OK for the drive with a cache less than 1375KiB
Make use of C2 pointers : NO
Read offset correction : 6
Max retry count : 100
Gap status : Analyzed, Appended (except HTOA)
TOC of the extracted CD
Track | Start | Length | Start sector | End sector
---------------------------------------------------------
1 | 00:01:00 | 01:27:12 | 75 | 6611
2 | 01:28:12 | 01:45:00 | 6612 | 14486
3 | 03:13:12 | 01:17:27 | 14487 | 20288
4 | 04:30:39 | 01:44:64 | 20289 | 28152
5 | 06:15:28 | 01:21:45 | 28153 | 34272
6 | 07:36:73 | 02:14:59 | 34273 | 44381
7 | 09:51:57 | 02:50:30 | 44382 | 57161
8 | 12:42:12 | 04:37:16 | 57162 | 77952
9 | 17:19:28 | 01:07:72 | 77953 | 83049
10 | 18:27:25 | 01:52:18 | 83050 | 91467
11 | 20:19:43 | 01:25:61 | 91468 | 97903
12 | 21:45:29 | 02:11:66 | 97904 | 107794
13 | 23:57:20 | 03:40:26 | 107795 | 124320
14 | 27:37:46 | 01:41:40 | 124321 | 131935
15 | 29:19:11 | 03:24:33 | 131936 | 147268
16 | 32:43:44 | 05:30:10 | 147269 | 172028
17 | 38:13:54 | 01:05:37 | 172029 | 176940
18 | 39:19:16 | 01:03:21 | 176941 | 181686
19 | 40:22:37 | 02:03:22 | 181687 | 190933
20 | 42:25:59 | 01:05:21 | 190934 | 195829
21 | 43:31:05 | 00:48:48 | 195830 | 199477
22 | 44:19:53 | 01:24:31 | 199478 | 205808
23 | 45:44:09 | 01:38:48 | 205809 | 213206
24 | 47:22:57 | 04:35:29 | 213207 | 233860
25 | 51:58:11 | 00:58:31 | 233861 | 238241
26 | 52:56:42 | 01:54:65 | 238242 | 246856
27 | 54:51:32 | 00:53:50 | 246857 | 250881
28 | 55:45:07 | 03:51:47 | 250882 | 268253
29 | 59:36:54 | 00:47:66 | 268254 | 271844
30 | 60:24:45 | 02:31:38 | 271845 | 283207
31 | 62:56:08 | 02:13:55 | 283208 | 293237
32 | 65:09:63 | 02:03:53 | 293238 | 302515
33 | 67:13:41 | 01:32:32 | 302516 | 309447
34 | 68:45:73 | 02:07:46 | 309448 | 319018
35 | 70:53:44 | 01:35:01 | 319019 | 326144
36 | 72:28:45 | 03:15:64 | 326145 | 340833
37 | 75:44:34 | 01:09:07 | 340834 | 346015
38 | 76:53:41 | 02:37:28 | 346016 | 357818
List of alternate offset correction values
# | Absolute | Relative | Confidence
------------------------------------------
1 | -80 | -86 | 2
AccurateRip Summary
Track 01 : OK (confidence 5)
Track 02 : OK (confidence 5)
Track 03 : OK (confidence 5)
Track 04 : OK (confidence 5)
Track 05 : OK (confidence 5)
Track 06 : OK (confidence 5)
Track 07 : OK (confidence 5)
Track 08 : OK (confidence 5)
Track 09 : OK (confidence 5)
Track 10 : OK (confidence 5)
Track 11 : OK (confidence 5)
Track 12 : OK (confidence 5)
Track 13 : OK (confidence 5)
Track 14 : OK (confidence 5)
Track 15 : OK (confidence 5)
Track 16 : OK (confidence 5)
Track 17 : OK (confidence 5)
Track 18 : OK (confidence 5)
Track 19 : OK (confidence 5)
Track 20 : OK (confidence 5)
Track 21 : OK (confidence 5)
Track 22 : OK (confidence 5)
Track 23 : OK (confidence 5)
Track 24 : OK (confidence 4)
Track 25 : OK (confidence 5)
Track 26 : OK (confidence 5)
Track 27 : OK (confidence 5)
Track 28 : OK (confidence 5)
Track 29 : OK (confidence 5)
Track 30 : OK (confidence 5)
Track 31 : OK (confidence 5)
Track 32 : OK (confidence 5)
Track 33 : OK (confidence 5)
Track 34 : OK (confidence 5)
Track 35 : OK (confidence 5)
Track 36 : OK (confidence 5)
Track 37 : OK (confidence 5)
Track 38 : OK (confidence 5)
->All tracks accurately ripped.
All Tracks
Album gain : -0.89 dB
Peak : 0.932709
Statistics
Read error : 0
Jitter error (maybe fixed) : 0
Retry sector count : 0
Damaged sector count : 0
Track 01
Filename : /Users/detemps/Documents/Edwin Fischer - Piano Playing From The Heart (2010) [FLAC] {EMI, 6 29499 2}/Disc 3of12/01 - Das Wohltemperierte Clavier - Book I - No. 1 in C Major, BWV 846 - Prelude.flac
Pre-gap length : 00:03:00
Track gain : 3.90 dB
Peak : 0.363739
CRC32 hash (test run) : 1FEA1983
CRC32 hash : 1FEA1983
CRC32 hash (skip zero) : EA9D18CF
AccurateRip signature : AA9A66A2
->Accurately ripped! (confidence 5)
Statistics
Read error : 0
Jitter error (maybe fixed) : 0
Retry sector count : 0
Damaged sector count : 0
Track 02
Filename : /Users/detemps/Documents/Edwin Fischer - Piano Playing From The Heart (2010) [FLAC] {EMI, 6 29499 2}/Disc 3of12/02 - Das Wohltemperierte Clavier - Book I - No. 1 in C Major, BWV 846 - Fugue.flac
Track gain : -3.91 dB
Peak : 0.828979
CRC32 hash (test run) : DA7C1255
CRC32 hash : DA7C1255
CRC32 hash (skip zero) : BFEC1F91
AccurateRip signature : 2572D58B
->Accurately ripped! (confidence 5)
Statistics
Read error : 0
Jitter error (maybe fixed) : 0
Retry sector count : 0
Damaged sector count : 0
Track 03
Filename : /Users/detemps/Documents/Edwin Fischer - Piano Playing From The Heart (2010) [FLAC] {EMI, 6 29499 2}/Disc 3of12/03 - Das Wohltemperierte Clavier - Book I - No. 2 in C Minor, BWV 847 - Prelude.flac
Track gain : -3.84 dB
Peak : 0.932709
CRC32 hash (test run) : 2A263115
CRC32 hash : 2A263115
CRC32 hash (skip zero) : 1E95AE1C
AccurateRip signature : 94CE81EF
->Accurately ripped! (confidence 5)
Statistics
Read error : 0
Jitter error (maybe fixed) : 0
Retry sector count : 0
Damaged sector count : 0
Track 04
Filename : /Users/detemps/Documents/Edwin Fischer - Piano Playing From The Heart (2010) [FLAC] {EMI, 6 29499 2}/Disc 3of12/04 - Das Wohltemperierte Clavier - Book I - No. 2 in C Minor, BWV847 - Fugue.flac
Track gain : -3.87 dB
Peak : 0.825775
CRC32 hash (test run) : 3B23FE8B
CRC32 hash : 3B23FE8B
CRC32 hash (skip zero) : 51B48434
AccurateRip signature : 5CF69BA6
->Accurately ripped! (confidence 5)
Statistics
Read error : 0
Jitter error (maybe fixed) : 0
Retry sector count : 0
Damaged sector count : 0
Track 05
Filename : /Users/detemps/Documents/Edwin Fischer - Piano Playing From The Heart (2010) [FLAC] {EMI, 6 29499 2}/Disc 3of12/05 - Das Wohltemperierte Clavier - Book I - No. 3 in C Sharp Major, BWV 848 - Prelude.flac
Track gain : 0.93 dB
Peak : 0.898773
CRC32 hash (test run) : E1370C2F
CRC32 hash : E1370C2F
CRC32 hash (skip zero) : CCE5A9D3
AccurateRip signature : 09D37925
->Accurately ripped! (confidence 5)
Statistics
Read error : 0
Jitter error (maybe fixed) : 0
Retry sector count : 0
Damaged sector count : 0
Track 06
Filename : /Users/detemps/Documents/Edwin Fischer - Piano Playing From The Heart (2010) [FLAC] {EMI, 6 29499 2}/Disc 3of12/06 - Das Wohltemperierte Clavier - Book I - No. 3 in C Sharp Major, BWV 849 - Fugue.flac
Track gain : -1.95 dB
Peak : 0.717468
CRC32 hash (test run) : B9659B82
CRC32 hash : B9659B82
CRC32 hash (skip zero) : ABAC4AB7
AccurateRip signature : A64E9EE0
->Accurately ripped! (confidence 5)
Statistics
Read error : 0
Jitter error (maybe fixed) : 0
Retry sector count : 0
Damaged sector count : 0
Track 07
Filename : /Users/detemps/Documents/Edwin Fischer - Piano Playing From The Heart (2010) [FLAC] {EMI, 6 29499 2}/Disc 3of12/07 - Das Wohltemperierte Clavier - Book I - No. 4 in C Sharp Minor, BWV849 - Prelude.flac
Track gain : 3.04 dB
Peak : 0.487793
CRC32 hash (test run) : A7FA316F
CRC32 hash : A7FA316F
CRC32 hash (skip zero) : 0D5A2868
AccurateRip signature : 957A1016
->Accurately ripped! (confidence 5)
Statistics
Read error : 0
Jitter error (maybe fixed) : 0
Retry sector count : 0
Damaged sector count : 0
Track 08
Filename : /Users/detemps/Documents/Edwin Fischer - Piano Playing From The Heart (2010) [FLAC] {EMI, 6 29499 2}/Disc 3of12/08 - Das Wohltemperierte Clavier - Book I - No. 4 in C Sharp Minor, BWV849 - Fugue.flac
Track gain : -0.92 dB
Peak : 0.735291
CRC32 hash (test run) : C1D67238
CRC32 hash : C1D67238
CRC32 hash (skip zero) : B50689EA
AccurateRip signature : F3B2DA1A
->Accurately ripped! (confidence 5)
Statistics
Read error : 0
Jitter error (maybe fixed) : 0
Retry sector count : 0
Damaged sector count : 0
Track 09
Filename : /Users/detemps/Documents/Edwin Fischer - Piano Playing From The Heart (2010) [FLAC] {EMI, 6 29499 2}/Disc 3of12/09 - Das Wohltemperierte Clavier - Book I - No. 5 in D Major, BWV850 - Prelude.flac
Track gain : -1.37 dB
Peak : 0.882965
CRC32 hash (test run) : 096D6DCA
CRC32 hash : 096D6DCA
CRC32 hash (skip zero) : ECF9DE07
AccurateRip signature : E736E958
->Accurately ripped! (confidence 5)
Statistics
Read error : 0
Jitter error (maybe fixed) : 0
Retry sector count : 0
Damaged sector count : 0
Track 10
Filename : /Users/detemps/Documents/Edwin Fischer - Piano Playing From The Heart (2010) [FLAC] {EMI, 6 29499 2}/Disc 3of12/10 - Das Wohltemperierte Clavier - Book I - No. 5 in D Major, BWV850 - Fugue.flac
Track gain : -4.09 dB
Peak : 0.848083
CRC32 hash (test run) : 0A3F2881
CRC32 hash : 0A3F2881
CRC32 hash (skip zero) : C9D348CA
AccurateRip signature : D33E4E8B
->Accurately ripped! (confidence 5)
Statistics
Read error : 0
Jitter error (maybe fixed) : 0
Retry sector count : 0
Damaged sector count : 0
Track 11
Filename : /Users/detemps/Documents/Edwin Fischer - Piano Playing From The Heart (2010) [FLAC] {EMI, 6 29499 2}/Disc 3of12/11 - Das Wohltemperierte Clavier - Book I - No. 6 in D Minor, BWV851 - Prelude.flac
Track gain : -1.72 dB
Peak : 0.762146
CRC32 hash (test run) : CD8ABFD7
CRC32 hash : CD8ABFD7
CRC32 hash (skip zero) : 490C4AEB
AccurateRip signature : 61003A40
->Accurately ripped! (confidence 5)
Statistics
Read error : 0
Jitter error (maybe fixed) : 0
Retry sector count : 0
Damaged sector count : 0
Track 12
Filename : /Users/detemps/Documents/Edwin Fischer - Piano Playing From The Heart (2010) [FLAC] {EMI, 6 29499 2}/Disc 3of12/12 - Das Wohltemperierte Clavier - Book I - No. 6 in D Minor, BWV851 - Fugue.flac
Track gain : -0.68 dB
Peak : 0.688934
CRC32 hash (test run) : BF769B3B
CRC32 hash : BF769B3B
CRC32 hash (skip zero) : 57E3FD16
AccurateRip signature : E47376C7
->Accurately ripped! (confidence 5)
Statistics
Read error : 0
Jitter error (maybe fixed) : 0
Retry sector count : 0
Damaged sector count : 0
Track 13
Filename : /Users/detemps/Documents/Edwin Fischer - Piano Playing From The Heart (2010) [FLAC] {EMI, 6 29499 2}/Disc 3of12/13 - Das Wohltemperierte Clavier - Book I - No. 7 in E Flat Major, BWV852 - Prelude.flac
Track gain : -0.99 dB
Peak : 0.712738
CRC32 hash (test run) : 62652CAB
CRC32 hash : 62652CAB
CRC32 hash (skip zero) : 45F78268
AccurateRip signature : 6A12C47A
->Accurately ripped! (confidence 5)
Statistics
Read error : 0
Jitter error (maybe fixed) : 0
Retry sector count : 0
Damaged sector count : 0
Track 14
Filename : /Users/detemps/Documents/Edwin Fischer - Piano Playing From The Heart (2010) [FLAC] {EMI, 6 29499 2}/Disc 3of12/14 - Das Wohltemperierte Clavier - Book I - No. 7 in E Flat Major, BWV852 - Fugue.flac
Track gain : -0.85 dB
Peak : 0.844482
CRC32 hash (test run) : AE6C5849
CRC32 hash : AE6C5849
CRC32 hash (skip zero) : E8676447
AccurateRip signature : 764ADA6D
->Accurately ripped! (confidence 5)
Statistics
Read error : 0
Jitter error (maybe fixed) : 0
Retry sector count : 0
Damaged sector count : 0
Track 15
Filename : /Users/detemps/Documents/Edwin Fischer - Piano Playing From The Heart (2010) [FLAC] {EMI, 6 29499 2}/Disc 3of12/15 - Das Wohltemperierte Clavier - Book I - No. 8 in E Flat Minor, BWV853 - Prelude.flac
Track gain : 1.99 dB
Peak : 0.617249
CRC32 hash (test run) : FA495D0B
CRC32 hash : FA495D0B
CRC32 hash (skip zero) : 8D820B1C
AccurateRip signature : E6025914
->Accurately ripped! (confidence 5)
Statistics
Read error : 0
Jitter error (maybe fixed) : 0
Retry sector count : 0
Damaged sector count : 0
Track 16
Filename : /Users/detemps/Documents/Edwin Fischer - Piano Playing From The Heart (2010) [FLAC] {EMI, 6 29499 2}/Disc 3of12/16 - Das Wohltemperierte Clavier - Book I - No. 8 in E Flat Minor, BWV853 - Fugue.flac
Track gain : 0.51 dB
Peak : 0.585510
CRC32 hash (test run) : 98B8F389
CRC32 hash : 98B8F389
CRC32 hash (skip zero) : 7BB372CE
AccurateRip signature : 5FF86A1B
->Accurately ripped! (confidence 5)
Statistics
Read error : 0
Jitter error (maybe fixed) : 0
Retry sector count : 0
Damaged sector count : 0
Track 17
Filename : /Users/detemps/Documents/Edwin Fischer - Piano Playing From The Heart (2010) [FLAC] {EMI, 6 29499 2}/Disc 3of12/17 - Das Wohltemperierte Clavier - Book I - No. 9 in E Major, BWV854 - Prelude.flac
Track gain : 0.27 dB
Peak : 0.605682
CRC32 hash (test run) : 31FA3279
CRC32 hash : 31FA3279
CRC32 hash (skip zero) : 9FA08E62
AccurateRip signature : C5FBDDAA
->Accurately ripped! (confidence 5)
Statistics
Read error : 0
Jitter error (maybe fixed) : 0
Retry sector count : 0
Damaged sector count : 0
Track 18
Filename : /Users/detemps/Documents/Edwin Fischer - Piano Playing From The Heart (2010) [FLAC] {EMI, 6 29499 2}/Disc 3of12/18 - Das Wohltemperierte Clavier - Book I - No. 9 in E Major, BWV854 - Fugue.flac
Track gain : -3.31 dB
Peak : 0.834106
CRC32 hash (test run) : 04479653
CRC32 hash : 04479653
CRC32 hash (skip zero) : 74AA4023
AccurateRip signature : 9D6D45CB
->Accurately ripped! (confidence 5)
Statistics
Read error : 0
Jitter error (maybe fixed) : 0
Retry sector count : 0
Damaged sector count : 0
Track 19
Filename : /Users/detemps/Documents/Edwin Fischer - Piano Playing From The Heart (2010) [FLAC] {EMI, 6 29499 2}/Disc 3of12/19 - Das Wohltemperierte Clavier - Book I - No. 10 in E Minor, BWV855 - Prelude.flac
Track gain : -0.54 dB
Peak : 0.704407
CRC32 hash (test run) : 9C303FB5
CRC32 hash : 9C303FB5
CRC32 hash (skip zero) : EBD453EA
AccurateRip signature : 07F359DE
->Accurately ripped! (confidence 5)
Statistics
Read error : 0
Jitter error (maybe fixed) : 0
Retry sector count : 0
Damaged sector count : 0
Track 20
Filename : /Users/detemps/Documents/Edwin Fischer - Piano Playing From The Heart (2010) [FLAC] {EMI, 6 29499 2}/Disc 3of12/20 - Das Wohltemperierte Clavier - Book I - No. 10 in E Minor, BWV855 - Fugue.flac
Track gain : -1.08 dB
Peak : 0.574615
CRC32 hash (test run) : A3AE650F
CRC32 hash : A3AE650F
CRC32 hash (skip zero) : 214FF0D0
AccurateRip signature : 7A538082
->Accurately ripped! (confidence 5)
Statistics
Read error : 0
Jitter error (maybe fixed) : 0
Retry sector count : 0
Damaged sector count : 0
Track 21
Filename : /Users/detemps/Documents/Edwin Fischer - Piano Playing From The Heart (2010) [FLAC] {EMI, 6 29499 2}/Disc 3of12/21 - Das Wohltemperierte Clavier - Book I - No. 11 in F Major, BWV856 - Prelude.flac
Track gain : -2.69 dB
Peak : 0.692688
CRC32 hash (test run) : F244F1C2
CRC32 hash : F244F1C2
CRC32 hash (skip zero) : 6130C9A5
AccurateRip signature : 4D53D31F
->Accurately ripped! (confidence 5)
Statistics
Read error : 0
Jitter error (maybe fixed) : 0
Retry sector count : 0
Damaged sector count : 0
Track 22
Filename : /Users/detemps/Documents/Edwin Fischer - Piano Playing From The Heart (2010) [FLAC] {EMI, 6 29499 2}/Disc 3of12/22 - Das Wohltemperierte Clavier - Book I - No. 11 in F Major, BWV856 - Fugue.flac
Track gain : -1.23 dB
Peak : 0.634430
CRC32 hash (test run) : CD55737D
CRC32 hash : CD55737D
CRC32 hash (skip zero) : 0B4D3848
AccurateRip signature : 740ED46A
->Accurately ripped! (confidence 5)
Statistics
Read error : 0
Jitter error (maybe fixed) : 0
Retry sector count : 0
Damaged sector count : 0
Track 23
Filename : /Users/detemps/Documents/Edwin Fischer - Piano Playing From The Heart (2010) [FLAC] {EMI, 6 29499 2}/Disc 3of12/23 - Das Wohltemperierte Clavier - Book I - No. 12 in F Minor, BWV857 - Prelude.flac
Track gain : -1.11 dB
Peak : 0.892609
CRC32 hash (test run) : 15B5F9B3
CRC32 hash : 15B5F9B3
CRC32 hash (skip zero) : 540BAF2C
AccurateRip signature : B7D62F19
->Accurately ripped! (confidence 5)
Statistics
Read error : 0
Jitter error (maybe fixed) : 0
Retry sector count : 0
Damaged sector count : 0
Track 24
Filename : /Users/detemps/Documents/Edwin Fischer - Piano Playing From The Heart (2010) [FLAC] {EMI, 6 29499 2}/Disc 3of12/24 - Das Wohltemperierte Clavier - Book I - No. 12 in F Minor, BWV857 - Fugue.flac
Track gain : -0.55 dB
Peak : 0.725220
CRC32 hash (test run) : 6D6B434F
CRC32 hash : 6D6B434F
CRC32 hash (skip zero) : E087E36E
AccurateRip signature : 9318F46A
->Accurately ripped! (confidence 4)
Statistics
Read error : 0
Jitter error (maybe fixed) : 0
Retry sector count : 0
Damaged sector count : 0
Track 25
Filename : /Users/detemps/Documents/Edwin Fischer - Piano Playing From The Heart (2010) [FLAC] {EMI, 6 29499 2}/Disc 3of12/25 - Das Wohltemperierte Clavier - Book I - No. 13 in F Sharp Major, BWV858 - Prelude.flac
Track gain : 2.90 dB
Peak : 0.562164
CRC32 hash (test run) : 7A3C0F1E
CRC32 hash : 7A3C0F1E
CRC32 hash (skip zero) : CCEDF2E2
AccurateRip signature : E7774859
->Accurately ripped! (confidence 5)
Statistics
Read error : 0
Jitter error (maybe fixed) : 0
Retry sector count : 0
Damaged sector count : 0
Track 26
Filename : /Users/detemps/Documents/Edwin Fischer - Piano Playing From The Heart (2010) [FLAC] {EMI, 6 29499 2}/Disc 3of12/26 - Das Wohltemperierte Clavier - Book I - No. 13 in F Sharp Major, BWV858 - Fugue.flac
Track gain : 2.94 dB
Peak : 0.490601
CRC32 hash (test run) : 8C01685C
CRC32 hash : 8C01685C
CRC32 hash (skip zero) : 50FC897F
AccurateRip signature : C5CAF01A
->Accurately ripped! (confidence 5)
Statistics
Read error : 0
Jitter error (maybe fixed) : 0
Retry sector count : 0
Damaged sector count : 0
Track 27
Filename : /Users/detemps/Documents/Edwin Fischer - Piano Playing From The Heart (2010) [FLAC] {EMI, 6 29499 2}/Disc 3of12/27 - Das Wohltemperierte Clavier - Book I - No. 14 F Sharp Minor, BWV859 - Prelude.flac
Track gain : -1.20 dB
Peak : 0.615051
CRC32 hash (test run) : 5707BD42
CRC32 hash : 5707BD42
CRC32 hash (skip zero) : C09E5B66
AccurateRip signature : DE577746
->Accurately ripped! (confidence 5)
Statistics
Read error : 0
Jitter error (maybe fixed) : 0
Retry sector count : 0
Damaged sector count : 0
Track 28
Filename : /Users/detemps/Documents/Edwin Fischer - Piano Playing From The Heart (2010) [FLAC] {EMI, 6 29499 2}/Disc 3of12/28 - Das Wohltemperierte Clavier - Book I - No. 14 F Sharp Minor, BWV859 - Fugue.flac
Track gain : 3.96 dB
Peak : 0.439484
CRC32 hash (test run) : 70C18CD3
CRC32 hash : 70C18CD3
CRC32 hash (skip zero) : 93C1DF83
AccurateRip signature : 93898AEB
->Accurately ripped! (confidence 5)
Statistics
Read error : 0
Jitter error (maybe fixed) : 0
Retry sector count : 0
Damaged sector count : 0
Track 29
Filename : /Users/detemps/Documents/Edwin Fischer - Piano Playing From The Heart (2010) [FLAC] {EMI, 6 29499 2}/Disc 3of12/29 - Das Wohltemperierte Clavier - Book I - No. 15 in G Major, BWV860 - Prelude.flac
Track gain : -2.53 dB
Peak : 0.702911
CRC32 hash (test run) : 73DC03B5
CRC32 hash : 73DC03B5
CRC32 hash (skip zero) : 549D554F
AccurateRip signature : 0B2BA810
->Accurately ripped! (confidence 5)
Statistics
Read error : 0
Jitter error (maybe fixed) : 0
Retry sector count : 0
Damaged sector count : 0
Track 30
Filename : /Users/detemps/Documents/Edwin Fischer - Piano Playing From The Heart (2010) [FLAC] {EMI, 6 29499 2}/Disc 3of12/30 - Das Wohltemperierte Clavier - Book I - No. 15 in G Major, BWV860 - Fugue.flac
Track gain : -2.13 dB
Peak : 0.775757
CRC32 hash (test run) : 8A6CF76C
CRC32 hash : 8A6CF76C
CRC32 hash (skip zero) : 26635870
AccurateRip signature : C85C868C
->Accurately ripped! (confidence 5)
Statistics
Read error : 0
Jitter error (maybe fixed) : 0
Retry sector count : 0
Damaged sector count : 0
Track 31
Filename : /Users/detemps/Documents/Edwin Fischer - Piano Playing From The Heart (2010) [FLAC] {EMI, 6 29499 2}/Disc 3of12/31 - Das Wohltemperierte Clavier - Book I - No. 16 in G Minor, BWV861 - Prelude.flac
Track gain : 4.51 dB
Peak : 0.363434
CRC32 hash (test run) : A2881756
CRC32 hash : A2881756
CRC32 hash (skip zero) : DE502DFC
AccurateRip signature : 4AAC3FC6
->Accurately ripped! (confidence 5)
Statistics
Read error : 0
Jitter error (maybe fixed) : 0
Retry sector count : 0
Damaged sector count : 0
Track 32
Filename : /Users/detemps/Documents/Edwin Fischer - Piano Playing From The Heart (2010) [FLAC] {EMI, 6 29499 2}/Disc 3of12/32 - Das Wohltemperierte Clavier - Book I - No. 16 in G Minor, BWV861 - Fugue.flac
Track gain : -0.82 dB
Peak : 0.726044
CRC32 hash (test run) : 433BC58D
CRC32 hash : 433BC58D
CRC32 hash (skip zero) : 0B472C79
AccurateRip signature : 70F0EBAE
->Accurately ripped! (confidence 5)
Statistics
Read error : 0
Jitter error (maybe fixed) : 0
Retry sector count : 0
Damaged sector count : 0
Track 33
Filename : /Users/detemps/Documents/Edwin Fischer - Piano Playing From The Heart (2010) [FLAC] {EMI, 6 29499 2}/Disc 3of12/33 - Das Wohltemperierte Clavier - Book I - No. 17 in A Flat Major, BWV862 - Prelude.flac
Track gain : 2.12 dB
Peak : 0.490143
CRC32 hash (test run) : 11BA92C5
CRC32 hash : 11BA92C5
CRC32 hash (skip zero) : 047C1D6C
AccurateRip signature : CCD7DC98
->Accurately ripped! (confidence 5)
Statistics
Read error : 0
Jitter error (maybe fixed) : 0
Retry sector count : 0
Damaged sector count : 0
Track 34
Filename : /Users/detemps/Documents/Edwin Fischer - Piano Playing From The Heart (2010) [FLAC] {EMI, 6 29499 2}/Disc 3of12/34 - Das Wohltemperierte Clavier - Book I - No. 17 in A Flat Major, BWV862 - Fugue.flac
Track gain : 0.25 dB
Peak : 0.681396
CRC32 hash (test run) : 8DC6B1AD
CRC32 hash : 8DC6B1AD
CRC32 hash (skip zero) : 37482CA2
AccurateRip signature : 95AD60AE
->Accurately ripped! (confidence 5)
Statistics
Read error : 0
Jitter error (maybe fixed) : 0
Retry sector count : 0
Damaged sector count : 0
Track 35
Filename : /Users/detemps/Documents/Edwin Fischer - Piano Playing From The Heart (2010) [FLAC] {EMI, 6 29499 2}/Disc 3of12/35 - Das Wohltemperierte Clavier - Book I - No. 18 G Sharp Minor, BWV863 - Prelude.flac
Track gain : 3.47 dB
Peak : 0.448517
CRC32 hash (test run) : 2ABB62D4
CRC32 hash : 2ABB62D4
CRC32 hash (skip zero) : 931252F7
AccurateRip signature : 95353D68
->Accurately ripped! (confidence 5)
Statistics
Read error : 0
Jitter error (maybe fixed) : 0
Retry sector count : 0
Damaged sector count : 0
Track 36
Filename : /Users/detemps/Documents/Edwin Fischer - Piano Playing From The Heart (2010) [FLAC] {EMI, 6 29499 2}/Disc 3of12/36 - Das Wohltemperierte Clavier - Book I - No. 18 G Sharp Minor, BWV863 - Fugue.flac
Track gain : 0.57 dB
Peak : 0.619415
CRC32 hash (test run) : CC9CEA57
CRC32 hash : CC9CEA57
CRC32 hash (skip zero) : 26BE06E1
AccurateRip signature : AF552D25
->Accurately ripped! (confidence 5)
Statistics
Read error : 0
Jitter error (maybe fixed) : 0
Retry sector count : 0
Damaged sector count : 0
Track 37
Filename : /Users/detemps/Documents/Edwin Fischer - Piano Playing From The Heart (2010) [FLAC] {EMI, 6 29499 2}/Disc 3of12/37 - Das Wohltemperierte Clavier - Book I - No. 19 in A Major, BWV864 - Prelude.flac
Track gain : 2.15 dB
Peak : 0.383392
CRC32 hash (test run) : C0254E55
CRC32 hash : C0254E55
CRC32 hash (skip zero) : 62BD1A14
AccurateRip signature : F7F8A946
->Accurately ripped! (confidence 5)
Statistics
Read error : 0
Jitter error (maybe fixed) : 0
Retry sector count : 0
Damaged sector count : 0
Track 38
Filename : /Users/detemps/Documents/Edwin Fischer - Piano Playing From The Heart (2010) [FLAC] {EMI, 6 29499 2}/Disc 3of12/38 - Das Wohltemperierte Clavier - Book I - No. 19 in A Major, BWV864 - Fugue.flac
Track gain : 2.54 dB
Peak : 0.515137
CRC32 hash (test run) : A81D6714
CRC32 hash : A81D6714
CRC32 hash (skip zero) : 1FD584EA
AccurateRip signature : F9534E8D
->Accurately ripped! (confidence 5)
Statistics
Read error : 0
Jitter error (maybe fixed) : 0
Retry sector count : 0
Damaged sector count : 0
No errors occurred
End of status report
CD4
X Lossless Decoder version 20110821 (136.1)
XLD extraction logfile from 2011-10-06 09:27:14 +0300
Edwin Fischer / Icon - Edwin Fischer - Piano Playing From The Heart
Used drive : TSSTcorp CDDVDW SE-S084C (revision TS01)
Ripper mode : XLD Secure Ripper
Disable audio cache : OK for the drive with a cache less than 1375KiB
Make use of C2 pointers : NO
Read offset correction : 6
Max retry count : 100
Gap status : Analyzed, Appended (except HTOA)
TOC of the extracted CD
Track | Start | Length | Start sector | End sector
---------------------------------------------------------
1 | 00:00:00 | 00:58:06 | 0 | 4355
2 | 00:58:06 | 04:49:58 | 4356 | 26088
3 | 05:47:64 | 01:01:14 | 26089 | 30677
4 | 06:49:03 | 01:31:58 | 30678 | 37560
5 | 08:20:61 | 03:17:02 | 37561 | 52337
6 | 11:37:63 | 03:23:31 | 52338 | 67593
7 | 15:01:19 | 01:15:38 | 67594 | 73256
8 | 16:16:57 | 02:35:57 | 73257 | 84938
9 | 18:52:39 | 02:52:35 | 84939 | 97873
10 | 21:44:74 | 06:19:64 | 97874 | 126362
11 | 28:04:63 | 02:22:16 | 126363 | 137028
12 | 30:27:04 | 01:44:67 | 137029 | 144895
13 | 32:11:71 | 02:12:57 | 144896 | 154852
14 | 34:24:53 | 02:17:08 | 154853 | 165135
15 | 36:41:61 | 02:11:72 | 165136 | 175032
16 | 38:53:58 | 02:17:07 | 175033 | 185314
17 | 41:10:65 | 04:37:33 | 185315 | 206122
18 | 45:48:23 | 02:02:36 | 206123 | 215308
19 | 47:50:59 | 03:15:43 | 215309 | 229976
20 | 51:06:27 | 03:39:62 | 229977 | 246463
21 | 54:46:14 | 01:19:62 | 246464 | 252450
22 | 56:06:01 | 01:27:67 | 252451 | 259042
23 | 57:33:68 | 01:56:20 | 259043 | 267762
24 | 59:30:13 | 02:33:59 | 267763 | 279296
25 | 62:03:72 | 02:17:20 | 279297 | 289591
26 | 64:21:17 | 03:59:07 | 289592 | 307523
27 | 68:20:24 | 03:37:53 | 307524 | 323851
28 | 71:58:02 | 03:36:12 | 323852 | 340063
29 | 75:34:14 | 03:21:38 | 340064 | 355176
AccurateRip Summary
Track 01 : OK (confidence 4)
Track 02 : OK (confidence 4)
Track 03 : OK (confidence 4)
Track 04 : OK (confidence 4)
Track 05 : OK (confidence 4)
Track 06 : OK (confidence 4)
Track 07 : OK (confidence 4)
Track 08 : OK (confidence 4)
Track 09 : OK (confidence 4)
Track 10 : OK (confidence 4)
Track 11 : OK (confidence 4)
Track 12 : OK (confidence 4)
Track 13 : OK (confidence 4)
Track 14 : OK (confidence 4)
Track 15 : OK (confidence 4)
Track 16 : OK (confidence 4)
Track 17 : OK (confidence 4)
Track 18 : OK (confidence 4)
Track 19 : OK (confidence 4)
Track 20 : OK (confidence 4)
Track 21 : OK (confidence 4)
Track 22 : OK (confidence 4)
Track 23 : OK (confidence 4)
Track 24 : OK (confidence 4)
Track 25 : OK (confidence 4)
Track 26 : OK (confidence 4)
Track 27 : OK (confidence 4)
Track 28 : OK (confidence 4)
Track 29 : OK (confidence 4)
->All tracks accurately ripped.
All Tracks
Album gain : -0.55 dB
Peak : 0.952271
Statistics
Read error : 0
Jitter error (maybe fixed) : 0
Retry sector count : 0
Damaged sector count : 0
Track 01
Filename : /Users/detemps/Documents/Edwin Fischer - Piano Playing From The Heart (2010) [FLAC] {EMI, 6 29499 2}/Disc 4of12/01 - Das Wohltemperierte Clavier - Book I - No. 20 in A Minor, BWV865 - Prelude.flac
Pre-gap length : 00:02:00
Track gain : -2.12 dB
Peak : 0.694489
CRC32 hash (test run) : 9DAE43CA
CRC32 hash : 9DAE43CA
CRC32 hash (skip zero) : C838FC6A
AccurateRip signature : E923EB57
->Accurately ripped! (confidence 4)
Statistics
Read error : 0
Jitter error (maybe fixed) : 0
Retry sector count : 0
Damaged sector count : 0
Track 02
Filename : /Users/detemps/Documents/Edwin Fischer - Piano Playing From The Heart (2010) [FLAC] {EMI, 6 29499 2}/Disc 4of12/02 - Das Wohltemperierte Clavier - Book I - No. 20 in A Minor, BWV865 - Fugue.flac
Track gain : -1.16 dB
Peak : 0.686615
CRC32 hash (test run) : 11A19B94
CRC32 hash : 11A19B94
CRC32 hash (skip zero) : 6D324557
AccurateRip signature : A7E89553
->Accurately ripped! (confidence 4)
Statistics
Read error : 0
Jitter error (maybe fixed) : 0
Retry sector count : 0
Damaged sector count : 0
Track 03
Filename : /Users/detemps/Documents/Edwin Fischer - Piano Playing From The Heart (2010) [FLAC] {EMI, 6 29499 2}/Disc 4of12/03 - Das Wohltemperierte Clavier - Book I - No. 21 in B Flat Major, BWV866 - Prelude.flac
Track gain : -0.87 dB
Peak : 0.782379
CRC32 hash (test run) : 3168CD86
CRC32 hash : 3168CD86
CRC32 hash (skip zero) : 6A8677C1
AccurateRip signature : 4F31934B
->Accurately ripped! (confidence 4)
Statistics
Read error : 0
Jitter error (maybe fixed) : 0
Retry sector count : 0
Damaged sector count : 0
Track 04
Filename : /Users/detemps/Documents/Edwin Fischer - Piano Playing From The Heart (2010) [FLAC] {EMI, 6 29499 2}/Disc 4of12/04 - Das Wohltemperierte Clavier - Book I - No. 22 in B Flat Major, B - Fugue.flac
Track gain : 0.13 dB
Peak : 0.688354
CRC32 hash (test run) : D317C1B4
CRC32 hash : D317C1B4
CRC32 hash (skip zero) : DAB6B828
AccurateRip signature : DC4305A9
->Accurately ripped! (confidence 4)
Statistics
Read error : 0
Jitter error (maybe fixed) : 0
Retry sector count : 0
Damaged sector count : 0
Track 05
Filename : /Users/detemps/Documents/Edwin Fischer - Piano Playing From The Heart (2010) [FLAC] {EMI, 6 29499 2}/Disc 4of12/05 - Das Wohltemperierte Clavier - Book I - No. 22in B Flat Minor, BWV867 - Prelude.flac
Track gain : 3.29 dB
Peak : 0.825470
CRC32 hash (test run) : 9960024F
CRC32 hash : 9960024F
CRC32 hash (skip zero) : 4F82FAC4
AccurateRip signature : 5E6CB88B
->Accurately ripped! (confidence 4)
Statistics
Read error : 0
Jitter error (maybe fixed) : 0
Retry sector count : 0
Damaged sector count : 0
Track 06
Filename : /Users/detemps/Documents/Edwin Fischer - Piano Playing From The Heart (2010) [FLAC] {EMI, 6 29499 2}/Disc 4of12/06 - Das Wohltemperierte Clavier - Book I - No. 22 in B Flat Minor, BWV867 - Fugue.flac
Track gain : 0.53 dB
Peak : 0.840912
CRC32 hash (test run) : 3E6CCA6B
CRC32 hash : 3E6CCA6B
CRC32 hash (skip zero) : 592395EB
AccurateRip signature : F947E359
->Accurately ripped! (confidence 4)
Statistics
Read error : 0
Jitter error (maybe fixed) : 0
Retry sector count : 0
Damaged sector count : 0
Track 07
Filename : /Users/detemps/Documents/Edwin Fischer - Piano Playing From The Heart (2010) [FLAC] {EMI, 6 29499 2}/Disc 4of12/07 - Das Wohltemperierte Clavier - Book I - No. 23 in B Major, BWV868 - Prelude.flac
Track gain : 8.36 dB
Peak : 0.213013
CRC32 hash (test run) : 182527D3
CRC32 hash : 182527D3
CRC32 hash (skip zero) : 6350778C
AccurateRip signature : 3E36C5E3
->Accurately ripped! (confidence 4)
Statistics
Read error : 0
Jitter error (maybe fixed) : 0
Retry sector count : 0
Damaged sector count : 0
Track 08
Filename : /Users/detemps/Documents/Edwin Fischer - Piano Playing From The Heart (2010) [FLAC] {EMI, 6 29499 2}/Disc 4of12/08 - Das Wohltemperierte Clavier - Book I - No. 23 in B Major, BWV868 - Fugue.flac
Track gain : 2.38 dB
Peak : 0.528503
CRC32 hash (test run) : 64FB7553
CRC32 hash : 64FB7553
CRC32 hash (skip zero) : 1821735D
AccurateRip signature : B583E66D
->Accurately ripped! (confidence 4)
Statistics
Read error : 0
Jitter error (maybe fixed) : 0
Retry sector count : 0
Damaged sector count : 0
Track 09
Filename : /Users/detemps/Documents/Edwin Fischer - Piano Playing From The Heart (2010) [FLAC] {EMI, 6 29499 2}/Disc 4of12/09 - Das Wohltemperierte Clavier - Book I - No. 24 in B Minor, BWV869 - Prelude.flac
Track gain : 3.19 dB
Peak : 0.448303
CRC32 hash (test run) : CCEB420C
CRC32 hash : CCEB420C
CRC32 hash (skip zero) : FCD3F341
AccurateRip signature : CDD2D7E3
->Accurately ripped! (confidence 4)
Statistics
Read error : 0
Jitter error (maybe fixed) : 0
Retry sector count : 0
Damaged sector count : 0
Track 10
Filename : /Users/detemps/Documents/Edwin Fischer - Piano Playing From The Heart (2010) [FLAC] {EMI, 6 29499 2}/Disc 4of12/10 - Das Wohltemperierte Clavier - Book I - No. 24 in B Minor, BWV869 - Fugue.flac
Track gain : 1.27 dB
Peak : 0.635895
CRC32 hash (test run) : A63D2DE3
CRC32 hash : A63D2DE3
CRC32 hash (skip zero) : 5C04BDCE
AccurateRip signature : EFBFBF60
->Accurately ripped! (confidence 4)
Statistics
Read error : 0
Jitter error (maybe fixed) : 0
Retry sector count : 0
Damaged sector count : 0
Track 11
Filename : /Users/detemps/Documents/Edwin Fischer - Piano Playing From The Heart (2010) [FLAC] {EMI, 6 29499 2}/Disc 4of12/11 - Das Wohltemperierte Clavier - Book II - No. 1 in C Major, BWV870 - Prelude.flac
Pre-gap length : 00:07:40
Track gain : -1.34 dB
Peak : 0.743256
CRC32 hash (test run) : 00F8722E
CRC32 hash : 00F8722E
CRC32 hash (skip zero) : 312476F5
AccurateRip signature : AD454123
->Accurately ripped! (confidence 4)
Statistics
Read error : 0
Jitter error (maybe fixed) : 0
Retry sector count : 0
Damaged sector count : 0
Track 12
Filename : /Users/detemps/Documents/Edwin Fischer - Piano Playing From The Heart (2010) [FLAC] {EMI, 6 29499 2}/Disc 4of12/12 - Das Wohltemperierte Clavier - Book II - No. 1 in C Major, BWV870 - Fugue.flac
Track gain : -1.50 dB
Peak : 0.676697
CRC32 hash (test run) : 25BF37E2
CRC32 hash : 25BF37E2
CRC32 hash (skip zero) : 68D9D51B
AccurateRip signature : B107950D
->Accurately ripped! (confidence 4)
Statistics
Read error : 0
Jitter error (maybe fixed) : 0
Retry sector count : 0
Damaged sector count : 0
Track 13
Filename : /Users/detemps/Documents/Edwin Fischer - Piano Playing From The Heart (2010) [FLAC] {EMI, 6 29499 2}/Disc 4of12/13 - Das Wohltemperierte Clavier - Book II - No. 2 in C Minor, BWV871 - Prelude.flac
Track gain : 0.35 dB
Peak : 0.681396
CRC32 hash (test run) : A7911B19
CRC32 hash : A7911B19
CRC32 hash (skip zero) : 8BE24FC1
AccurateRip signature : 3E387794
->Accurately ripped! (confidence 4)
Statistics
Read error : 0
Jitter error (maybe fixed) : 0
Retry sector count : 0
Damaged sector count : 0
Track 14
Filename : /Users/detemps/Documents/Edwin Fischer - Piano Playing From The Heart (2010) [FLAC] {EMI, 6 29499 2}/Disc 4of12/14 - Das Wohltemperierte Clavier - Book II - No. 2 in C Minor, BWV871 - Fugue.flac
Track gain : -0.76 dB
Peak : 0.681793
CRC32 hash (test run) : 2B53C035
CRC32 hash : 2B53C035
CRC32 hash (skip zero) : D4EC11DC
AccurateRip signature : 40DCF7D9
->Accurately ripped! (confidence 4)
Statistics
Read error : 0
Jitter error (maybe fixed) : 0
Retry sector count : 0
Damaged sector count : 0
Track 15
Filename : /Users/detemps/Documents/Edwin Fischer - Piano Playing From The Heart (2010) [FLAC] {EMI, 6 29499 2}/Disc 4of12/15 - Das Wohltemperierte Clavier - Book II - No. 3 in C Sharp Major, BWV872 - Prelude.flac
Track gain : 2.33 dB
Peak : 0.441315
CRC32 hash (test run) : A660E201
CRC32 hash : A660E201
CRC32 hash (skip zero) : F34582EB
AccurateRip signature : 955B892C
->Accurately ripped! (confidence 4)
Statistics
Read error : 0
Jitter error (maybe fixed) : 0
Retry sector count : 0
Damaged sector count : 0
Track 16
Filename : /Users/detemps/Documents/Edwin Fischer - Piano Playing From The Heart (2010) [FLAC] {EMI, 6 29499 2}/Disc 4of12/16 - Das Wohltemperierte Clavier - Book II - No. 3 in C Sharp Major, BWV872 - Fugue.flac
Track gain : -2.23 dB
Peak : 0.684875
CRC32 hash (test run) : D0B7FA6A
CRC32 hash : D0B7FA6A
CRC32 hash (skip zero) : 7BA8C94F
AccurateRip signature : E19BE3EB
->Accurately ripped! (confidence 4)
Statistics
Read error : 0
Jitter error (maybe fixed) : 0
Retry sector count : 0
Damaged sector count : 0
Track 17
Filename : /Users/detemps/Documents/Edwin Fischer - Piano Playing From The Heart (2010) [FLAC] {EMI, 6 29499 2}/Disc 4of12/17 - Das Wohltemperierte Clavier - Book II - No. 4 in C Sharp Minor, BWV873 - Prelude.flac
Track gain : 0.02 dB
Peak : 0.773071
CRC32 hash (test run) : 69A567B9
CRC32 hash : 69A567B9
CRC32 hash (skip zero) : ECA8BD85
AccurateRip signature : 45E7884F
->Accurately ripped! (confidence 4)
Statistics
Read error : 0
Jitter error (maybe fixed) : 0
Retry sector count : 0
Damaged sector count : 0
Track 18
Filename : /Users/detemps/Documents/Edwin Fischer - Piano Playing From The Heart (2010) [FLAC] {EMI, 6 29499 2}/Disc 4of12/18 - Das Wohltemperierte Clavier - Book II - No. 4 in C Sharp Minor, BWV873 - Fugue.flac
Track gain : -2.82 dB
Peak : 0.739960
CRC32 hash (test run) : D1548DAF
CRC32 hash : D1548DAF
CRC32 hash (skip zero) : 140A9601
AccurateRip signature : 2C3BCA7F
->Accurately ripped! (confidence 4)
Statistics
Read error : 0
Jitter error (maybe fixed) : 0
Retry sector count : 0
Damaged sector count : 0
Track 19
Filename : /Users/detemps/Documents/Edwin Fischer - Piano Playing From The Heart (2010) [FLAC] {EMI, 6 29499 2}/Disc 4of12/19 - Das Wohltemperierte Clavier - Book II - No. 5 in D Major, BWV874 - Prelude.flac
Track gain : -2.57 dB
Peak : 0.748444
CRC32 hash (test run) : 242CBCD3
CRC32 hash : 242CBCD3
CRC32 hash (skip zero) : 1A714D75
AccurateRip signature : D4D1CFE6
->Accurately ripped! (confidence 4)
Statistics
Read error : 0
Jitter error (maybe fixed) : 0
Retry sector count : 0
Damaged sector count : 0
Track 20
Filename : /Users/detemps/Documents/Edwin Fischer - Piano Playing From The Heart (2010) [FLAC] {EMI, 6 29499 2}/Disc 4of12/20 - Das Wohltemperierte Clavier - Book II - No. 5 in D Major, BWV874 - Fugue.flac
Track gain : -3.54 dB
Peak : 0.952271
CRC32 hash (test run) : 626518A4
CRC32 hash : 626518A4
CRC32 hash (skip zero) : 86E1AE4F
AccurateRip signature : 9B70410E
->Accurately ripped! (confidence 4)
Statistics
Read error : 0
Jitter error (maybe fixed) : 0
Retry sector count : 0
Damaged sector count : 0
Track 21
Filename : /Users/detemps/Documents/Edwin Fischer - Piano Playing From The Heart (2010) [FLAC] {EMI, 6 29499 2}/Disc 4of12/21 - Das Wohltemperierte Clavier - Book II - No. 6 in D Minor, BWV875 - Prelude.flac
Track gain : 0.93 dB
Peak : 0.636841
CRC32 hash (test run) : 8D349241
CRC32 hash : 8D349241
CRC32 hash (skip zero) : 5E4515A4
AccurateRip signature : F9C35F60
->Accurately ripped! (confidence 4)
Statistics
Read error : 0
Jitter error (maybe fixed) : 0
Retry sector count : 0
Damaged sector count : 0
Track 22
Filename : /Users/detemps/Documents/Edwin Fischer - Piano Playing From The Heart (2010) [FLAC] {EMI, 6 29499 2}/Disc 4of12/22 - Das Wohltemperierte Clavier - Book II - No. 6 in D Minor, BWV875 - Fugue.flac
Track gain : -1.69 dB
Peak : 0.701538
CRC32 hash (test run) : F33D413E
CRC32 hash : F33D413E
CRC32 hash (skip zero) : 1E2E0FC6
AccurateRip signature : 9B279595
->Accurately ripped! (confidence 4)
Statistics
Read error : 0
Jitter error (maybe fixed) : 0
Retry sector count : 0
Damaged sector count : 0
Track 23
Filename : /Users/detemps/Documents/Edwin Fischer - Piano Playing From The Heart (2010) [FLAC] {EMI, 6 29499 2}/Disc 4of12/23 - Das Wohltemperierte Clavier - Book II - No. 7 in E Flat Major, BWV876 - Prelude.flac
Track gain : 1.10 dB
Peak : 0.590393
CRC32 hash (test run) : 58AB5FEE
CRC32 hash : 58AB5FEE
CRC32 hash (skip zero) : BB2B7B0E
AccurateRip signature : F4AE165E
->Accurately ripped! (confidence 4)
Statistics
Read error : 0
Jitter error (maybe fixed) : 0
Retry sector count : 0
Damaged sector count : 0
Track 24
Filename : /Users/detemps/Documents/Edwin Fischer - Piano Playing From The Heart (2010) [FLAC] {EMI, 6 29499 2}/Disc 4of12/24 - Das Wohltemperierte Clavier - Book II - No. 7 in E Flat Major, BWV876 - Fugue.flac
Track gain : 0.81 dB
Peak : 0.743011
CRC32 hash (test run) : B468FF80
CRC32 hash : B468FF80
CRC32 hash (skip zero) : 7CC67031
AccurateRip signature : 75A0861A
->Accurately ripped! (confidence 4)
Statistics
Read error : 0
Jitter error (maybe fixed) : 0
Retry sector count : 0
Damaged sector count : 0
Track 25
Filename : /Users/detemps/Documents/Edwin Fischer - Piano Playing From The Heart (2010) [FLAC] {EMI, 6 29499 2}/Disc 4of12/25 - Das Wohltemperierte Clavier - Book II - No. 8 in D Sharp Minor, BWV877 - Prelude.flac
Track gain : -2.08 dB
Peak : 0.815582
CRC32 hash (test run) : BC08C02C
CRC32 hash : BC08C02C
CRC32 hash (skip zero) : 7D819AB5
AccurateRip signature : 97510750
->Accurately ripped! (confidence 4)
Statistics
Read error : 0
Jitter error (maybe fixed) : 0
Retry sector count : 0
Damaged sector count : 0
Track 26
Filename : /Users/detemps/Documents/Edwin Fischer - Piano Playing From The Heart (2010) [FLAC] {EMI, 6 29499 2}/Disc 4of12/26 - Das Wohltemperierte Clavier - Book II - No. 8 in D Sharp Minor, BWV877 - Fugue.flac
Track gain : -0.34 dB
Peak : 0.721161
CRC32 hash (test run) : 6028AE39
CRC32 hash : 6028AE39
CRC32 hash (skip zero) : 9A3D630F
AccurateRip signature : F5CCA3E8
->Accurately ripped! (confidence 4)
Statistics
Read error : 0
Jitter error (maybe fixed) : 0
Retry sector count : 0
Damaged sector count : 0
Track 27
Filename : /Users/detemps/Documents/Edwin Fischer - Piano Playing From The Heart (2010) [FLAC] {EMI, 6 29499 2}/Disc 4of12/27 - Das Wohltemperierte Clavier - Book II - No. 9 in E Major, BWV878 - Prelude.flac
Track gain : 3.77 dB
Peak : 0.464935
CRC32 hash (test run) : 0B85032B
CRC32 hash : 0B85032B
CRC32 hash (skip zero) : 608AB90F
AccurateRip signature : 9E9E4521
->Accurately ripped! (confidence 4)
Statistics
Read error : 0
Jitter error (maybe fixed) : 0
Retry sector count : 0
Damaged sector count : 0
Track 28
Filename : /Users/detemps/Documents/Edwin Fischer - Piano Playing From The Heart (2010) [FLAC] {EMI, 6 29499 2}/Disc 4of12/28 - Das Wohltemperierte Clavier - Book II - No. 9 in E Major, BWV878 - Fugue.flac
Track gain : 0.59 dB
Peak : 0.660736
CRC32 hash (test run) : 6327EBC4
CRC32 hash : 6327EBC4
CRC32 hash (skip zero) : 7FED9FEF
AccurateRip signature : CC8F8A77
->Accurately ripped! (confidence 4)
Statistics
Read error : 0
Jitter error (maybe fixed) : 0
Retry sector count : 0
Damaged sector count : 0
Track 29
Filename : /Users/detemps/Documents/Edwin Fischer - Piano Playing From The Heart (2010) [FLAC] {EMI, 6 29499 2}/Disc 4of12/29 - Das Wohltemperierte Clavier - Book II - No. 10 in E Minor, BWV 879 - Prelude.flac
Track gain : 1.31 dB
Peak : 0.577545
CRC32 hash (test run) : 3392C750
CRC32 hash : 3392C750
CRC32 hash (skip zero) : BDD0B15D
AccurateRip signature : 3B591D4B
->Accurately ripped! (confidence 4)
Statistics
Read error : 0
Jitter error (maybe fixed) : 0
Retry sector count : 0
Damaged sector count : 0
No errors occurred
End of status report
CD5
X Lossless Decoder version 20110821 (136.1)
XLD extraction logfile from 2011-10-06 10:59:32 +0300
Edwin Fischer / Icon - Edwin Fischer - Piano Playing From The Heart
Used drive : TSSTcorp CDDVDW SE-S084C (revision TS01)
Ripper mode : XLD Secure Ripper
Disable audio cache : OK for the drive with a cache less than 1375KiB
Make use of C2 pointers : NO
Read offset correction : 6
Max retry count : 100
Gap status : Analyzed, Appended (except HTOA)
TOC of the extracted CD
Track | Start | Length | Start sector | End sector
---------------------------------------------------------
1 | 00:00:00 | 02:49:47 | 0 | 12721
2 | 02:49:47 | 02:36:15 | 12722 | 24436
3 | 05:25:62 | 01:45:06 | 24437 | 32317
4 | 07:10:68 | 02:30:51 | 32318 | 43618
5 | 09:41:44 | 02:14:34 | 43619 | 53702
6 | 11:56:03 | 02:46:51 | 53703 | 66203
7 | 14:42:54 | 03:01:68 | 66204 | 79846
8 | 17:44:47 | 02:38:04 | 79847 | 91700
9 | 20:22:51 | 04:22:57 | 91701 | 111407
10 | 24:45:33 | 02:17:28 | 111408 | 121710
11 | 27:02:61 | 01:14:07 | 121711 | 127267
12 | 28:16:68 | 02:50:57 | 127268 | 140074
13 | 31:07:50 | 02:58:53 | 140075 | 153477
14 | 34:06:28 | 03:51:66 | 153478 | 170868
15 | 37:58:19 | 03:12:69 | 170869 | 185337
16 | 41:11:13 | 02:27:32 | 185338 | 196394
17 | 43:38:45 | 05:30:26 | 196395 | 221170
18 | 49:08:71 | 01:36:03 | 221171 | 228373
19 | 50:44:74 | 01:16:56 | 228374 | 234129
20 | 52:01:55 | 02:06:63 | 234130 | 243642
21 | 54:08:43 | 01:49:60 | 243643 | 251877
22 | 55:58:28 | 03:15:25 | 251878 | 266527
23 | 59:13:53 | 02:37:06 | 266528 | 278308
24 | 61:50:59 | 02:48:15 | 278309 | 290923
25 | 64:38:74 | 05:48:61 | 290924 | 317084
26 | 70:27:60 | 01:25:67 | 317085 | 323526
27 | 71:53:52 | 03:27:70 | 323527 | 339121
28 | 75:21:47 | 02:17:50 | 339122 | 349446
29 | 77:39:22 | 01:46:64 | 349447 | 357460
AccurateRip Summary
Track 01 : OK (confidence 5)
Track 02 : OK (confidence 5)
Track 03 : OK (confidence 5)
Track 04 : OK (confidence 5)
Track 05 : OK (confidence 5)
Track 06 : OK (confidence 5)
Track 07 : OK (confidence 5)
Track 08 : OK (confidence 5)
Track 09 : OK (confidence 4)
Track 10 : OK (confidence 5)
Track 11 : OK (confidence 5)
Track 12 : OK (confidence 5)
Track 13 : OK (confidence 5)
Track 14 : OK (confidence 5)
Track 15 : OK (confidence 5)
Track 16 : OK (confidence 5)
Track 17 : OK (confidence 5)
Track 18 : OK (confidence 5)
Track 19 : OK (confidence 5)
Track 20 : OK (confidence 5)
Track 21 : OK (confidence 5)
Track 22 : OK (confidence 5)
Track 23 : OK (confidence 5)
Track 24 : OK (confidence 5)
Track 25 : OK (confidence 4)
Track 26 : OK (confidence 5)
Track 27 : OK (confidence 5)
Track 28 : OK (confidence 5)
Track 29 : OK (confidence 5)
->All tracks accurately ripped.
All Tracks
Album gain : 0.25 dB
Peak : 0.838531
Statistics
Read error : 0
Jitter error (maybe fixed) : 0
Retry sector count : 0
Damaged sector count : 0
Track 01
Filename : /Users/detemps/Documents/Edwin Fischer - Piano Playing From The Heart (2010) [FLAC] {EMI, 6 29499 2}/Disc 5of12/01 - Das Wohltemperierte Clavier - Book II - No. 10 in E Minor, BWV879 - Fugue.flac
Pre-gap length : 00:02:00
Track gain : -0.79 dB
Peak : 0.556396
CRC32 hash (test run) : C83CFD9A
CRC32 hash : C83CFD9A
CRC32 hash (skip zero) : 986E6387
AccurateRip signature : A8A34923
->Accurately ripped! (confidence 5)
Statistics
Read error : 0
Jitter error (maybe fixed) : 0
Retry sector count : 0
Damaged sector count : 0
Track 02
Filename : /Users/detemps/Documents/Edwin Fischer - Piano Playing From The Heart (2010) [FLAC] {EMI, 6 29499 2}/Disc 5of12/02 - Das Wohltemperierte Clavier - Book II - No. 11 in F Major, BWV880 - Prelude.flac
Track gain : -0.04 dB
Peak : 0.692444
CRC32 hash (test run) : 3295D963
CRC32 hash : 3295D963
CRC32 hash (skip zero) : 9DD6065A
AccurateRip signature : 82FBC24B
->Accurately ripped! (confidence 5)
Statistics
Read error : 0
Jitter error (maybe fixed) : 0
Retry sector count : 0
Damaged sector count : 0
Track 03
Filename : /Users/detemps/Documents/Edwin Fischer - Piano Playing From The Heart (2010) [FLAC] {EMI, 6 29499 2}/Disc 5of12/03 - Das Wohltemperierte Clavier - Book II - No. 11 in F Major, BWV880 - Fugue.flac
Pre-gap length : 00:00:55
Track gain : -3.30 dB
Peak : 0.782654
CRC32 hash (test run) : 35EABC81
CRC32 hash : 35EABC81
CRC32 hash (skip zero) : F8D0A3C8
AccurateRip signature : 42C366F0
->Accurately ripped! (confidence 5)
Statistics
Read error : 0
Jitter error (maybe fixed) : 0
Retry sector count : 0
Damaged sector count : 0
Track 04
Filename : /Users/detemps/Documents/Edwin Fischer - Piano Playing From The Heart (2010) [FLAC] {EMI, 6 29499 2}/Disc 5of12/04 - Das Wohltemperierte Clavier - Book II - No. 12 in F Minor, BWV881 - Prelude.flac
Track gain : 5.00 dB
Peak : 0.501923
CRC32 hash (test run) : 57771E3B
CRC32 hash : 57771E3B
CRC32 hash (skip zero) : 7F4D34DF
AccurateRip signature : 0BDA54A8
->Accurately ripped! (confidence 5)
Statistics
Read error : 0
Jitter error (maybe fixed) : 0
Retry sector count : 0
Damaged sector count : 0
Track 05
Filename : /Users/detemps/
[teatrix.ru].t9720.torrent 
Торрент: Зарегистрирован [ 2015-10-23 17:11 ] · 419117F8CB8EEC27822A8976246F69BE665D318C

Скачать .torrent

Скачать

43 KB

Статус: проверено
Скачан: 0 раз
Размер: 3.81 GB
terms.php



Быстрый ответ

Имя:

      
Для отправки сообщений необходимо включить JavaScript
Показать сообщения:    

Текущее время: 04-Дек 06:57

Часовой пояс: UTC + 3


Вы можете начинать темы
Вы можете отвечать на сообщения
Вы не можете редактировать свои сообщения
Вы не можете удалять свои сообщения
Вы не можете голосовать в опросах
Вы не можете прикреплять файлы к сообщениям
Вы можете скачивать файлы