(Classics) Munch Conducts Berlioz (10 CDs) - H.Berlioz: Romeo et Juliette, Les nuits d'ete, La damnation de Faust, Le corsaire, L'enfance du Christ, Harold en Italie, Le carnaval romain, Requiem, Symphony, Overtures - 2004, FLAC (image+.c


Статистика раздачи [Обновить пиров]
Размер:  3.07 GB   |    Зарегистрирован:  1 год 1 месяц   |    Скачан:  1 раз

Полного источника не было: 19 дней

Личеров:  4  [  0 KB/s  ]   Подробная статистика пиров
 
   
 
 
 

[Цитировать]

[ COMPLETE COLLECTIONS ] Munch Conducts Hector Berlioz | Boston Symphony Orchestra Louis-Hector Berlioz (1803-1869) | Charles Munch (1891-1968)
Beatrice et Benedict: Overture (1949) (1958) Benvenuto Cellini: Overture (1959) Harold en Italie, Op.16 (1958)
La damnation de Faust, Op.24 (1954) Le carnaval romain, Op.9 (1958) Le corsaire, Op.21 (1958) L'enfance du Christ, Op.25 (1956)Les nuits d'été, Op.7 (1955) Les troyens: Chasse royale et orage (1959) Requiem (Grande messe des morts), Op.5 (1959)Roméo et Juliette, Op.17 (1953) (1961) Symphonie fantastique, Op.14 (1954) (1962)

Жанр: Classical
Страна-производитель диска: EU
Год издания диска: 2004
Издатель (лейбл): BMG Classics/RCA Red Seal
Номер по каталогу: 82876-60393-2
Дата записи: 1949-1962
Аудиокодек: FLAC
Тип рипа: image+.cue
Битрейт аудио: lossless
Продолжительность: 11 ч 40'18"
Источник: собственный рип
Наличие сканов в содержимом раздачи: да (коробка, буклет 36 стр., конверты)

Треклист с указанием исполнителей и даты записи

Disc 1 Roméo et Juliette, Op. 17 (1953) (1/2) 1. I Introduction: Combats-Tumulte - Intervention du prince 4:34 2. I Prologue: D'anciennes haines endormies 4:39 3. I Premiers transports que nul n'oublie! 5:39 4. I Bientot de Roméo la pâle reverie 3:22 5. II Romeo seul 5:05 6. II Tristesse 1:32 7. II Bruits lointains de concert et de bal 0:28 8. II Grande fête chez Capulet 5:40 9. II Nuit sereine 3:1610. II Scène d'amour 15:4711. II Scherzo: La reine Mab 7:4612. III Convoi funèbre de Juliette 9:15
Disc 2 Roméo et Juliette, Op. 17 (1953) (2/2) 1. III Roméo au tombeau des Capulets 1:11 2. III Invocation 4:10 3. III Réveil de Juliette 0:55 4. III Mort des deux amants 1:21 Finale: 5. Quoi! Roméo de retour! 1:18 6. Je vais dévoiler le mystère 2:48 7. Pauvres enfants que je pleure 7:55 8. Jurez donc par l'auguste symbole 4:34
Margaret Roggero, mezzo-sopranoLeslie Chabay, tenorYi-Kwei Sze, bassHarvard Glee Club Radcliffe Choral Society G. Wallace Woodworth, director(Recorded February 22 and 23, 1953)
Les nuits d'été, Op. 7 9. Les Nuits d'été: Villanelle 2:1810. Le spectre de la rose 6:2811. Sur les lagunes 7:0712. Absence 5:1113. Au cimetière 5:5214. L'île inconnue 3:50
Victoria de los Angeles, soprano(Recorded April 12 and 13, 1955)
15. Les troyens: Chasse royale et orage 10:59
(Recorded April 6, 1959)
Disc 3 La damnation de Faust, Op. 24 (1/2) 1. I Le vieil hiver a fait place au printemps 6:08 2. I Les bergers laissent leurs troupeaux 3:24 3. I Mais d'un éclat guerrier 0:48 4. I Marche hongroise 4:37 5. II Sans regrets j'ai quitté 4:15 6. II Christ vient de ressusciter! (Chant de la fête de Pâques) 3:15 7. II Hélas! doux chants du ciel 1:06 8. II O pure émotion! 2:05 9. II A boire encor! du vin 0:2710. II Oh! qu'il fait bon 2:1311. II Certain rat (Chanson de Brander) 2:1112. II Amen, amen 1:1213. II Vrai Dieu, messieurs 1:1214. II Une puce gentille (Chanson de Méphistophélès) 1:3815. II Assez! fuyons ces lieux 2:2116. II Voici des roses 2:3217. II Dors! heureux Faust, dors! 6:4018. II Ballet des sylphs 2:1819. II Margarita! 1:1220. II Villes entourées 4:2821. III La retraite 1:0822. III Merci, doux crépuscule! 4:3823. III Je l'entends! 0:5924. III Que l'air est étouffant! 3:0325. III Autrefois un roi de Thulé (Le roi de Thulé) 4:4826. III Esprits des flammes inconstantes 1:52
Disc 4 La damnation de Faust, Op. 24 (2/2) 1. III Menuet des follets 5:02 2. III Maintenant, chantons à cette belle 2:38 3. III Grands dieux! 5:10 4. III Allons, il est trop tard! 4:50 5. IV D'amour l'ardente flamme (Romance de Marguerite) 6:59 6. IV Au son des trompettes 2:18 7. IV Nature immense (Invocation à la nature) 4:01 8. IV A la voûte azure 2:57 9. IV Dans mon coeur retentit (La course à l'abîme) 3:2310. IV Ha! Irimiru Karabrao! 3:4211. IV Alors l'enfer se tut 1:0412. IV Laus! Hosanna! 5:45
Marguerite - Suzanne Danco, sopranoFaust - David Poleri, tenorMéphistophélès - Martial Singher, baritoneBrander - Donald Gramm, bassMcHenry Boatwright, bass (Disc 4, Track 11)Harvard Glee Club • Radcliffe Choral SocietyG. Wallace Woodworth, directorJoseph De Pasquale, viola; Louis Speyer, horn(Recorded Feburary 21 and 22, 1954)
13.Béatrice et Bénédict: Ouverture(1958) 7:24
14. Le corsaire, Op. 21 8:05
(Recorded December 1, 1958)
15. Benvenuto Cellini: Ouverture, Op. 23 10:26
(Recorded April 6, 1959)
Disc 5
L'enfance du Christ, Op.25 (1/2) 1. I Le songe d'Hérode - Prologue - Dans la crèche 2:10 2. I Scène 1: Une rue de Jérusalem - Qui vient? 7:45 3. I Scène 2: Le palais d'hérode - Toujours ce rêve! 7:27 4. I Scéne 3 - Seigneur! 0:40 5. I Scène 4 - Les sages de Judée 3:40 6. I La voix dit vrai, seigneur 3:00 7. I Eh bien! 2:51 8. I Scène 5: L'étable de Bethléem - O mon cher fils 7:10 9. I Scène 6 - Joseph! Marie! 5:0010. II La fuite en Égypte – Ouverture 5:0011. II Il s'en va loin de la terre (L'adieu des bergers à la Sainte Famille) 4:0212. II Le repos de la Sainte Famille - Les pélerins étant venus 6:3913. III L'arrivée à Saïs - Depuis trois jours 3:5014. III Scène 1: L'intérieur de la ville - Dans cette ville immense 5:3415. III Scène 2: La maison des Ismaélites - Entrez, entrez, pauvres hébreux 4:2916. III Sur vos traits fatigues 3:13
Disc 6 L'enfance du Christ, Op. 25 (2/2) 1. III Trio pour deux flûtes et harpe 6:15 2. III Vous pleurez, jeune mere 4:23 3. III Ce fut ainsi que par un infidèle 10:14
Narrator (and Centurian) - Cesare Valletti, tenorMary - Florence Kopleff, contraitoJoseph - Gérard Souzay, baritonePolydorus, officer of the watch - Giorgio Tozzi, bassHerod - Giorgio Tozzi, bassThe Father of a Family - Giorgio Tozzi, bassNew England Conservatory ChorusLorna Cooke de Varon, directorLucien Olivier, baritone (Disc 5, Track 4)Doriot Anthony Dwyer, James Pappoutsakis, flutesBernard Zighera, harp(Recorded December 23 and 24, 1956)
Harold en Italie, Op. 16 4. Harold aux montagnes 12:09 5. Marche des pélerins 6:43 6. Sérénade 6:32 7. Orgie des brigands 12:39
(Recorded March 31, 1958)
8. Le carnaval romain, Op. 9 8:01
(Recorded December 1, 1958)
Disc 7 Grande messe des morts (Requiem), Op. 5 (1/2) 1. Requiem et Kyrie 11:36 2. Dies irae 12:29 3. Quid sum miser 3:29 4. Rex tremendae 5:44 5. Quaerens me 4:47 6. Lacrymosa 10:30 7. Offertorium 8:22 8. Hostias 3:19
Disc 8 Grande messe des morts (Requiem), Op.5 (2/2) 1. Sanctus 11:15 2. Agnus Dei 12:01
Leopold Simoneau, tenorNew England Conservatory ChorusLorna Cooke de Varon, director(Recorded April 26 and 27, 1959)
Symphonie fantastique, Op.14 (1954) 3. Rêveries; Passions 13:19 4. Un Bal 6:13 5. Scène aux champs 13:54 6. Marche aux supplice 4:30 7. Songe d'une nuit de sabbat 8:42
(Recorded November 14 and 15, 1954)
Disc 9 Roméo et Juliette, Op. 17 (1961) (1/2) 1. I Introduction: Combats-Tumulte - Intervention du prince 4:34 2. I Prologue: D'anciennes haines endormies 4:39 3. I Premiers transports que nul n'oublie! 5:39 4. I Bientot de Roméo la pâle reverie 3:22 5. II Romeo seul 5:05 6. II Tristesse 1:32 7. II Bruits lointains de concert et de bal 0:28 8. II Grande fête chez Capulet 5:40 9. II Nuit sereine 3:1610. II Scène d'amour 15:4711. II Scherzo: La reine Mab 7:4612. III Convoi funèbre de Juliette 9:1513. III Roméo au tombeau des Capulets 1:1114. III Invocation 4:1015. III Réveil de Juliette 0:5516. III Mort des deux amants 1:21
Disc 10 Roméo et Juliette, Op. 17 (1961) (2/2) Finale: 1. Quoi! Roméo de retour! 1:18 2. Je vais dévoiler le mystère 2:48 3. Pauvres enfants que je pleure 7:55 4. Jurez donc par l'auguste symbole 4:34
Rosalind Elias, mezzo sopranoCesare Valletti, tenorGiorgio Tozzi, bassNew England Conservatory Chorus,Lorna Cooke de Varon, director(Recorded April 23 and 24, 1961)
Symphonie fantastique, Op.14 (1962) 5. Rêveries; Passions 13:56 6. Un Bal 6:23 7. Scène aux champs 14:56 8. Marche aux supplice 4:24 9. Songe d'une nuit de sabbat 9:15
(Recorded April 9, 1962)
10. Béatrice et Bénédict: Overture (1949) 7:18
(Recorded 1949)
Boston Symphony Orchestraconductor Charles Munch

Лог создания рипа

[pre](Disk 1)
Exact Audio Copy V1.0 beta 3 from 29. August 2011
Отчёт EAC об извлечении, выполненном 28. января 2014, 18:29
Charles Munch, Boston Symphony Orchestra; Margaret Roggero, mezzo-suprano; Leslie Chabay, tenor; Harvard Glee Club, Radcliffe Choral Society / Munch Conducts Berlioz - Disc 1 - Roméo et Juliette
Дисковод: PIONEER DVD-RW DVR-219L Adapter: 2 ID: 0
Режим чтения : Достоверность
Использование точного потока : Да
Отключение кэша аудио : Да
Использование указателей C2 : Нет
Коррекция смещения при чтении : 6
Способность читать области Lead-in и Lead-out : Нет
Заполнение пропущенных сэмплов тишиной : Да
Удаление блоков с тишиной в начале и конце : Нет
При вычислениях CRC использовались нулевые сэмплы : Да
Интерфейс : Встроенный Win32-интерфейс для Win NT/2000
Выходной формат : Пользовательский кодировщик
Выбранный битрейт : 768 kBit/s
Качество : Высокий
Добавление ID3-тега : Нет
Утилита сжатия : C:\Program Files\Exact Audio Copy\FLAC\FLAC.EXE
Дополнительные параметры : -V -8 -T "DATE=%year%" -T "GENRE=%genre%" %source%
TOC извлечённого CD
Трек | Старт | Длительность | Начальный сектор | Конечный сектор
---------------------------------------------------------------------
1 | 0:00.00 | 4:33.55 | 0 | 20529
2 | 4:33.55 | 4:38.50 | 20530 | 41429
3 | 9:12.30 | 5:39.15 | 41430 | 66869
4 | 14:51.45 | 3:22.22 | 66870 | 82041
5 | 18:13.67 | 5:04.53 | 82042 | 104894
6 | 23:18.45 | 1:31.67 | 104895 | 111786
7 | 24:50.37 | 0:28.08 | 111787 | 113894
8 | 25:18.45 | 5:39.67 | 113895 | 139386
9 | 30:58.37 | 3:15.60 | 139387 | 154071
10 | 34:14.22 | 15:47.28 | 154072 | 225124
11 | 50:01.50 | 7:46.32 | 225125 | 260106
12 | 57:48.07 | 9:15.23 | 260107 | 301754
Характеристики диапазона извлечения и сообщения об ошибках
Выбранный диапазон
Имя файла Z:\Мои раздачи\Munch conducts Berlioz - 10 CD box set\Munch conducts Berlioz CD 1\Munch Conducts Berlioz - Disc 1.wav
Пиковый уровень 100.0 %
Скорость извлечения 1.8 X
Качество диапазона 100.0 %
CRC теста 183D7A08
CRC копии 183D7A08
Копирование... OK
Ошибок не произошло
AccurateRip: сводка
Трек 1 : извлечено точно (доверие 3) [2D7A46B4] (AR v2)
Трек 2 : извлечено точно (доверие 3) [38B17BBC] (AR v2)
Трек 3 : извлечено точно (доверие 3) [68DBFACB] (AR v2)
Трек 4 : извлечено точно (доверие 3) [0A731476] (AR v2)
Трек 5 : извлечено точно (доверие 3) [96B5A767] (AR v2)
Трек 6 : извлечено точно (доверие 3) [6765D7A7] (AR v2)
Трек 7 : извлечено точно (доверие 3) [B6C7C9C1] (AR v2)
Трек 8 : извлечено точно (доверие 3) [19304587] (AR v2)
Трек 9 : извлечено точно (доверие 3) [4DA53442] (AR v2)
Трек 10 : извлечено точно (доверие 3) [B6796AD6] (AR v2)
Трек 11 : извлечено точно (доверие 3) [BC6A7622] (AR v2)
Трек 12 : извлечено точно (доверие 3) [9EC12A2C] (AR v2)
Все треки извлечены точно
Конец отчёта
---- CUETools DB Plugin V2.1.3
[CTDB TOCID: 4bzN0PkOozBxU.5XidRzbpJni2I-] found, Submit result: already submitted
[e8774c5b] (4/6) Accurately ripped
[d98489ba] (1/6) No match
[175209b5] (1/6) No match
==== Контрольная сумма отчёта 6B36396574C8C305F275D5EF11F3294E6B6F9AD9C018F27111251508CE18F52B ====
(Disk 2)
Exact Audio Copy V1.0 beta 3 from 29. August 2011
Отчёт EAC об извлечении, выполненном 28. января 2014, 20:04
Charles Munch, Boston Symphony Orchestra; Yi-Kwei Sze, Bass; Harvard Glee Club, Radcliffe Choral Society; Victoria de los Angeles, Soprano / Munch Conducts Berlioz - Disc 2 - Roméo et Juliette - Les nuits d'été
Дисковод: PIONEER DVD-RW DVR-219L Adapter: 2 ID: 0
Режим чтения : Достоверность
Использование точного потока : Да
Отключение кэша аудио : Да
Использование указателей C2 : Нет
Коррекция смещения при чтении : 6
Способность читать области Lead-in и Lead-out : Нет
Заполнение пропущенных сэмплов тишиной : Да
Удаление блоков с тишиной в начале и конце : Нет
При вычислениях CRC использовались нулевые сэмплы : Да
Интерфейс : Встроенный Win32-интерфейс для Win NT/2000
Выходной формат : Пользовательский кодировщик
Выбранный битрейт : 768 kBit/s
Качество : Высокий
Добавление ID3-тега : Нет
Утилита сжатия : C:\Program Files\Exact Audio Copy\FLAC\FLAC.EXE
Дополнительные параметры : -V -8 -T "DATE=%year%" -T "GENRE=%genre%" %source%
TOC извлечённого CD
Трек | Старт | Длительность | Начальный сектор | Конечный сектор
---------------------------------------------------------------------
1 | 0:00.00 | 1:11.00 | 0 | 5324
2 | 1:11.00 | 4:10.07 | 5325 | 24081
3 | 5:21.07 | 0:54.70 | 24082 | 28201
4 | 6:16.02 | 1:20.65 | 28202 | 34266
5 | 7:36.67 | 1:18.38 | 34267 | 40154
6 | 8:55.30 | 2:47.70 | 40155 | 52749
7 | 11:43.25 | 7:55.05 | 52750 | 88379
8 | 19:38.30 | 4:33.52 | 88380 | 108906
9 | 24:12.07 | 2:17.60 | 108907 | 119241
10 | 26:29.67 | 6:27.65 | 119242 | 148331
11 | 32:57.57 | 7:06.48 | 148332 | 180329
12 | 40:04.30 | 5:11.37 | 180330 | 203691
13 | 45:15.67 | 5:51.53 | 203692 | 230069
14 | 51:07.45 | 3:50.30 | 230070 | 247349
15 | 54:58.00 | 10:59.30 | 247350 | 296804
Характеристики диапазона извлечения и сообщения об ошибках
Выбранный диапазон
Имя файла Z:\Мои раздачи\Munch conducts Berlioz - 10 CD box set\Munch conducts Berlioz CD 2\Munch Conducts Berlioz - Disc 2.wav
Пиковый уровень 98.1 %
Скорость извлечения 1.8 X
Качество диапазона 100.0 %
CRC теста A5D5E9A6
CRC копии A5D5E9A6
Копирование... OK
Ошибок не произошло
AccurateRip: сводка
Трек 1 : извлечено точно (доверие 4) [3DF8F4F5] (AR v2)
Трек 2 : извлечено точно (доверие 4) [457530A4] (AR v2)
Трек 3 : извлечено точно (доверие 4) [AA2C3B18] (AR v2)
Трек 4 : извлечено точно (доверие 4) [5D0BD531] (AR v2)
Трек 5 : извлечено точно (доверие 4) [A62ECA3B] (AR v2)
Трек 6 : извлечено точно (доверие 4) [74B8FD3A] (AR v2)
Трек 7 : извлечено точно (доверие 4) [7CF821BC] (AR v2)
Трек 8 : извлечено точно (доверие 4) [D391059F] (AR v2)
Трек 9 : извлечено точно (доверие 4) [A2A999E6] (AR v2)
Трек 10 : извлечено точно (доверие 4) [AA09E84F] (AR v2)
Трек 11 : извлечено точно (доверие 4) [6CA96362] (AR v2)
Трек 12 : извлечено точно (доверие 4) [C9403C87] (AR v2)
Трек 13 : извлечено точно (доверие 4) [9E465EF4] (AR v2)
Трек 14 : извлечено точно (доверие 4) [EAB88B78] (AR v2)
Трек 15 : извлечено точно (доверие 4) [4D3A33A6] (AR v2)
Все треки извлечены точно
Конец отчёта
---- CUETools DB Plugin V2.1.3
[CTDB TOCID: oJg5o.Zru10bB1B3I9FgKP6NIF8-] found, Submit result: oJg5o.Zru10bB1B3I9FgKP6NIF8- has been confirmed
[64a52a0c] (4/5) Accurately ripped
[46a3dbd1] (1/5) No match
==== Контрольная сумма отчёта EC2D1ABD1362E45BCF7D98A7FF1B0A00B740E2C8C4BFE64E6DA1B79C2DEF9A3B ====
(Disk 3)
Exact Audio Copy V1.0 beta 3 from 29. August 2011
Отчёт EAC об извлечении, выполненном 28. января 2014, 21:57
Charles Munch, Boston Symphony Orchestra; Suzanne Danco, Soprano; David Poleri, Tenor; Martial Singher, Baritone; Donald Gramm, Bass; Harvard Glee Club, Radcliffe Choral Society / Munch Conducts Berlioz - Disc 3 - La damnation de Faust, Op.24
Дисковод: PIONEER DVD-RW DVR-219L Adapter: 2 ID: 0
Режим чтения : Достоверность
Использование точного потока : Да
Отключение кэша аудио : Да
Использование указателей C2 : Нет
Коррекция смещения при чтении : 6
Способность читать области Lead-in и Lead-out : Нет
Заполнение пропущенных сэмплов тишиной : Да
Удаление блоков с тишиной в начале и конце : Нет
При вычислениях CRC использовались нулевые сэмплы : Да
Интерфейс : Встроенный Win32-интерфейс для Win NT/2000
Выходной формат : Пользовательский кодировщик
Выбранный битрейт : 768 kBit/s
Качество : Высокий
Добавление ID3-тега : Нет
Утилита сжатия : C:\Program Files\Exact Audio Copy\FLAC\FLAC.EXE
Дополнительные параметры : -V -8 -T "DATE=%year%" -T "GENRE=%genre%" %source%
TOC извлечённого CD
Трек | Старт | Длительность | Начальный сектор | Конечный сектор
---------------------------------------------------------------------
1 | 0:00.00 | 6:07.55 | 0 | 27579
2 | 6:07.55 | 3:24.27 | 27580 | 42906
3 | 9:32.07 | 0:48.18 | 42907 | 46524
4 | 10:20.25 | 4:37.35 | 46525 | 67334
5 | 14:57.60 | 4:14.55 | 67335 | 86439
6 | 19:12.40 | 6:15.12 | 86440 | 114576
7 | 25:27.52 | 1:06.30 | 114577 | 119556
8 | 26:34.07 | 2:05.45 | 119557 | 128976
9 | 28:39.52 | 0:27.15 | 128977 | 131016
10 | 29:06.67 | 2:13.23 | 131017 | 141014
11 | 31:20.15 | 2:10.55 | 141015 | 150819
12 | 33:30.70 | 1:12.42 | 150820 | 156261
13 | 34:43.37 | 1:12.40 | 156262 | 161701
14 | 35:56.02 | 1:38.25 | 161702 | 169076
15 | 37:34.27 | 2:20.68 | 169077 | 179644
16 | 39:55.20 | 2:32.05 | 179645 | 191049
17 | 42:27.25 | 6:40.05 | 191050 | 221054
18 | 49:07.30 | 2:18.10 | 221055 | 231414
19 | 51:25.40 | 1:12.05 | 231415 | 236819
20 | 52:37.45 | 4:27.55 | 236820 | 256899
21 | 57:05.25 | 1:08.02 | 256900 | 262001
22 | 58:13.27 | 4:38.35 | 262002 | 282886
23 | 62:51.62 | 0:59.30 | 282887 | 287341
24 | 63:51.17 | 3:03.00 | 287342 | 301066
25 | 66:54.17 | 4:48.08 | 301067 | 322674
26 | 71:42.25 | 1:52.30 | 322675 | 331104
Характеристики диапазона извлечения и сообщения об ошибках
Выбранный диапазон
Имя файла Z:\Мои раздачи\Munch conducts Berlioz - 10 CD box set\Munch conducts Berlioz CD 3\Munch Conducts Berlioz - Disc 3 - La damnation de Faust, Op.wav
Пиковый уровень 100.0 %
Скорость извлечения 1.8 X
Качество диапазона 100.0 %
CRC теста 4FC3CB88
CRC копии 4FC3CB88
Копирование... OK
Ошибок не произошло
AccurateRip: сводка
Трек 1 : извлечено точно (доверие 3) [BFCCD4A8] (AR v2)
Трек 2 : извлечено точно (доверие 3) [844BBEDE] (AR v2)
Трек 3 : извлечено точно (доверие 3) [B1456D92] (AR v2)
Трек 4 : извлечено точно (доверие 3) [AE7E0AA3] (AR v2)
Трек 5 : извлечено точно (доверие 3) [E8CDA14D] (AR v2)
Трек 6 : извлечено точно (доверие 3) [6CAFB363] (AR v2)
Трек 7 : извлечено точно (доверие 3) [4FED10DA] (AR v2)
Трек 8 : извлечено точно (доверие 3) [741DA149] (AR v2)
Трек 9 : извлечено точно (доверие 3) [48B8344C] (AR v2)
Трек 10 : извлечено точно (доверие 3) [1BF513FB] (AR v2)
Трек 11 : извлечено точно (доверие 3) [C0F76DC3] (AR v2)
Трек 12 : извлечено точно (доверие 3) [70C8E3BE] (AR v2)
Трек 13 : извлечено точно (доверие 3) [D0DCB076] (AR v2)
Трек 14 : извлечено точно (доверие 3) [BC56544C] (AR v2)
Трек 15 : извлечено точно (доверие 3) [7F021FCA] (AR v2)
Трек 16 : извлечено точно (доверие 3) [8A15F7FC] (AR v2)
Трек 17 : извлечено точно (доверие 3) [33C9B5D2] (AR v2)
Трек 18 : извлечено точно (доверие 3) [39B42FDF] (AR v2)
Трек 19 : извлечено точно (доверие 3) [1EC2E881] (AR v2)
Трек 20 : извлечено точно (доверие 3) [38C26608] (AR v2)
Трек 21 : извлечено точно (доверие 3) [1E5F7B34] (AR v2)
Трек 22 : извлечено точно (доверие 3) [9A74F31C] (AR v2)
Трек 23 : извлечено точно (доверие 3) [24F295B2] (AR v2)
Трек 24 : извлечено точно (доверие 3) [8A42941F] (AR v2)
Трек 25 : извлечено точно (доверие 3) [621AB4F4] (AR v2)
Трек 26 : извлечено точно (доверие 3) [5AC78FB0] (AR v2)
Все треки извлечены точно
Конец отчёта
---- CUETools DB Plugin V2.1.3
[CTDB TOCID: Lro2uqbcaTl7I_hAv7QV9zxBoSk-] found, Submit result: Lro2uqbcaTl7I_hAv7QV9zxBoSk- has been confirmed
[858e6542] (3/3) Accurately ripped
==== Контрольная сумма отчёта E13E0ADE5CA65C6B47240E62535B1E7BBEEA5CE496A70F6E1698EB24D352A1D7 ====
(Disk 4)
Exact Audio Copy V1.0 beta 3 from 29. August 2011
Отчёт EAC об извлечении, выполненном 29. января 2014, 0:12
Charles Munch, Boston Symphony Orchestra; Suzanne Danco, Soprano; David Poleri, Tenor; Martial Singher, Baritone; Donald Gramm, Bass; Harvard Glee Club, Radcliffe Choral Society / Munch Conducts Berlioz - Disc 4 - La damnation de Faust, Op.24
Дисковод: PIONEER DVD-RW DVR-219L Adapter: 2 ID: 0
Режим чтения : Достоверность
Использование точного потока : Да
Отключение кэша аудио : Да
Использование указателей C2 : Нет
Коррекция смещения при чтении : 6
Способность читать области Lead-in и Lead-out : Нет
Заполнение пропущенных сэмплов тишиной : Да
Удаление блоков с тишиной в начале и конце : Нет
При вычислениях CRC использовались нулевые сэмплы : Да
Интерфейс : Встроенный Win32-интерфейс для Win NT/2000
Выходной формат : Пользовательский кодировщик
Выбранный битрейт : 768 kBit/s
Качество : Высокий
Добавление ID3-тега : Нет
Утилита сжатия : C:\Program Files\Exact Audio Copy\FLAC\FLAC.EXE
Дополнительные параметры : -V -8 -T "DATE=%year%" -T "GENRE=%genre%" %source%
TOC извлечённого CD
Трек | Старт | Длительность | Начальный сектор | Конечный сектор
---------------------------------------------------------------------
1 | 0:00.32 | 5:01.65 | 32 | 22671
2 | 5:02.22 | 2:38.35 | 22672 | 34556
3 | 7:40.57 | 5:10.00 | 34557 | 57806
4 | 12:50.57 | 4:50.13 | 57807 | 79569
5 | 17:40.70 | 6:59.22 | 79570 | 111016
6 | 24:40.17 | 2:17.50 | 111017 | 121341
7 | 26:57.67 | 4:01.08 | 121342 | 139424
8 | 30:59.00 | 2:56.65 | 139425 | 152689
9 | 33:55.65 | 3:22.60 | 152690 | 167899
10 | 37:18.50 | 3:42.07 | 167900 | 184556
11 | 41:00.57 | 1:03.50 | 184557 | 189331
12 | 42:04.32 | 5:44.73 | 189332 | 215204
13 | 47:49.30 | 7:23.55 | 215205 | 248484
14 | 55:13.10 | 8:05.07 | 248485 | 284866
15 | 63:18.17 | 10:26.45 | 284867 | 331861
Характеристики диапазона извлечения и сообщения об ошибках
Выбранный диапазон
Имя файла Z:\Мои раздачи\Munch conducts Berlioz - 10 CD box set\Munch conducts Berlioz CD 4\Munch Conducts Berlioz - Disc 4 - La damnation de Faust, Op.wav
Пиковый уровень 100.0 %
Скорость извлечения 1.8 X
Качество диапазона 100.0 %
CRC теста 489F780F
CRC копии 489F780F
Копирование... OK
Ошибок не произошло
AccurateRip: сводка
Трек 1 : извлечено точно (доверие 3) [FDCE8898] (AR v2)
Трек 2 : извлечено точно (доверие 3) [BB344A5B] (AR v2)
Трек 3 : извлечено точно (доверие 3) [AA0BC99B] (AR v2)
Трек 4 : извлечено точно (доверие 3) [77B0434E] (AR v2)
Трек 5 : извлечено точно (доверие 3) [E7821568] (AR v2)
Трек 6 : извлечено точно (доверие 3) [11034F07] (AR v2)
Трек 7 : извлечено точно (доверие 3) [FBDD789C] (AR v2)
Трек 8 : извлечено точно (доверие 3) [52774312] (AR v2)
Трек 9 : извлечено точно (доверие 3) [91DC195E] (AR v2)
Трек 10 : извлечено точно (доверие 3) [5D976A02] (AR v2)
Трек 11 : извлечено точно (доверие 3) [7C50BC09] (AR v2)
Трек 12 : извлечено точно (доверие 3) [7281EB4B] (AR v2)
Трек 13 : извлечено точно (доверие 3) [AC8D4B51] (AR v2)
Трек 14 : извлечено точно (доверие 3) [DA3CA71C] (AR v2)
Трек 15 : извлечено точно (доверие 3) [3A3BC554] (AR v2)
Все треки извлечены точно
Конец отчёта
---- CUETools DB Plugin V2.1.3
[CTDB TOCID: N62nP4IIHsYJHOB0bcf6uwHC_98-] disk not present in database, Submit result: discs with pregaps not supported in this protocol version
==== Контрольная сумма отчёта 06803CDF9EC680C41FD1E46A54BC3D1EC1621C4443D60FEE0DBDB5D76A843305 ====
(Disk 5)
Exact Audio Copy V0.99 prebeta 5 from 4. May 2009
Отчёт EAC об извлечении, выполненном 13. февраля 2010, 15:28
Charles Munch, Boston Symphony Orchestra; Cesare Valletti, Tenor; Florence Kopleff, Contralto; Gйrard Souzay, Baritone; Giogio Tozzi, Bass; New England Conservatory, Chorus / Munch Conducts Berlioz - Disc 5 - L'enfance du Christ, Op.25
Дисковод: HL-DT-STDVD-RAM GSA-H22L Adapter: 2 ID: 0
Режим чтения : Достоверность
Использование точного потока : Да
Отключение кэша аудио : Да
Использование указателей C2 : Нет
Коррекция смещения при чтении : 102
Способность читать области Lead-in и Lead-out : Да
Заполнение пропущенных сэмплов тишиной : Да
Удаление блоков с тишиной в начале и конце : Нет
При вычислениях CRC использовались нулевые сэмплы : Да
Интерфейс : Установленный внешний ASPI-интерфейс
Выходной формат : Внутренние WAV-операции
Формат сэмплов : 44.100 Гц; 16 бит; стерео
TOC извлечённого CD
Трек | Старт | Длительность | Начальный сектор | Конечный сектор
---------------------------------------------------------------------
1 | 0:00.00 | 2:10.02 | 0 | 9751
2 | 2:10.02 | 7:45.20 | 9752 | 44646
3 | 9:55.22 | 7:27.10 | 44647 | 78181
4 | 17:22.32 | 0:40.00 | 78182 | 81181
5 | 18:02.32 | 3:40.28 | 81182 | 97709
6 | 21:42.60 | 3:00.02 | 97710 | 111211
7 | 24:42.62 | 2:51.10 | 111212 | 124046
8 | 27:33.72 | 7:10.08 | 124047 | 156304
9 | 34:44.05 | 5:00.05 | 156305 | 178809
10 | 39:44.10 | 4:59.72 | 178810 | 201306
11 | 44:44.07 | 4:02.20 | 201307 | 219476
12 | 48:46.27 | 6:39.00 | 219477 | 249401
13 | 55:25.27 | 3:50.18 | 249402 | 266669
14 | 59:15.45 | 5:34.30 | 266670 | 291749
15 | 64:50.00 | 4:29.35 | 291750 | 311959
16 | 69:19.35 | 3:12.70 | 311960 | 326429
Характеристики диапазона извлечения и сообщения об ошибках
Выбранный диапазон
Имя файла W:\ProBit\1 No\Herctor Berlioz - Charles Munch Conducts Berlioz (8 CD's)\Munch Conducts Berlioz - Disc 5 - L'enfance du Christ, Op.25.wav
Пиковый уровень 100.0 %
Качество диапазона 100.0 %
CRC теста 4B073218
CRC копии 4B073218
Копирование... OK
Ошибок не произошло
AccurateRip: сводка
Трек 1 точность не определена (достоверность 2) [C2C98987], AccurateRip вернул [FEA8F71D]
Трек 2 точность не определена (достоверность 2) [E995A19E], AccurateRip вернул [DA5E4D1E]
Трек 3 точность не определена (достоверность 2) [C2A14677], AccurateRip вернул [47EEFB54]
Трек 4 точность не определена (достоверность 2) [55C43EB2], AccurateRip вернул [A47DCAED]
Трек 5 точность не определена (достоверность 2) [00994A3D], AccurateRip вернул [4AB486AA]
Трек 6 точность не определена (достоверность 2) [5D4492FE], AccurateRip вернул [C968776D]
Трек 7 точность не определена (достоверность 2) [4B8A685E], AccurateRip вернул [2954C5A5]
Трек 8 точность не определена (достоверность 2) [C06CB0C0], AccurateRip вернул [ECC4D50C]
Трек 9 точность не определена (достоверность 2) [F5EEF675], AccurateRip вернул [05005875]
Трек 10 точность не определена (достоверность 2) [A7459881], AccurateRip вернул [7A92E9D3]
Трек 11 точность не определена (достоверность 2) [7A6AFCBB], AccurateRip вернул [3FF28C32]
Трек 12 точность не определена (достоверность 2) [DBFA5CDE], AccurateRip вернул [7E23A58D]
Трек 13 точность не определена (достоверность 2) [AB284072], AccurateRip вернул [8898BEAD]
Трек 14 точность не определена (достоверность 2) [62D50FD4], AccurateRip вернул [4FFFAA09]
Трек 15 точность не определена (достоверность 2) [1B31074D], AccurateRip вернул [43A3F3BE]
Трек 16 точность не определена (достоверность 2) [D5FC3D8F], AccurateRip вернул [1ADD9168]
Ни один трек не прошёл проверки на точность
В вашей базе может быть иной вариант штамповки диска
Конец отчёта
(Disk 6)
Exact Audio Copy V0.99 prebeta 5 from 4. May 2009
Отчёт EAC об извлечении, выполненном 13. февраля 2010, 17:54
Charles Munch, Boston Symphony Orchestra; Valletti, Tenor; Kopleff, Contralto; Souzay, Baritone; Tozzi, Bass; New England Conse
/Munch Conducts Berlioz - Disc 6 - L'enfance du Christ, Op.25 - Harold en Italie, Op.16, Le carnaval romain
Дисковод: HL-DT-STDVD-RAM GSA-H22L Adapter: 2 ID: 0
Режим чтения : Достоверность
Использование точного потока : Да
Отключение кэша аудио : Да
Использование указателей C2 : Нет
Коррекция смещения при чтении: 102
Способность читать области Lead-in и Lead-out : Да
Заполнение пропущенных сэмплов тишиной : Да
Удаление блоков с тишиной в начале и конце : Нет
При вычислениях CRC использовались нулевые сэмплы : Да
Интерфейс : Установленный внешний ASPI-интерфейс
Выходной формат : Внутренние WAV-операции
Формат сэмплов : 44.100 Гц; 16 бит; стерео
TOC извлечённого CD
Трек | Старт | Длительность | Начальный сектор | Конечный сектор ---------------------------------------------------------------------
1 | 0:00.00 | 6:15.05 | 0 | 28129
2 | 6:15.05 | 4:22.62 | 28130 | 47841
3 | 10:37.67 | 10:14.08 | 47842 | 93899
4 | 20:52.00 | 12:08.65 | 93900 | 148564
5 | 33:00.65 | 6:43.10 | 148565 | 178799
6 | 39:44.00 | 6:32.25 | 178800 | 208224
7 | 46:16.25 | 12:38.50 | 208225 | 265124
8 | 58:55.00 | 8:01.30 | 265125 | 301229
Характеристики диапазона извлечения и сообщения об ошибках
Выбранный диапазон
Имя файла W:\ProBit\1 No\Herctor Berlioz - Charles Munch Conducts Berlioz (8 CD's)\Munch Conducts Berlioz - Disc 6 - L'enfance du Christ, Op.25 - Harold en Italie, Op.16, Le carnaval romain.wav
Пиковый уровень 97.4 %
Качество диапазона 100.0 %
CRC теста E953A7AE
CRC копии E953A7AE
Копирование... OK
Ошибок не произошло
AccurateRip: сводка
Трек 1 точность не определена (достоверность 2) [0E686B4C], AccurateRip вернул [CAEB5790]
Трек 2 точность не определена (достоверность 2) [2DB104E1], AccurateRip вернул [5143B9FE]
Трек 3 точность не определена (достоверность 2) [6AE61F98], AccurateRip вернул [61F70FBF]
Трек 4 точность не определена (достоверность 2) [4BAE3B28], AccurateRip вернул [1D2D40A6]
Трек 5 точность не определена (достоверность 2) [032CB9B4], AccurateRip вернул [BB66108D]
Трек 6 точность не определена (достоверность 2) [C7627D8F], AccurateRip вернул [0936E996]
Трек 7 точность не определена (достоверность 2) [9128D21C], AccurateRip вернул [8CA98AAF]
Трек 8 точность не определена (достоверность 2) [57E87B5B], AccurateRip вернул [25B7D143]
Ни один трек не прошёл проверки на точность
В вашей базе может быть иной вариант штамповки диска
Конец отчёта
(Disk 7)
Exact Audio Copy V1.0 beta 3 from 29. August 2011
Отчёт EAC об извлечении, выполненном 29. января 2014, 12:46
Charles Munch, New England Conservatory Chorus, Boston Symphony Orchestra / Munch Conducts Berlioz - Disc 7 - Grande messe des morts, Op.5 (Requiem)
Дисковод: PIONEER DVD-RW DVR-219L Adapter: 2 ID: 0
Режим чтения : Достоверность
Использование точного потока : Да
Отключение кэша аудио : Да
Использование указателей C2 : Нет
Коррекция смещения при чтении : 6
Способность читать области Lead-in и Lead-out : Нет
Заполнение пропущенных сэмплов тишиной : Да
Удаление блоков с тишиной в начале и конце : Нет
При вычислениях CRC использовались нулевые сэмплы : Да
Интерфейс : Встроенный Win32-интерфейс для Win NT/2000
Выходной формат : Пользовательский кодировщик
Выбранный битрейт : 768 kBit/s
Качество : Высокий
Добавление ID3-тега : Нет
Утилита сжатия : C:\Program Files\Exact Audio Copy\FLAC\FLAC.EXE
Дополнительные параметры : -V -8 -T "DATE=%year%" -T "GENRE=%genre%" %source%
TOC извлечённого CD
Трек | Старт | Длительность | Начальный сектор | Конечный сектор
---------------------------------------------------------------------
1 | 0:00.00 | 11:35.55 | 0 | 52179
2 | 11:35.55 | 12:29.10 | 52180 | 108364
3 | 24:04.65 | 3:29.05 | 108365 | 124044
4 | 27:33.70 | 5:44.10 | 124045 | 149854
5 | 33:18.05 | 4:46.70 | 149855 | 171374
6 | 38:05.00 | 10:30.40 | 171375 | 218664
7 | 48:35.40 | 8:21.70 | 218665 | 256309
8 | 56:57.35 | 3:19.40 | 256310 | 271274
Характеристики диапазона извлечения и сообщения об ошибках
Выбранный диапазон
Имя файла Z:\Мои раздачи\Munch conducts Berlioz - 10 CD box set\Munch Conducts Berlioz - Disc 7 - Grande messe des morts, Op.5 (Requiem).wav
Пиковый уровень 99.9 %
Скорость извлечения 1.8 X
Качество диапазона 100.0 %
CRC теста 604B8721
CRC копии 604B8721
Копирование... OK
Ошибок не произошло
AccurateRip: сводка
Трек 1 : извлечено точно (доверие 3) [B1707A55] (AR v2)
Трек 2 : извлечено точно (доверие 3) [08F27290] (AR v2)
Трек 3 : извлечено точно (доверие 3) [B51A33E8] (AR v2)
Трек 4 : извлечено точно (доверие 3) [B797BAFE] (AR v2)
Трек 5 : извлечено точно (доверие 3) [5C3BDDFE] (AR v2)
Трек 6 : извлечено точно (доверие 3) [58FF70E0] (AR v2)
Трек 7 : извлечено точно (доверие 3) [498DDB06] (AR v2)
Трек 8 : извлечено точно (доверие 3) [E1F841AE] (AR v2)
Все треки извлечены точно
Конец отчёта
---- CUETools DB Plugin V2.1.3
[CTDB TOCID: yLgScpNAu.mR1v46XKGUg6SbuCE-] found, Submit result: yLgScpNAu.mR1v46XKGUg6SbuCE- has been confirmed
[4788d296] (3/4) Accurately ripped
[5db0278e] (1/4) No match
==== Контрольная сумма отчёта F3D650C23EF1D22046080F715838630760DB5E4A2FD9147BA094438BEB50D7F7 ====
(Disk 8)
Exact Audio Copy V1.0 beta 3 from 29. August 2011
Отчёт EAC об извлечении, выполненном 29. января 2014, 21:12
Boston Symphony Orchestra, Charles Munch / Munch Conducts Berlioz - Disc 8 - Requiem, Op.5 (Grande messe des morts) - Symphonie fantastique, Op.14
Дисковод: PIONEER DVD-RW DVR-219L Adapter: 2 ID: 0
Режим чтения : Достоверность
Использование точного потока : Да
Отключение кэша аудио : Да
Использование указателей C2 : Нет
Коррекция смещения при чтении : 6
Способность читать области Lead-in и Lead-out : Нет
Заполнение пропущенных сэмплов тишиной : Да
Удаление блоков с тишиной в начале и конце : Нет
При вычислениях CRC использовались нулевые сэмплы : Да
Интерфейс : Встроенный Win32-интерфейс для Win NT/2000
Выходной формат : Пользовательский кодировщик
Выбранный битрейт : 768 kBit/s
Качество : Высокий
Добавление ID3-тега : Нет
Утилита сжатия : C:\Program Files\Exact Audio Copy\FLAC\FLAC.EXE
Дополнительные параметры : -V -8 -T "DATE=%year%" -T "GENRE=%genre%" %source%
TOC извлечённого CD
Трек | Старт | Длительность | Начальный сектор | Конечный сектор
---------------------------------------------------------------------
1 | 0:00.00 | 11:14.70 | 0 | 50619
2 | 11:14.70 | 12:01.05 | 50620 | 104699
3 | 23:16.00 | 13:19.00 | 104700 | 164624
4 | 36:35.00 | 6:13.00 | 164625 | 192599
5 | 42:48.00 | 13:54.00 | 192600 | 255149
6 | 56:42.00 | 4:30.00 | 255150 | 275399
7 | 61:12.00 | 8:42.30 | 275400 | 314579
Характеристики диапазона извлечения и сообщения об ошибках
Выбранный диапазон
Имя файла Z:\Мои раздачи\Munch conducts Berlioz - 10 CD box set\Munch conducts Berlioz CD 8\Munch Conducts Berlioz - Disc 8 - Requiem, Op.5 (Grande messe des morts) - Symphonie fantastique, Op.wav
Пиковый уровень 95.4 %
Скорость извлечения 1.8 X
Качество диапазона 100.0 %
CRC теста C6293091
CRC копии C6293091
Копирование... OK
Ошибок не произошло
AccurateRip: сводка
Трек 1 : извлечено точно (доверие 3) [D69A1F21] (AR v2)
Трек 2 : извлечено точно (доверие 3) [EB3775DB] (AR v2)
Трек 3 : извлечено точно (доверие 3) [91B888FA] (AR v2)
Трек 4 : извлечено точно (доверие 3) [4CE78E5D] (AR v2)
Трек 5 : извлечено точно (доверие 3) [2DA66CF5] (AR v2)
Трек 6 : извлечено точно (доверие 3) [E161EE3E] (AR v2)
Трек 7 : извлечено точно (доверие 3) [30271F3B] (AR v2)
Все треки извлечены точно
Конец отчёта
---- CUETools DB Plugin V2.1.3
[CTDB TOCID: ppYx3HU_YgoWqLcnoUqYBCL8aLA-] found, Submit result: ppYx3HU_YgoWqLcnoUqYBCL8aLA- has been confirmed
[935b7946] (3/4) Accurately ripped
[0eaf6d77] (1/4) No match
==== Контрольная сумма отчёта B37BDC7832EC0F078B8A024A7079184568D29A12594D426251614D70004CE4B0 ====
(Disk 9)
Exact Audio Copy V1.0 beta 3 from 29. August 2011
Отчёт EAC об извлечении, выполненном 14. января 2014, 0:13
Rosalind Elias, Cesare Valletti, Giorgio Tozzi, New England Conservatory Chorus, Boston Symphony Orchestra, Charles Munch / Romèo et Juliette, Op. 17
Дисковод: PIONEER DVD-RW DVR-219L Adapter: 2 ID: 0
Режим чтения : Достоверность
Использование точного потока : Да
Отключение кэша аудио : Да
Использование указателей C2 : Нет
Коррекция смещения при чтении : 6
Способность читать области Lead-in и Lead-out : Нет
Заполнение пропущенных сэмплов тишиной : Да
Удаление блоков с тишиной в начале и конце : Нет
При вычислениях CRC использовались нулевые сэмплы : Да
Интерфейс : Встроенный Win32-интерфейс для Win NT/2000
Выходной формат : Пользовательский кодировщик
Выбранный битрейт : 768 kBit/s
Качество : Высокий
Добавление ID3-тега : Нет
Утилита сжатия : C:\Program Files\Exact Audio Copy\FLAC\FLAC.EXE
Дополнительные параметры : -V -8 -T "DATE=%year%" -T "GENRE=%genre%" %source%
TOC извлечённого CD
Трек | Старт | Длительность | Начальный сектор | Конечный сектор
---------------------------------------------------------------------
1 | 0:00.00 | 4:49.00 | 0 | 21674
2 | 4:49.00 | 4:44.12 | 21675 | 42986
3 | 9:33.12 | 6:30.00 | 42987 | 72236
4 | 16:03.12 | 3:41.38 | 72237 | 88849
5 | 19:44.50 | 4:28.70 | 88850 | 109019
6 | 24:13.45 | 1:30.35 | 109020 | 115804
7 | 25:44.05 | 0:29.70 | 115805 | 118049
8 | 26:14.00 | 5:58.55 | 118050 | 144954
9 | 32:12.55 | 3:05.67 | 144955 | 158896
10 | 35:18.47 | 13:18.45 | 158897 | 218791
11 | 48:37.17 | 7:49.20 | 218792 | 253986
12 | 56:26.37 | 9:30.13 | 253987 | 296749
13 | 65:56.50 | 1:05.67 | 296750 | 301691
14 | 67:02.42 | 3:41.15 | 301692 | 318281
15 | 70:43.57 | 0:56.70 | 318282 | 322551
16 | 71:40.52 | 1:20.23 | 322552 | 328574
Характеристики диапазона извлечения и сообщения об ошибках
Выбранный диапазон
Имя файла Z:\Мои раздачи\Munch conducts Berlioz disc 9\Rosalind Elias, Cesare Valletti, Giorgio Tozzi, New England Conservatory Chorus, Boston Symphony Orchestra, Charles Munch - Romèo et Juliette, Op. 17.wav
Пиковый уровень 98.5 %
Скорость извлечения 1.8 X
Качество диапазона 100.0 %
CRC теста 956F7709
CRC копии 956F7709
Копирование... OK
Ошибок не произошло
AccurateRip: сводка
Трек 1 : извлечено точно (доверие 2) [A80EE604] (AR v2)
Трек 2 : извлечено точно (доверие 2) [8631A740] (AR v2)
Трек 3 : извлечено точно (доверие 2) [23126532] (AR v2)
Трек 4 : извлечено точно (доверие 2) [746DD608] (AR v2)
Трек 5 : извлечено точно (доверие 2) [2BC47017] (AR v2)
Трек 6 : извлечено точно (доверие 2) [AB6DEC56] (AR v2)
Трек 7 : извлечено точно (доверие 2) [8B1E3319] (AR v2)
Трек 8 : извлечено точно (доверие 2) [5CABE0C4] (AR v2)
Трек 9 : извлечено точно (доверие 2) [1C0F688E] (AR v2)
Трек 10 : извлечено точно (доверие 2) [96317243] (AR v2)
Трек 11 : извлечено точно (доверие 2) [72A6E35C] (AR v2)
Трек 12 : извлечено точно (доверие 2) [A221CF23] (AR v2)
Трек 13 : извлечено точно (доверие 2) [851B070F] (AR v2)
Трек 14 : извлечено точно (доверие 2) [36D1B48D] (AR v2)
Трек 15 : извлечено точно (доверие 2) [653436AF] (AR v2)
Трек 16 : извлечено точно (доверие 2) [5AE10D2D] (AR v2)
Все треки извлечены точно
Конец отчёта
---- CUETools DB Plugin V2.1.3
[CTDB TOCID: 2cYHVlct9KmwWOQ_l.i8VIXN8OE-] found, Submit result: 2cYHVlct9KmwWOQ_l.i8VIXN8OE- has been confirmed
[8347185f] (4/4) Accurately ripped
==== Контрольная сумма отчёта 56D6CBDC4A29BDD3081B84CEB577D6CC62EC430496560C19375C9EBCFBCF40DA ====
(Disk 10)
Exact Audio Copy V1.0 beta 3 from 29. August 2011
Отчёт EAC об извлечении, выполненном 14. января 2014, 12:56
Berlioz, Hector / Munch Conducts Berlioz, Munch, Boston SO, CD10
Дисковод: PIONEER DVD-RW DVR-219L Adapter: 2 ID: 0
Режим чтения : Достоверность
Использование точного потока : Да
Отключение кэша аудио : Да
Использование указателей C2 : Нет
Коррекция смещения при чтении : 6
Способность читать области Lead-in и Lead-out : Нет
Заполнение пропущенных сэмплов тишиной : Да
Удаление блоков с тишиной в начале и конце : Нет
При вычислениях CRC использовались нулевые сэмплы : Да
Интерфейс : Встроенный Win32-интерфейс для Win NT/2000
Выходной формат : Пользовательский кодировщик
Выбранный битрейт : 768 kBit/s
Качество : Высокий
Добавление ID3-тега : Нет
Утилита сжатия : C:\Program Files\Exact Audio Copy\FLAC\FLAC.EXE
Дополнительные параметры : -V -8 -T "DATE=%year%" -T "GENRE=%genre%" %source%
TOC извлечённого CD
Трек | Старт | Длительность | Начальный сектор | Конечный сектор
---------------------------------------------------------------------
1 | 0:00.00 | 1:31.37 | 0 | 6861
2 | 1:31.37 | 2:48.43 | 6862 | 19504
3 | 4:20.05 | 8:59.62 | 19505 | 59991
4 | 13:19.67 | 5:09.08 | 59992 | 83174
5 | 18:29.00 | 13:59.37 | 83175 | 146136
6 | 32:28.37 | 6:27.25 | 146137 | 175186
7 | 38:55.62 | 14:59.00 | 175187 | 242611
8 | 53:54.62 | 4:27.13 | 242612 | 262649
9 | 58:22.00 | 9:27.25 | 262650 | 305199
10 | 67:49.25 | 7:18.50 | 305200 | 338099
Характеристики диапазона извлечения и сообщения об ошибках
Выбранный диапазон
Имя файла Z:\Мои раздачи\Munch conducts Berlioz disc 10\Berlioz, Hector - Munch Conducts Berlioz, Munch, Boston SO, CD10.wav
Пиковый уровень 99.9 %
Скорость извлечения 1.9 X
Качество диапазона 100.0 %
CRC теста 1FF03317
CRC копии 1FF03317
Копирование... OK
Ошибок не произошло
AccurateRip: сводка
Трек 1 : извлечено точно (доверие 2) [5A7214A3] (AR v2)
Трек 2 : извлечено точно (доверие 2) [6741211A] (AR v2)
Трек 3 : извлечено точно (доверие 2) [D3E62EAE] (AR v2)
Трек 4 : извлечено точно (доверие 2) [702137FA] (AR v2)
Трек 5 : извлечено точно (доверие 2) [49BAF5EE] (AR v2)
Трек 6 : извлечено точно (доверие 2) [5A2A8182] (AR v2)
Трек 7 : извлечено точно (доверие 2) [86A1599F] (AR v2)
Трек 8 : извлечено точно (доверие 2) [753D1B80] (AR v2)
Трек 9 : извлечено точно (доверие 2) [108447A3] (AR v2)
Трек 10 : извлечено точно (доверие 2) [CB426595] (AR v2)
Все треки извлечены точно
Конец отчёта
---- CUETools DB Plugin V2.1.3
[CTDB TOCID: xPvP.SMPOURsNhfIos1qP9clOYY-] found, Submit result: xPvP.SMPOURsNhfIos1qP9clOYY- has been confirmed
[38136f86] (4/4) Accurately ripped
==== Контрольная сумма отчёта 7C2E04F0F59E4A6E208F4EB691CDC9A38EBC546DB463661672A8096201DED334 ====
Доп. информация:
В расширенное 10-дисковое коробочное издание Munch Conducts Berlioz из серии RCA Red Seal Complete Collections (2004г.) впервые включена запись
Les troyens: Chasse royale et orage (CD 2).
Кроме того, коллекция дополнена альтернативными вариантами записей ряда произведений, с иным составом исполнителей:
Roméo et Juliette (стерео, 1961, CD 9-10)
Symphonie fantastique (стерео, 1962, CD 10)
Béatrice et Bénédict (1949, CD 10)
ADD
Recorded in Symphony Hall, BostonТоррент перезалит 24.02.2014 (откорректированы файлы .cue для CD 5, CD 6)
[teatrix.ru].t9724.torrent 
Торрент: Зарегистрирован [ 2015-10-23 17:11 ] · 3D055E5B86EA6FD617D6B7ED446FE53C73F63D66

Скачать .torrent

Скачать

22 KB

Статус: проверено
Скачан: 1 раз
Размер: 3.07 GB
terms.php



Быстрый ответ

Имя:

      
Для отправки сообщений необходимо включить JavaScript
Показать сообщения:    

Текущее время: 10-Дек 23:27

Часовой пояс: UTC + 3


Вы можете начинать темы
Вы можете отвечать на сообщения
Вы не можете редактировать свои сообщения
Вы не можете удалять свои сообщения
Вы не можете голосовать в опросах
Вы не можете прикреплять файлы к сообщениям
Вы можете скачивать файлы