(Classical / Piano Concerto) Юрий Егоров / Youri Egorov - The Master Pianist: Bach, Beethoven, Chopin, Debussy, Mozart, Schumann (with Philharmonia Orchestra & Wolfgang Sawallisch, 1978-1985) - 2008 [7 CD], FLAC (image+.cue) lossless


Статистика раздачи [Обновить пиров]
Размер:  1.51 GB   |    Зарегистрирован:  1 год 1 месяц   |    Скачан:  2 раза

Полного источника не было: 1 месяц 8 дней

Личеров:  4  [  0 KB/s  ]   Подробная статистика пиров
 
   
 
 
 

[Цитировать]

Youri Egorov | Юрий Егоров
(1954–1988)



Johann Sebastian Bach | Ludwig van Beethoven | Frederic Chopin
Claude Debussy | Wolfgang Amadeus Mozart | Robert Schumann



Юрий Егоров piano
with
Philharmonia Orchestra
Wolfgang Sawallisch conductor


Жанр: Classical / Piano / Piano Concerto
Даты записи: 1978–1985
Формат записи: ADD/DDD, Stereo
Год издания диска: 2008
Издатель (лейбл): EMI
Номер по каталогу: 50999 2 06531 2 5
Аудиокодек: FLAC
Тип рипа: image+.cue
Битрейт аудио: lossless
Продолжительность: 7:19:48
Наличие сканов в содержимом раздачи: да
Источник: блог OdeonMusic


-
Tracklist / ТреклистCD 1: Debussy. Préludes I • Images I; Chopin. Fantaisie • Ballade n° 1
Claude Debussy
Préludes (1ere livre), L. 117 - 40:55
I. Danseus de Delphes - 3:30
  • II. Voiles - 3:45
  • III. Le vent dans la plaine - 2:02
  • IV. Les sons et les parfums tournent dans l'air du soir - 3:50
  • V. Les collines d'Anacapri - 2:57
  • VI. Des pas sur la neige - 4:20
  • VII. Ce qu'a vu le vent d'Ouest - 3:25
  • VIII. La fille aux cheveux de lin - 2:22
  • IX. La sérénade interrompue - 2:35
  • X. La cathédrale englotie - 6:44
  • XI. La danse de Puck - 2:59
  • XII. Minstrels - 2:26«Images» (1ere série), L. 110
    I. Reflets dans l'eau - 5:40
    Recorded: Abbey Road Studios, London, May & November 1983Frederic Chopin
    Fantaisie en fa mineur, Op. 49 - 12:31
  • Ballade n° 1 en sol mineur, Op. 23 - 9:11
    Recorded: Abbey Road Studios, London, June 1981 & July 1982CD 2: Debussy. Préludes II • Estampes
    Claude Debussy
    Préludes (2ème livre), L. 123 - 38:16
    I. Brouillards - 3:24
  • II. Feuilles mortes - 3:15
  • III. La Puerta del Vino - 3:13
  • IV. «Les fées sont d'exquises danseuses» - 3:06
  • V. Bruyères - 2:55
  • VI. Général Lavine — eccentric - 2:24
  • VII. La terrasse des audiences du clair de lune - 4:38
  • VIII. Ondine - 3:01
  • IX. Hommage à S. Pickwick Esq. P.P.M.P.C. - 2:27
  • X. Canope - 3:11
  • XI. Les tierces alternées - 2:23
  • XII. Feux d'Artifice - 4:19«Estampes», L. 100 - 13:11
    I. Pagodes - 4:39
  • II. La soirée dans Grenade - 4:57
  • III. Jardins sous la pluie - 3:34
    Recorded: Abbey Road Studios, London, May & November 1983CD 3: Schumann. Carnaval • Toccata • Arabeske • Bunte Blätter
    Robert Schumann
    «Carnaval», Op. 9 - 30:03
    Préambule - 2:24
  • Pierrot - 1:59
  • Arlequin - 1:02
  • Valse noble - 2:17
  • Eusebius - 1:33
  • Florestan - 0:56
  • Coquette - 1:37
  • Réplique. — (Sphinxes) - 0:56
  • Papillons - 0:42
  • ASCH-SCHA (Lettres dansantes) - 0:50
  • Chiarina - 1:40
  • Chopin - 1:09
  • Estrella - 0:26
  • Reconnaissance - 1:38
  • Pantalon et Colombine - 0:58
  • Valse allemande. — Paganini - 2:28
  • Aveu - 1:12
  • Promenade - 2:19
  • Pause - 0:17
  • Marche des Davidsbündler contre les Philistins - 3:39
    Recorded: Abbey Road Studios, London, May 1981Toccata C-dur, Op. 7 - 7:06
    Recorded: Abbey Road Studios, London, May 1981Arabeske C-dur, Op. 18 - 6:39
    Recorded: Abbey Road Studios, London, February 1982«Bunte Blätter», Op. 99 - 34:33
    Nrn. 1-3. Drei Stücklein. — Nrn. 4-8. Fünf Albumblätter - 12:01
  • Nr. 9. Novelette. — Nr. 10. Präludium - 3:39
  • Nr. 11. Marsch - 8:21
  • Nr. 12. Abendmusik. — Nr. 13. Scherzo. — Nr. 14. Geschwindmarsch - 10:33
    Recorded: Abbey Road Studios, London, February 1982CD 4: Schumann. Kreisleriana • 2 Noveletten • Papillons
    Robert Schumann
    «Kreisleriana», Op. 16 - 34:59
    I. Äußerst bewegt - 2:33
  • II. Sehr innig und nicht zu rasch - 10:14
  • III. Sehr aufgeregt - 4:41
  • IV. Sehr langsam - 3:48
  • V. Sehr lebhaft - 3:24
  • VI. Sehr langsam - 4:09
  • VII. Sehr rasch - 2:15
  • VIII. Schnell und spielend - 3:56
    Recorded: Kleine Zaal, Concertgebouw, Amsterdam, April 1978Noveletten, Op. 21 - 19:04
    Nr. 1 F-dur - 5:57
  • Nr. 8 fis-moll - 13:07
    Recorded: Kleine Zaal, Concertgebouw, Amsterdam, April 1978Papillons, Op. 2 - 14:55
    Recorded: Abbey Road Studios, London, May 1981CD 5: Chopin. 3 Nocturnes • Scherzo n° 2; Beethoven. Konzert Nr. 5
    Frederic Chopin
    Nocturne n° 5 en fa dièse majeur, Op. 15 n° 2 - 3:38
  • Nocturne n° 8 en ré bémol majeur, Op. 27 n° 2 - 6:40
  • Nocturne n° 19 en mi mineur, Op. posth. 72 n° 1 - 4:12
  • Scherzo n° 2 en si bémol mineur, Op. 31 - 9:53
    Recorded: Abbey Road Studios, London, June 1981 & July 1982Ludwig van Beethoven
    Konzert für Klavier und Orchester Nr. 5 Es-dur, Op. 73 - 40:49
    I. Allegro - 20:46
  • II. Adagio un poco mosso - 9:46
  • III. Rondo: Allegro - 10:18
    Philharmonia Orchestra. Wolfgang Sawallisch, conductor
    Recorded: Abbey Road Studio No. 1, London, May & June 1982
    CD 6: Mozart. Konzerte Nrn. 17 und 20
    Wolfgang Amadeus Mozart
    Konzert für Klavier und Orchester Nr. 20 d-moll, KV 466 - 30:57
    I. Allegro - 14:13
  • II. Romance - 8:55
  • III. Allegro assai - 7:49
    Philharmonia Orchestra. Wolfgang Sawallisch, conductor
    Recorded: Abbey Road Studio No. 1, London, February 1985
    Konzert für Klavier und Orchester Nr. 17 G-dur, KV 453 - 30:03
    I. Allegro - 11:35
  • II. Andante - 10:50
  • III. Allegretto - 7:37
    Philharmonia Orchestra. Wolfgang Sawallisch, conductor
    Recorded: Abbey Road Studio No. 1, London, February 1985
    CD 7: Bach. Chromatische Fantasie und Fuge; Mozart. Fantasie c-moll; Chopin. Fantaisie • 2 Études
    Johann Sebastian Bach
    Chromatische Fantasie und Fuge d-moll, BWV 903 - 12:55Wolfgang Amadeus Mozart
    Fantasie c-moll, KV 475 - 13:23Frederic Chopin
    Fantaisie en fa mineur, Op. 49 - 13:43Études, Op. 10 - 6:32
    n° 5 en sol bémol majeur - 1:55
  • n° 3 en mi majeur - 4:37
    _____
    Recorded: Carnegie Hall, New York, 16 December 1978

    -

    EAC logs / Отчёты EACCD 1: Debussy. Préludes I • Images I; Chopin. Fantaisie • Ballade n° 1

    Exact Audio Copy V1.0 beta 3 from 29. August 2011
    EAC extraction logfile from 21. August 2013, 18:36
    Youri Egorov / VC - Youri Egorov - The Master Pianist [EMI edition] (Disc 1)
    Used drive : TSSTcorpCDDVDW SH-222BB Adapter: 2 ID: 1
    Read mode : SecureUtilize accurate stream : YesDefeat audio cache : YesMake use of C2 pointers : No
    Read offset correction : 6Overread into Lead-In and Lead-Out : NoFill up missing offset samples with silence : YesDelete leading and trailing silent blocks : NoNull samples used in CRC calculations : YesUsed interface : Native Win32 interface for Win NT & 2000
    Used output format : User Defined EncoderSelected bitrate : 1024 kBit/sQuality : HighAdd ID3 tag : NoCommand line compressor : C:\Program Files\Exact Audio Copy\Flac\flac.exeAdditional command line options : -8 -V -T "TITLE=%title%" -T "ARTIST=%artist%" -T "ALBUMARTIST=%albumartist%" -T "ALBUM=%albumtitle%" -T "DATE=%year%" -T "TRACKNUMBER=%tracknr%" -T "TRACKTOTAL=%numtracks%" -T "GENRE=%genre%" -T "COMMENT=%comment%" -T "PERFORMER=%albuminterpret%" -T "COMPOSER=%composer%" %source% -o %dest%
    TOC of the extracted CD
    Track | Start | Length | Start sector | End sector --------------------------------------------------------- 1 | 0:00.00 | 3:30.35 | 0 | 15784 2 | 3:30.35 | 3:45.10 | 15785 | 32669 3 | 7:15.45 | 2:02.10 | 32670 | 41829 4 | 9:17.55 | 3:49.62 | 41830 | 59066 5 | 13:07.42 | 2:56.70 | 59067 | 72336 6 | 16:04.37 | 4:19.73 | 72337 | 91834 7 | 20:24.35 | 3:25.02 | 91835 | 107211 8 | 23:49.37 | 2:21.73 | 107212 | 117859 9 | 26:11.35 | 2:34.60 | 117860 | 129469 10 | 28:46.20 | 6:44.02 | 129470 | 159771 11 | 35:30.22 | 2:58.73 | 159772 | 173194 12 | 38:29.20 | 2:26.02 | 173195 | 184146 13 | 40:55.22 | 5:40.29 | 184147 | 209675 14 | 46:35.51 | 12:31.16 | 209676 | 266016 15 | 59:06.67 | 9:10.50 | 266017 | 307316
    Range status and errors
    Selected range
    Filename G:\Ripped general\[8547] VC – Youri Egorov – The Master Pianist [EMI edition]\cd1\VC - Youri Egorov - The Master Pianist [EMI edition] (Disc 1).wav
    Peak level 98.0 % Extraction speed 7.0 X Range quality 99.9 % Test CRC 9614FA66 Copy CRC 9614FA66 Copy OK
    No errors occurred
    AccurateRip summary
    Track 1 cannot be verified as accurate (confidence 4) [399D4A5B], AccurateRip returned [35C4B55D] (AR v2)Track 2 cannot be verified as accurate (confidence 4) [795288B2], AccurateRip returned [93E37A4F] (AR v2)Track 3 cannot be verified as accurate (confidence 4) [7F536363], AccurateRip returned [F8732C6C] (AR v2)Track 4 cannot be verified as accurate (confidence 4) [B033B081], AccurateRip returned [DC2D14E3] (AR v2)Track 5 cannot be verified as accurate (confidence 4) [F2F80218], AccurateRip returned [23004B67] (AR v2)Track 6 cannot be verified as accurate (confidence 4) [B56FBFAB], AccurateRip returned [A72932A0] (AR v2)Track 7 cannot be verified as accurate (confidence 4) [3256FD6A], AccurateRip returned [150EA744] (AR v2)Track 8 cannot be verified as accurate (confidence 4) [A2D8408D], AccurateRip returned [4B6DEE98] (AR v2)Track 9 cannot be verified as accurate (confidence 4) [B68F5409], AccurateRip returned [B7235885] (AR v2)Track 10 cannot be verified as accurate (confidence 4) [9686703F], AccurateRip returned [3D0FBA7A] (AR v2)Track 11 cannot be verified as accurate (confidence 4) [553335A7], AccurateRip returned [638C91E8] (AR v2)Track 12 cannot be verified as accurate (confidence 4) [3074A3B2], AccurateRip returned [12738215] (AR v2)Track 13 cannot be verified as accurate (confidence 4) [76C28C70], AccurateRip returned [35EEAB09] (AR v2)Track 14 cannot be verified as accurate (confidence 4) [22D73E2A], AccurateRip returned [FFFF338C] (AR v2)Track 15 cannot be verified as accurate (confidence 4) [C73ADC90], AccurateRip returned [8C1F64BA] (AR v2)
    No tracks could be verified as accurateYou may have a different pressing from the one(s) in the database
    End of status report

    CD 2: Debussy. Préludes II • Estampes

    Exact Audio Copy V1.0 beta 3 from 29. August 2011
    EAC extraction logfile from 21. August 2013, 18:47
    Youri Egorov / VC - Youri Egorov - The Master Pianist [EMI edition] (Disc 2)
    Used drive : TSSTcorpCDDVDW SH-222BB Adapter: 2 ID: 1
    Read mode : SecureUtilize accurate stream : YesDefeat audio cache : YesMake use of C2 pointers : No
    Read offset correction : 6Overread into Lead-In and Lead-Out : NoFill up missing offset samples with silence : YesDelete leading and trailing silent blocks : NoNull samples used in CRC calculations : YesUsed interface : Native Win32 interface for Win NT & 2000
    Used output format : User Defined EncoderSelected bitrate : 1024 kBit/sQuality : HighAdd ID3 tag : NoCommand line compressor : C:\Program Files\Exact Audio Copy\Flac\flac.exeAdditional command line options : -8 -V -T "TITLE=%title%" -T "ARTIST=%artist%" -T "ALBUMARTIST=%albumartist%" -T "ALBUM=%albumtitle%" -T "DATE=%year%" -T "TRACKNUMBER=%tracknr%" -T "TRACKTOTAL=%numtracks%" -T "GENRE=%genre%" -T "COMMENT=%comment%" -T "PERFORMER=%albuminterpret%" -T "COMPOSER=%composer%" %source% -o %dest%
    TOC of the extracted CD
    Track | Start | Length | Start sector | End sector --------------------------------------------------------- 1 | 0:00.00 | 3:24.29 | 0 | 15328 2 | 3:24.29 | 3:15.22 | 15329 | 29975 3 | 6:39.51 | 3:13.04 | 29976 | 44454 4 | 9:52.55 | 3:05.67 | 44455 | 58396 5 | 12:58.47 | 2:54.70 | 58397 | 71516 6 | 15:53.42 | 2:24.10 | 71517 | 82326 7 | 18:17.52 | 4:37.48 | 82327 | 103149 8 | 22:55.25 | 3:00.70 | 103150 | 116719 9 | 25:56.20 | 2:26.72 | 116720 | 127741 10 | 28:23.17 | 3:10.70 | 127742 | 142061 11 | 31:34.12 | 2:22.38 | 142062 | 152749 12 | 33:56.50 | 4:18.72 | 152750 | 172171 13 | 38:15.47 | 4:39.35 | 172172 | 193131 14 | 42:55.07 | 4:57.18 | 193132 | 215424 15 | 47:52.25 | 3:34.00 | 215425 | 231474
    Range status and errors
    Selected range
    Filename G:\Ripped general\[8547] VC – Youri Egorov – The Master Pianist [EMI edition]\cd2\VC - Youri Egorov - The Master Pianist [EMI edition] (Disc 2).wav
    Peak level 89.7 % Extraction speed 6.7 X Range quality 100.0 % Test CRC 0A9D13C4 Copy CRC 0A9D13C4 Copy OK
    No errors occurred
    AccurateRip summary
    Track 1 cannot be verified as accurate (confidence 4) [02BC388D], AccurateRip returned [5983B61B] (AR v2)Track 2 cannot be verified as accurate (confidence 5) [E0E3EA8F], AccurateRip returned [0EBA9997] (AR v2)Track 3 cannot be verified as accurate (confidence 5) [490BBF2C], AccurateRip returned [F0C4D00A] (AR v2)Track 4 cannot be verified as accurate (confidence 5) [C2E0D8B5], AccurateRip returned [E25CEAF7] (AR v2)Track 5 cannot be verified as accurate (confidence 5) [77C61BA3], AccurateRip returned [9FFF64CC] (AR v2)Track 6 cannot be verified as accurate (confidence 5) [E8CDDCC1], AccurateRip returned [E9CE1FAD] (AR v2)Track 7 cannot be verified as accurate (confidence 5) [EE559CC6], AccurateRip returned [6E416F7F] (AR v2)Track 8 cannot be verified as accurate (confidence 5) [E7C4893E], AccurateRip returned [C3564C28] (AR v2)Track 9 cannot be verified as accurate (confidence 5) [939529DD], AccurateRip returned [46CB1B4C] (AR v2)Track 10 cannot be verified as accurate (confidence 5) [5313F0D1], AccurateRip returned [0BEB1BFE] (AR v2)Track 11 cannot be verified as accurate (confidence 5) [13919071], AccurateRip returned [0C19358D] (AR v2)Track 12 cannot be verified as accurate (confidence 5) [276BBFBE], AccurateRip returned [A9E1F0DB] (AR v2)Track 13 cannot be verified as accurate (confidence 5) [5BA657FE], AccurateRip returned [E6692FF3] (AR v2)Track 14 cannot be verified as accurate (confidence 5) [EB7FE449], AccurateRip returned [D615F0C4] (AR v2)Track 15 cannot be verified as accurate (confidence 5) [BA5F0552], AccurateRip returned [014ADFC3] (AR v2)
    No tracks could be verified as accurateYou may have a different pressing from the one(s) in the database
    End of status report

    CD 3: Schumann. Carnaval • Toccata • Arabeske • Bunte Blätter

    Exact Audio Copy V1.0 beta 3 from 29. August 2011
    EAC extraction logfile from 21. August 2013, 19:13
    Youri Egorov / VC - Youri Egorov - The Master Pianist [EMI edition] (Disc 3)
    Used drive : TSSTcorpCDDVDW SH-222BB Adapter: 2 ID: 1
    Read mode : SecureUtilize accurate stream : YesDefeat audio cache : YesMake use of C2 pointers : No
    Read offset correction : 6Overread into Lead-In and Lead-Out : NoFill up missing offset samples with silence : YesDelete leading and trailing silent blocks : NoNull samples used in CRC calculations : YesUsed interface : Native Win32 interface for Win NT & 2000
    Used output format : User Defined EncoderSelected bitrate : 1024 kBit/sQuality : HighAdd ID3 tag : NoCommand line compressor : C:\Program Files\Exact Audio Copy\Flac\flac.exeAdditional command line options : -8 -V -T "TITLE=%title%" -T "ARTIST=%artist%" -T "ALBUMARTIST=%albumartist%" -T "ALBUM=%albumtitle%" -T "DATE=%year%" -T "TRACKNUMBER=%tracknr%" -T "TRACKTOTAL=%numtracks%" -T "GENRE=%genre%" -T "COMMENT=%comment%" -T "PERFORMER=%albuminterpret%" -T "COMPOSER=%composer%" %source% -o %dest%
    TOC of the extracted CD
    Track | Start | Length | Start sector | End sector --------------------------------------------------------- 1 | 0:00.00 | 2:24.05 | 0 | 10804 2 | 2:24.05 | 1:59.30 | 10805 | 19759 3 | 4:23.35 | 1:01.45 | 19760 | 24379 4 | 5:25.05 | 2:17.22 | 24380 | 34676 5 | 7:42.27 | 1:32.55 | 34677 | 41631 6 | 9:15.07 | 0:55.48 | 41632 | 45804 7 | 10:10.55 | 1:37.37 | 45805 | 53116 8 | 11:48.17 | 0:56.03 | 53117 | 57319 9 | 12:44.20 | 0:42.22 | 57320 | 60491 10 | 13:26.42 | 0:49.63 | 60492 | 64229 11 | 14:16.30 | 1:40.07 | 64230 | 71736 12 | 15:56.37 | 1:08.50 | 71737 | 76886 13 | 17:05.12 | 0:25.60 | 76887 | 78821 14 | 17:30.72 | 1:38.03 | 78822 | 86174 15 | 19:09.00 | 0:58.07 | 86175 | 90531 16 | 20:07.07 | 2:28.08 | 90532 | 101639 17 | 22:35.15 | 1:12.25 | 101640 | 107064 18 | 23:47.40 | 2:19.25 | 107065 | 117514 19 | 26:06.65 | 0:17.05 | 117515 | 118794 20 | 26:23.70 | 3:38.72 | 118795 | 135216 21 | 30:02.67 | 7:05.48 | 135217 | 167139 22 | 37:08.40 | 6:39.00 | 167140 | 197064 23 | 43:47.40 | 12:00.65 | 197065 | 251129 24 | 55:48.30 | 3:38.50 | 251130 | 267529 25 | 59:27.05 | 8:20.50 | 267530 | 305079 26 | 67:47.55 | 10:32.55 | 305080 | 352534
    Range status and errors
    Selected range
    Filename G:\Ripped general\[8547] VC – Youri Egorov – The Master Pianist [EMI edition]\cd3\VC - Youri Egorov - The Master Pianist [EMI edition] (Disc 3).wav
    Peak level 96.0 % Extraction speed 7.8 X Range quality 99.9 % Test CRC 3105F2A4 Copy CRC 3105F2A4 Copy OK
    No errors occurred
    AccurateRip summary
    Track 1 cannot be verified as accurate (confidence 8) [6FADE388], AccurateRip returned [6EBA80A1] (AR v2)Track 2 cannot be verified as accurate (confidence 8) [2C98F9B6], AccurateRip returned [FBDA17CC] (AR v2)Track 3 cannot be verified as accurate (confidence 8) [1BB630EE], AccurateRip returned [CE1C8645] (AR v2)Track 4 cannot be verified as accurate (confidence 8) [706476F6], AccurateRip returned [F51FCF25] (AR v2)Track 5 cannot be verified as accurate (confidence 8) [A27B7B89], AccurateRip returned [F4030CFD] (AR v2)Track 6 cannot be verified as accurate (confidence 8) [4D150369], AccurateRip returned [B2294725] (AR v2)Track 7 cannot be verified as accurate (confidence 8) [CBFAE3F7], AccurateRip returned [9C9D91E3] (AR v2)Track 8 cannot be verified as accurate (confidence 8) [56A879A4], AccurateRip returned [E4218777] (AR v2)Track 9 cannot be verified as accurate (confidence 8) [8DA6A723], AccurateRip returned [25CD8BF1] (AR v2)Track 10 cannot be verified as accurate (confidence 8) [42633EB7], AccurateRip returned [CF8809A9] (AR v2)Track 11 cannot be verified as accurate (confidence 8) [2BCA0C02], AccurateRip returned [6DC569E8] (AR v2)Track 12 cannot be verified as accurate (confidence 8) [EB9B38D1], AccurateRip returned [4E6CCF70] (AR v2)Track 13 cannot be verified as accurate (confidence 8) [7B4F0942], AccurateRip returned [915ECC55] (AR v2)Track 14 cannot be verified as accurate (confidence 8) [03F89C4E], AccurateRip returned [ED75EA35] (AR v2)Track 15 cannot be verified as accurate (confidence 8) [94D0F9FC], AccurateRip returned [33C5A897] (AR v2)Track 16 cannot be verified as accurate (confidence 8) [ACEE9A44], AccurateRip returned [7BE7B423] (AR v2)Track 17 cannot be verified as accurate (confidence 8) [3B9C2DAD], AccurateRip returned [68609D59] (AR v2)Track 18 cannot be verified as accurate (confidence 8) [E010C48C], AccurateRip returned [4F6DB546] (AR v2)Track 19 cannot be verified as accurate (confidence 8) [D64B2960], AccurateRip returned [7B86FA6E] (AR v2)Track 20 cannot be verified as accurate (confidence 8) [6D6F8769], AccurateRip returned [4BD319BA] (AR v2)Track 21 cannot be verified as accurate (confidence 8) [8F9548E0], AccurateRip returned [114210E9] (AR v2)Track 22 cannot be verified as accurate (confidence 8) [7AF2D70F], AccurateRip returned [6592EB15] (AR v2)Track 23 cannot be verified as accurate (confidence 8) [995DB06C], AccurateRip returned [83F1FEFB] (AR v2)Track 24 cannot be verified as accurate (confidence 8) [B3ED0552], AccurateRip returned [AC0A91DE] (AR v2)Track 25 cannot be verified as accurate (confidence 7) [2C4307B2], AccurateRip returned [B8E97FDE] (AR v2)Track 26 cannot be verified as accurate (confidence 8) [85DC0B0E], AccurateRip returned [FAE6C912] (AR v2)
    No tracks could be verified as accurateYou may have a different pressing from the one(s) in the database
    End of status report

    CD 4: Schumann. Kreisleriana • 2 Noveletten • Papillons

    Exact Audio Copy V1.0 beta 3 from 29. August 2011
    EAC extraction logfile from 21. August 2013, 19:26
    Youri Egorov / VC - Youri Egorov - The Master Pianist [EMI edition] (Disc 4)
    Used drive : TSSTcorpCDDVDW SH-222BB Adapter: 2 ID: 1
    Read mode : SecureUtilize accurate stream : YesDefeat audio cache : YesMake use of C2 pointers : No
    Read offset correction : 6Overread into Lead-In and Lead-Out : NoFill up missing offset samples with silence : YesDelete leading and trailing silent blocks : NoNull samples used in CRC calculations : YesUsed interface : Native Win32 interface for Win NT & 2000
    Used output format : User Defined EncoderSelected bitrate : 1024 kBit/sQuality : HighAdd ID3 tag : NoCommand line compressor : C:\Program Files\Exact Audio Copy\Flac\flac.exeAdditional command line options : -8 -V -T "TITLE=%title%" -T "ARTIST=%artist%" -T "ALBUMARTIST=%albumartist%" -T "ALBUM=%albumtitle%" -T "DATE=%year%" -T "TRACKNUMBER=%tracknr%" -T "TRACKTOTAL=%numtracks%" -T "GENRE=%genre%" -T "COMMENT=%comment%" -T "PERFORMER=%albuminterpret%" -T "COMPOSER=%composer%" %source% -o %dest%
    TOC of the extracted CD
    Track | Start | Length | Start sector | End sector --------------------------------------------------------- 1 | 0:00.00 | 2:32.67 | 0 | 11466 2 | 2:32.67 | 10:13.43 | 11467 | 57484 3 | 12:46.35 | 4:41.37 | 57485 | 78596 4 | 17:27.72 | 3:47.43 | 78597 | 95664 5 | 21:15.40 | 3:24.05 | 95665 | 110969 6 | 24:39.45 | 4:09.07 | 110970 | 129651 7 | 28:48.52 | 2:14.43 | 129652 | 139744 8 | 31:03.20 | 3:55.52 | 139745 | 157421 9 | 34:58.72 | 5:57.00 | 157422 | 184196 10 | 40:55.72 | 13:07.13 | 184197 | 243234 11 | 54:03.10 | 14:54.42 | 243235 | 310326
    Range status and errors
    Selected range
    Filename G:\Ripped general\[8647] VC – Youri Egorov – The Master Pianist [EMI edition] - Cópia\cd4\VC - Youri Egorov - The Master Pianist [EMI edition] (Disc 4).wav
    Peak level 86.2 % Extraction speed 7.1 X Range quality 99.9 % Test CRC 6978117B Copy CRC 6978117B Copy OK
    No errors occurred
    AccurateRip summary
    Track 1 cannot be verified as accurate (confidence 8) [B81E9F84], AccurateRip returned [5476B646] (AR v2)Track 2 cannot be verified as accurate (confidence 8) [BE4F440A], AccurateRip returned [7F4D6F40] (AR v2)Track 3 cannot be verified as accurate (confidence 8) [894CDE02], AccurateRip returned [C696487C] (AR v2)Track 4 cannot be verified as accurate (confidence 8) [348D8A37], AccurateRip returned [44537746] (AR v2)Track 5 cannot be verified as accurate (confidence 8) [4F9C573F], AccurateRip returned [6B3B48DE] (AR v2)Track 6 cannot be verified as accurate (confidence 8) [323C4696], AccurateRip returned [2B90ACF6] (AR v2)Track 7 cannot be verified as accurate (confidence 8) [6FECDEC4], AccurateRip returned [5518AAAE] (AR v2)Track 8 cannot be verified as accurate (confidence 8) [87D16A7E], AccurateRip returned [46A164B4] (AR v2)Track 9 cannot be verified as accurate (confidence 8) [0EC29F21], AccurateRip returned [614F9236] (AR v2)Track 10 cannot be verified as accurate (confidence 8) [713DDCF8], AccurateRip returned [80B048E6] (AR v2)Track 11 cannot be verified as accurate (confidence 8) [A987D05A], AccurateRip returned [4A88662C] (AR v2)
    No tracks could be verified as accurateYou may have a different pressing from the one(s) in the database
    End of status report

    CD 5: Chopin. 3 Nocturnes • Scherzo n° 2; Beethoven. Konzert Nr. 5

    Exact Audio Copy V1.0 beta 3 from 29. August 2011
    EAC extraction logfile from 21. August 2013, 19:46
    Youri Egorov / VC - Youri Egorov - The Master Pianist [EMI edition] (Disc 5)
    Used drive : TSSTcorpCDDVDW SH-222BB Adapter: 2 ID: 1
    Read mode : SecureUtilize accurate stream : YesDefeat audio cache : YesMake use of C2 pointers : No
    Read offset correction : 6Overread into Lead-In and Lead-Out : NoFill up missing offset samples with silence : YesDelete leading and trailing silent blocks : NoNull samples used in CRC calculations : YesUsed interface : Native Win32 interface for Win NT & 2000
    Used output format : User Defined EncoderSelected bitrate : 1024 kBit/sQuality : HighAdd ID3 tag : NoCommand line compressor : C:\Program Files\Exact Audio Copy\Flac\flac.exeAdditional command line options : -8 -V -T "TITLE=%title%" -T "ARTIST=%artist%" -T "ALBUMARTIST=%albumartist%" -T "ALBUM=%albumtitle%" -T "DATE=%year%" -T "TRACKNUMBER=%tracknr%" -T "TRACKTOTAL=%numtracks%" -T "GENRE=%genre%" -T "COMMENT=%comment%" -T "PERFORMER=%albuminterpret%" -T "COMPOSER=%composer%" %source% -o %dest%
    TOC of the extracted CD
    Track | Start | Length | Start sector | End sector --------------------------------------------------------- 1 | 0:00.00 | 3:38.26 | 0 | 16375 2 | 3:38.26 | 6:39.43 | 16376 | 46343 3 | 10:17.69 | 4:12.33 | 46344 | 65276 4 | 14:30.27 | 9:53.07 | 65277 | 109758 5 | 24:23.34 | 20:45.74 | 109759 | 203207 6 | 45:09.33 | 9:45.45 | 203208 | 247127 7 | 54:55.03 | 10:17.43 | 247128 | 293445
    Range status and errors
    Selected range
    Filename G:\Ripped general\[8647] VC – Youri Egorov – The Master Pianist [EMI edition]\cd5\VC - Youri Egorov - The Master Pianist [EMI edition] (Disc 5).wav
    Peak level 99.9 % Extraction speed 6.9 X Range quality 99.9 % Test CRC CFE368AF Copy CRC CFE368AF Copy OK
    No errors occurred
    AccurateRip summary
    Track 1 cannot be verified as accurate (confidence 5) [94752C25], AccurateRip returned [BE9207D1] (AR v2)Track 2 cannot be verified as accurate (confidence 5) [CA627B48], AccurateRip returned [BBB6F649] (AR v2)Track 3 cannot be verified as accurate (confidence 5) [834FCCFE], AccurateRip returned [8EA514C0] (AR v2)Track 4 cannot be verified as accurate (confidence 5) [375B0156], AccurateRip returned [4397B491] (AR v2)Track 5 cannot be verified as accurate (confidence 5) [041CE91A], AccurateRip returned [8D9D0823] (AR v2)Track 6 cannot be verified as accurate (confidence 5) [00E477B1], AccurateRip returned [C6EE1C91] (AR v2)Track 7 cannot be verified as accurate (confidence 5) [ACD3837C], AccurateRip returned [31164B32] (AR v2)
    No tracks could be verified as accurateYou may have a different pressing from the one(s) in the database
    End of status report

    CD 6: Mozart. Konzerte Nrn. 17 und 20

    Exact Audio Copy V1.0 beta 3 from 29. August 2011
    EAC extraction logfile from 21. August 2013, 19:57
    Youri Egorov / VC - Youri Egorov - The Master Pianist [EMI edition] (Disc 6)
    Used drive : TSSTcorpCDDVDW SH-222BB Adapter: 2 ID: 1
    Read mode : SecureUtilize accurate stream : YesDefeat audio cache : YesMake use of C2 pointers : No
    Read offset correction : 6Overread into Lead-In and Lead-Out : NoFill up missing offset samples with silence : YesDelete leading and trailing silent blocks : NoNull samples used in CRC calculations : YesUsed interface : Native Win32 interface for Win NT & 2000
    Used output format : User Defined EncoderSelected bitrate : 1024 kBit/sQuality : HighAdd ID3 tag : NoCommand line compressor : C:\Program Files\Exact Audio Copy\Flac\flac.exeAdditional command line options : -8 -V -T "TITLE=%title%" -T "ARTIST=%artist%" -T "ALBUMARTIST=%albumartist%" -T "ALBUM=%albumtitle%" -T "DATE=%year%" -T "TRACKNUMBER=%tracknr%" -T "TRACKTOTAL=%numtracks%" -T "GENRE=%genre%" -T "COMMENT=%comment%" -T "PERFORMER=%albuminterpret%" -T "COMPOSER=%composer%" %source% -o %dest%
    TOC of the extracted CD
    Track | Start | Length | Start sector | End sector --------------------------------------------------------- 1 | 0:00.00 | 14:12.69 | 0 | 63968 2 | 14:12.69 | 8:55.32 | 63969 | 104125 3 | 23:08.26 | 7:48.55 | 104126 | 139280 4 | 30:57.06 | 11:35.28 | 139281 | 191433 5 | 42:32.34 | 10:50.30 | 191434 | 240213 6 | 53:22.64 | 7:37.13 | 240214 | 274501
    Range status and errors
    Selected range
    Filename G:\Ripped general\[8647] VC – Youri Egorov – The Master Pianist [EMI edition]\cd6\VC - Youri Egorov - The Master Pianist [EMI edition] (Disc 6).wav
    Peak level 85.1 % Extraction speed 6.9 X Range quality 100.0 % Test CRC A6F86286 Copy CRC A6F86286 Copy OK
    No errors occurred
    AccurateRip summary
    Track 1 cannot be verified as accurate (confidence 5) [B4F1260C], AccurateRip returned [BA12B512] (AR v2)Track 2 cannot be verified as accurate (confidence 5) [E511F212], AccurateRip returned [7BB36363] (AR v2)Track 3 cannot be verified as accurate (confidence 5) [33624CB9], AccurateRip returned [740AEFF9] (AR v2)Track 4 cannot be verified as accurate (confidence 5) [D4B89954], AccurateRip returned [70A31074] (AR v2)Track 5 cannot be verified as accurate (confidence 5) [5549312D], AccurateRip returned [74CE0D94] (AR v2)Track 6 cannot be verified as accurate (confidence 5) [C6E6D6D5], AccurateRip returned [5AF6052C] (AR v2)
    No tracks could be verified as accurateYou may have a different pressing from the one(s) in the database
    End of status report

    CD 7: Bach. Chromatische Fantasie und Fuge; Mozart. Fantasie c-moll; Chopin. Fantaisie • 2 Études

    Exact Audio Copy V1.0 beta 3 from 29. August 2011
    EAC extraction logfile from 21. August 2013, 20:28
    Youri Egorov / VC - Youri Egorov - The Master Pianist [EMI edition] (Disc 7)
    Used drive : TSSTcorpCDDVDW SH-222BB Adapter: 2 ID: 1
    Read mode : SecureUtilize accurate stream : YesDefeat audio cache : YesMake use of C2 pointers : No
    Read offset correction : 6Overread into Lead-In and Lead-Out : NoFill up missing offset samples with silence : YesDelete leading and trailing silent blocks : NoNull samples used in CRC calculations : YesUsed interface : Native Win32 interface for Win NT & 2000
    Used output format : User Defined EncoderSelected bitrate : 1024 kBit/sQuality : HighAdd ID3 tag : NoCommand line compressor : C:\Program Files\Exact Audio Copy\Flac\flac.exeAdditional command line options : -8 -V -T "TITLE=%title%" -T "ARTIST=%artist%" -T "ALBUMARTIST=%albumartist%" -T "ALBUM=%albumtitle%" -T "DATE=%year%" -T "TRACKNUMBER=%tracknr%" -T "TRACKTOTAL=%numtracks%" -T "GENRE=%genre%" -T "COMMENT=%comment%" -T "PERFORMER=%albuminterpret%" -T "COMPOSER=%composer%" %source% -o %dest%
    TOC of the extracted CD
    Track | Start | Length | Start sector | End sector --------------------------------------------------------- 1 | 0:00.00 | 12:55.36 | 0 | 58160 2 | 12:55.36 | 13:23.25 | 58161 | 118410 3 | 26:18.61 | 13:42.67 | 118411 | 180127 4 | 40:01.53 | 1:54.66 | 180128 | 188743 5 | 41:56.44 | 4:36.59 | 188744 | 209502
    Range status and errors
    Selected range
    Filename G:\Ripped general\[8647] VC – Youri Egorov – The Master Pianist [EMI edition]\cd7\VC - Youri Egorov - The Master Pianist [EMI edition] (Disc 7).wav
    Peak level 72.6 % Extraction speed 6.5 X Range quality 100.0 % Test CRC FD4EA771 Copy CRC FD4EA771 Copy OK
    No errors occurred
    AccurateRip summary
    Track 1 cannot be verified as accurate (confidence 5) [82FDF4DA], AccurateRip returned [47382E24] (AR v2)Track 2 cannot be verified as accurate (confidence 5) [FC8434CF], AccurateRip returned [3DF78EEE] (AR v2)Track 3 cannot be verified as accurate (confidence 5) [9594C5D6], AccurateRip returned [FE9398FE] (AR v2)Track 4 cannot be verified as accurate (confidence 5) [B885EBA7], AccurateRip returned [DAAECF52] (AR v2)Track 5 cannot be verified as accurate (confidence 5) [9C575BD1], AccurateRip returned [31D7C95D] (AR v2)
    No tracks could be verified as accurateYou may have a different pressing from the one(s) in the database
    End of status report

    auCDtect Task Manager logs / Отчёты auCDtect Task ManagerCD 1: Debussy. Préludes I • Images I; Chopin. Fantaisie • Ballade n° 1

    -----------------------
    DON'T MODIFY THIS FILE
    -----------------------
    PERFORMER: auCDtect Task Manager, ver. 1.5.1RC3 build 1.5.1.4Copyright (c) 2008-2010 y-soft. All rights reserved
    ANALYZER: auCDtect: CD records authenticity detector, version 0.8.2Copyright (c) 2004 Oleg Berngardt. All rights reserved.Copyright (c) 2004 Alexander Djourik. All rights reserved.
    FILE: CD 1 - Debussy. Preludes I, Images I; Chopin. Fantaisie, Ballade n. 1.flac Size: 233976076 Hash: E0D4C6774A680AD45C23D1B404837876 Accuracy: -m0 Conclusion: MPEG 100% Signature: B82455C678F64331713D420F1D40CE08FB234C0C

    CD 2: Debussy. Préludes II • Estampes

    -----------------------
    DON'T MODIFY THIS FILE
    -----------------------
    PERFORMER: auCDtect Task Manager, ver. 1.5.1RC3 build 1.5.1.4Copyright (c) 2008-2010 y-soft. All rights reserved
    ANALYZER: auCDtect: CD records authenticity detector, version 0.8.2Copyright (c) 2004 Oleg Berngardt. All rights reserved.Copyright (c) 2004 Alexander Djourik. All rights reserved.
    FILE: CD 2 - Debussy. Preludes II, Estampes.flac Size: 175246031 Hash: AEAE91AFE0E534A724645FDABB8EA607 Accuracy: -m0 Conclusion: MPEG 100% Signature: EACE20417A4A842C9C892F3DA496E5DBCFFD7784

    CD 3: Schumann. Carnaval • Toccata • Arabeske • Bunte Blätter

    -----------------------
    DON'T MODIFY THIS FILE
    -----------------------
    PERFORMER: auCDtect Task Manager, ver. 1.5.1RC3 build 1.5.1.4Copyright (c) 2008-2010 y-soft. All rights reserved
    ANALYZER: auCDtect: CD records authenticity detector, version 0.8.2Copyright (c) 2004 Oleg Berngardt. All rights reserved.Copyright (c) 2004 Alexander Djourik. All rights reserved.
    FILE: CD 3 - Schumann. Carnaval, Toccata, Arabeske, Bunte Blaetter.flac Size: 282683458 Hash: 2567DCBF9BAAF96E0B200A303FB31D90 Accuracy: -m0 Conclusion: CDDA 100% Signature: 361B72775523E1F3E0A9D48307EDC4138AF26AE6

    CD 4: Schumann. Kreisleriana • 2 Noveletten • Papillons

    -----------------------
    DON'T MODIFY THIS FILE
    -----------------------
    PERFORMER: auCDtect Task Manager, ver. 1.5.1RC3 build 1.5.1.4Copyright (c) 2008-2010 y-soft. All rights reserved
    ANALYZER: auCDtect: CD records authenticity detector, version 0.8.2Copyright (c) 2004 Oleg Berngardt. All rights reserved.Copyright (c) 2004 Alexander Djourik. All rights reserved.
    FILE: CD 4 - Schumann. Kreisleriana, 2 Noveletten, Papillons.flac Size: 261480183 Hash: 564B680815E13E628363CC9DABFB0E94 Accuracy: -m0 Conclusion: MPEG 100% Signature: 8B8FD3350BE8DE8F100A1934232785EB0B729820

    CD 5: Chopin. 3 Nocturnes • Scherzo n° 2; Beethoven. Konzert Nr. 5

    -----------------------
    DON'T MODIFY THIS FILE
    -----------------------
    PERFORMER: auCDtect Task Manager, ver. 1.5.1RC3 build 1.5.1.4Copyright (c) 2008-2010 y-soft. All rights reserved
    ANALYZER: auCDtect: CD records authenticity detector, version 0.8.2Copyright (c) 2004 Oleg Berngardt. All rights reserved.Copyright (c) 2004 Alexander Djourik. All rights reserved.
    FILE: CD 5 - Chopin. 3 Nocturnes, Scherzo n. 2; Beethoven. Konzert Nr. 3.flac Size: 242023904 Hash: 77498C4D6BD63E71702B84DC68CD7D0A Accuracy: -m0 Conclusion: CDDA 76% Signature: B5E6E08099EF4AF4D678013651FD1414D995FAE8

    CD 6: Mozart. Konzerte Nrn. 17 und 20

    -----------------------
    DON'T MODIFY THIS FILE
    -----------------------
    PERFORMER: auCDtect Task Manager, ver. 1.5.1RC3 build 1.5.1.4Copyright (c) 2008-2010 y-soft. All rights reserved
    ANALYZER: auCDtect: CD records authenticity detector, version 0.8.2Copyright (c) 2004 Oleg Berngardt. All rights reserved.Copyright (c) 2004 Alexander Djourik. All rights reserved.
    FILE: CD 6 - Mozart. Konzerte Nrn. 17, 20.flac Size: 225323337 Hash: 7C0ED44C0D1DF077F944DDD0EE5C240B Accuracy: -m0 Conclusion: CDDA 100% Signature: 997F3E0229D748A124221F83207B003B220572DF

    CD 7: Bach. Chromatische Fantasie und Fuge; Mozart. Fantasie c-moll; Chopin. Fantaisie • 2 Études

    -----------------------
    DON'T MODIFY THIS FILE
    -----------------------
    PERFORMER: auCDtect Task Manager, ver. 1.5.1RC3 build 1.5.1.4Copyright (c) 2008-2010 y-soft. All rights reserved
    ANALYZER: auCDtect: CD records authenticity detector, version 0.8.2Copyright (c) 2004 Oleg Berngardt. All rights reserved.Copyright (c) 2004 Alexander Djourik. All rights reserved.
    FILE: CD 7 - Bach. Chromatische Fantasie und Fuge; Mozart. Fantasie c-moll; Chopin.flac Size: 175590369 Hash: 5AED12D5B7F4480B93514EA996E39EBC Accuracy: -m0 Conclusion: CDDA 100% Signature: 4326DC93E289B7FB53D46BCD223915CB9E8DCF89

    CUETools logs / Отчёты CUEToolsCD 1: Debussy. Préludes I • Images I; Chopin. Fantaisie • Ballade n° 1

    [CUETools log; Date: 03.02.2014 22:39:20; Version: 2.1.4][AccurateRip ID: 001e083e-015e4315-d910010f] found.Track [ CRC | V2 ] Status 01 [47ebbe91|399d4a5b] (00+03/11) Accurately ripped 02 [b028d04b|795288b2] (00+03/11) Accurately ripped 03 [f8e54d8c|7f536363] (00+03/11) Accurately ripped 04 [e7527667|b033b081] (00+03/11) Accurately ripped 05 [f7be4666|f2f80218] (00+03/11) Accurately ripped 06 [d2e12c3c|b56fbfab] (00+03/11) Accurately ripped 07 [74ec6724|3256fd6a] (00+03/11) Accurately ripped 08 [45e7e069|a2d8408d] (00+03/11) Accurately ripped 09 [45083dc2|b68f5409] (00+03/11) Accurately ripped 10 [be289f16|9686703f] (00+03/11) Accurately ripped 11 [7e74726c|553335a7] (00+03/11) Accurately ripped 12 [42b6b8e9|3074a3b2] (00+03/11) Accurately ripped 13 [8228afcc|76c28c70] (00+03/11) Accurately ripped 14 [082ce4d3|22d73e2a] (00+03/11) Accurately ripped 15 [9ba9b2a8|c73adc90] (00+03/11) Accurately rippedOffsetted by 36: 01 [414896ab] (02/11) Accurately ripped 02 [d3a511d9] (02/11) Accurately ripped 03 [74ed1419] (02/11) Accurately ripped 04 [13526f7f] (02/11) Accurately ripped 05 [2b028ec0] (02/11) Accurately ripped 06 [c956c3e1] (02/11) Accurately ripped 07 [5609ee47] (02/11) Accurately ripped 08 [eca0944e] (02/11) Accurately ripped 09 [4c1c2d69] (02/11) Accurately ripped 10 [5901ccaa] (02/11) Accurately ripped 11 [8dbef91e] (02/11) Accurately ripped 12 [2b56f1bc] (02/11) Accurately ripped 13 [51217578] (02/11) Accurately ripped 14 [0860c223] (02/11) Accurately ripped 15 [7a6dcf14] (02/11) Accurately ripped
    Track Peak [ CRC32 ] [W/O NULL] [ LOG ] -- 98,0 [9614FA66] [3D1144DA] CRC32 01 45,5 [48ADE98F] [BF69C3C9] 02 51,8 [EF2CD558] [A27CE29A] 03 60,6 [BF5602FC] [BF587227] 04 16,8 [5176BB0E] [63D8FB1F] 05 60,1 [1FF341C0] [CC553196] 06 13,5 [BD868045] [C6AF8DCD] 07 70,5 [3359CBD5] [50C4E74C] 08 24,9 [8BC08375] [E2001094] 09 54,6 [B8D1278B] [F6DCB8B8] 10 68,5 [44927014] [031FF38C] 11 35,8 [DD541608] [0CA6A6B6] 12 62,5 [C1F37E4C] [B2C46E10] 13 59,7 [478591A7] [4E35A616] 14 87,7 [BF19DD4E] [F53C0ADE] 15 98,0 [788B4199] [550DB72D]

    CD 2: Debussy. Préludes II • Estampes

    [CUETools log; Date: 03.02.2014 22:39:31; Version: 2.1.4][AccurateRip ID: 001acdd5-01318178-eb0c0e0f] found.Track [ CRC | V2 ] Status 01 [f6b4012e|02bc388d] (00+03/11) Accurately ripped 02 [621c8da9|e0e3ea8f] (00+03/12) Accurately ripped 03 [796a0f80|490bbf2c] (00+03/12) Accurately ripped 04 [b66b5a3c|c2e0d8b5] (00+03/12) Accurately ripped 05 [86f32957|77c61ba3] (00+03/12) Accurately ripped 06 [8c363b5a|e8cddcc1] (00+03/12) Accurately ripped 07 [38ad967d|ee559cc6] (00+03/12) Accurately ripped 08 [971a9bf0|e7c4893e] (00+03/12) Accurately ripped 09 [1371e996|939529dd] (00+03/12) Accurately ripped 10 [be322079|5313f0d1] (00+03/12) Accurately ripped 11 [5141d58c|13919071] (00+03/12) Accurately ripped 12 [ed54dcc8|276bbfbe] (00+03/12) Accurately ripped 13 [911f205a|5ba657fe] (00+03/12) Accurately ripped 14 [0f1f0161|eb7fe449] (00+03/12) Accurately ripped 15 [df384649|ba5f0552] (00+03/12) Accurately rippedOffsetted by 36: 01 [509e4aff] (02/11) Accurately ripped 02 [8eeb8470] (02/12) Accurately ripped 03 [24bfe90e] (02/12) Accurately ripped 04 [d6d89298] (02/12) Accurately ripped 05 [b2d2dd31] (02/12) Accurately ripped 06 [8f150ef5] (02/12) Accurately ripped 07 [bc1bbcdd] (02/12) Accurately ripped 08 [757f55f3] (02/12) Accurately ripped 09 [c51a83c8] (02/12) Accurately ripped 10 [75eff48f] (02/12) Accurately ripped 11 [4781af61] (02/12) Accurately ripped 12 [7ba60189] (02/12) Accurately ripped 13 [16bb945f] (02/12) Accurately ripped 14 [f697c13d] (02/12) Accurately ripped 15 [3030076c] (02/12) Accurately ripped
    Track Peak [ CRC32 ] [W/O NULL] [ LOG ] -- 89,7 [0A9D13C4] [FF90DBD1] CRC32 01 67,4 [2D737CD5] [48E4ACE4] 02 18,3 [85F33749] [0D96DF92] 03 69,5 [512BFF44] [2CB076C8] 04 75,1 [0A7729DB] [FAE31FCB] 05 28,6 [56302FF6] [BD1E2ED1] 06 89,6 [01F18604] [8432C760] 07 84,0 [5A151109] [12EC2421] 08 27,9 [4973A592] [A9586325] 09 88,7 [6C445667] [235B4D4A] 10 11,0 [F639AAFA] [87DD2E12] 11 66,6 [706523A6] [74BEEC3C] 12 89,7 [09F45FCB] [32C55B60] 13 86,9 [0EE2B00E] [1337C68D] 14 80,6 [4BA33C4E] [440B1941] 15 66,3 [BD7F7623] [B2AA7C1D]

    CD 3: Schumann. Carnaval • Toccata • Arabeske • Bunte Blätter

    [CUETools log; Date: 03.02.2014 22:39:46; Version: 2.1.4][AccurateRip ID: 002cd0fb-037a79ff-6e125c1a] found.Track [ CRC | V2 ] Status 01 [281ecae3|6fade388] (00+00/19) No match 02 [3bf912cc|2c98f9b6] (00+00/19) No match 03 [fd9813ef|1bb630ee] (00+00/19) No match 04 [2d392f0b|706476f6] (00+00/19) No match 05 [cfd0c336|a27b7b89] (00+00/19) No match 06 [dc156d8c|4d150369] (00+00/19) No match 07 [2b454e9d|cbfae3f7] (00+00/19) No match 08 [be41e560|56a879a4] (00+00/19) No match 09 [4e53db99|8da6a723] (00+00/19) No match 10 [50102135|42633eb7] (00+00/19) No match 11 [0acfaf23|2bca0c02] (00+00/19) No match 12 [099ebae8|eb9b38d1] (00+00/19) No match 13 [f6c5aa67|7b4f0942] (00+00/19) No match 14 [8cab0510|03f89c4e] (00+00/19) No match 15 [6d857ae0|94d0f9fc] (00+00/19) No match 16 [103a9c0b|acee9a44] (00+00/18) No match 17 [c1ee603d|3b9c2dad] (00+00/19) No match 18 [669e94b9|e010c48c] (00+00/19) No match 19 [d1f14395|d64b2960] (00+00/19) No match 20 [8517e0b9|6d6f8769] (00+00/19) No match 21 [2022de76|8f9548e0] (00+00/19) No match 22 [31ce80bc|7af2d70f] (00+00/19) No match 23 [8596fdb8|995db06c] (00+00/19) No match 24 [06966e92|b3ed0552] (00+00/19) No match 25 [8468ca9f|2c4307b2] (00+00/18) No match 26 [fca3b805|85dc0b0e] (00+00/19) No matchOffsetted by 36: 01 [204a922c] (07/19) Accurately ripped 02 [10dadfb7] (07/19) Accurately ripped 03 [b0cafb82] (07/19) Accurately ripped 04 [b869ad8e] (07/19) Accurately ripped 05 [1cf80358] (07/19) Accurately ripped 06 [43c45b4a] (07/19) Accurately ripped 07 [007f584f] (07/19) Accurately ripped 08 [49335223] (07/19) Accurately ripped 09 [e8798da7] (07/19) Accurately ripped 10 [dcf142b9] (07/19) Accurately ripped 11 [50fc149e] (07/19) Accurately ripped 12 [6935aeda] (07/19) Accurately ripped 13 [0b9eb941] (07/19) Accurately ripped 14 [717f1fc3] (07/19) Accurately ripped 15 [0f32f08f] (07/19) Accurately ripped 16 [da22357a] (06/18) Accurately ripped 17 [eb514cca] (07/19) Accurately ripped 18 [dc91f6fc] (07/19) Accurately ripped 19 [76913172] (07/19) Accurately ripped 20 [6d8325e7] (07/19) Accurately ripped 21 [b573f1f6] (07/19) Accurately ripped 22 [2ee0c52c] (07/19) Accurately ripped 23 [539ce1c0] (07/19) Accurately ripped 24 [04fe9fcc] (07/19) Accurately ripped 25 [b8e97fde] (07/18) Accurately ripped 26 [8f913930] (07/19) Accurately rippedOffsetted by -50: 01 [fa60613c] (00/19) No match (V2 was not tested) 02 [df8d4533] (00/19) No match (V2 was not tested) 03 [afe3505d] (00/19) No match (V2 was not tested) 04 [52351cfe] (00/19) No match (V2 was not tested) 05 [d4ecbbbc] (00/19) No match (V2 was not tested) 06 [4b0d61d6] (00/19) No match (V2 was not tested) 07 [4df4e68c] (00/19) No match (V2 was not tested) 08 [1a6194ce] (00/19) No match (V2 was not tested) 09 [fdd990a4] (00/19) No match (V2 was not tested) 10 [8d915d78] (00/19) No match (V2 was not tested) 11 [2fcc96b4] (00/19) No match (V2 was not tested) 12 [4e27e31f] (00/19) No match (V2 was not tested) 13 [cebe1eb0] (00/19) No match (V2 was not tested) 14 [dd88c0bf] (00/19) No match (V2 was not tested) 15 [62ca1905] (00/19) No match (V2 was not tested) 16 [e3398b10] (00/18) No match (V2 was not tested) 17 [d948f597] (00/19) No match (V2 was not tested) 18 [aff2f3d3] (00/19) No match (V2 was not tested) 19 [5f10a360] (00/19) No match (V2 was not tested) 20 [0526291e] (00/19) No match (V2 was not tested) 21 [c28798b6] (00/19) No match (V2 was not tested) 22 [e08a7704] (00/19) No match (V2 was not tested) 23 [67e1894d] (00/19) No match (V2 was not tested) 24 [9673325a] (00/19) No match (V2 was not tested) 25 [99e25e55] (00/18) No match (V2 was not tested) 26 [45192328] (00/19) No match (V2 was not tested)
    Track Peak [ CRC32 ] [W/O NULL] [ LOG ] -- 96,0 [3105F2A4] [DF269CF8] CRC32 01 86,4 [31F7C2C6] [760C318E] 02 59,1 [448B631B] [0FCFCED2] 03 69,0 [7D466339] [8BFD430F] 04 61,8 [1D49F69D] [942518F1] 05 38,8 [911A745F] [08A987D3] 06 73,1 [4F7494A6] [145AA93D] 07 49,8 [4BEC5B73] [7E52DBCC] 08 27,5 [D5FFE8CB] [E33A9450] 09 81,2 [2607DB08] [F4357F7D] 10 68,1 [BD3F9DF1] [72B59FBC] 11 65,2 [2920DC37] [CFAB728F] 12 33,2 [BC4AFB87] [892B1DCD] 13 64,0 [134E53E7] [60EFA670] 14 29,0 [9D77B4CE] [68234118] 15 75,9 [CD3DDD84] [19E362F6] 16 96,0 [B1AA16BF] [B6686364] 17 13,0 [E85F8FE2] [F722410A] 18 75,6 [EC4A3A0E] [0B996A65] 19 52,2 [E3EFD7EB] [3D739D42] 20 92,8 [DEA9FB05] [CC7C435E] 21 74,3 [272C295A] [389BA822] 22 55,8 [BF412ABE] [B8DD4640] 23 82,5 [F8DB4F11] [15591C7D] 24 89,0 [67349AD3] [F01337FB] 25 61,5 [D9C1866A] [094D0AEE] 26 95,4 [97AA0656] [7E680BE7]

    CD 4: Schumann. Kreisleriana • 2 Noveletten • Papillons

    [CUETools log; Date: 03.02.2014 22:39:59; Version: 2.1.4][AccurateRip ID: 00172caa-00cb847c-9010290b] found.Track [ CRC | V2 ] Status 01 [07d37d0c|b81e9f84] (00+03/20) Accurately ripped 02 [c551e889|be4f440a] (00+03/20) Accurately ripped 03 [a4236047|894cde02] (00+03/20) Accurately ripped 04 [4fe6c383|348d8a37] (00+03/20) Accurately ripped 05 [d8732ceb|4f9c573f] (00+03/20) Accurately ripped 06 [b9faac2d|323c4696] (00+03/20) Accurately ripped 07 [fa426dbe|6fecdec4] (00+03/20) Accurately ripped 08 [1bc6b116|87d16a7e] (00+03/20) Accurately ripped 09 [56e1293e|0ec29f21] (00+03/20) Accurately ripped 10 [5ec8dbcb|713ddcf8] (00+03/20) Accurately ripped 11 [6893472a|a987d05a] (00+03/20) Accurately rippedOffsetted by 86: 01 [ad5048c6] (07/20) Accurately ripped 02 [a69259e1] (07/20) Accurately ripped 03 [012a4d15] (07/20) Accurately ripped 04 [4637a08d] (07/20) Accurately ripped 05 [0b12fd2f] (07/20) Accurately ripped 06 [974d913c] (07/20) Accurately ripped 07 [d0448808] (07/20) Accurately ripped 08 [de4bc2e4] (07/20) Accurately ripped 09 [ab86ef12] (07/20) Accurately ripped 10 [c670d284] (07/20) Accurately ripped 11 [6e2acdb6] (07/20) Accurately ripped
    Track Peak [ CRC32 ] [W/O NULL] [ LOG ] -- 86,2 [6978117B] [7DBBBF71] CRC32 01 77,0 [28498795] [FAFFF7E9] 02 78,4 [C142397E] [67DF334A] 03 77,1 [DC4ADE65] [5197D6E7] 04 26,4 [637CCA36] [E8ED73A8] 05 86,2 [B3D6282E] [223D54D6] 06 81,4 [B8421446] [F91C8EB0] 07 74,1 [D25806B4] [0B2FE29F] 08 73,3 [711772CE] [7F5B52F4] 09 67,9 [646AC9A0] [93F3C4D8] 10 67,1 [A688D793] [99FC2D78] 11 80,8 [B38CD11B] [979F507B]

    CD 5: Chopin. 3 Nocturnes • Scherzo n° 2; Beethoven. Konzert Nr. 5

    [CUETools log; Date: 03.02.2014 22:40:13; Version: 2.1.4][AccurateRip ID: 000efa22-005fcd00-570f4807] found.Track [ CRC | V2 ] Status 01 [0ef617cb|94752c25] (00+03/12) Accurately ripped 02 [0d64a868|ca627b48] (00+03/12) Accurately ripped 03 [e140dee0|834fccfe] (00+03/12) Accurately ripped 04 [8683c226|375b0156] (00+03/12) Accurately ripped 05 [c277b2bb|041ce91a] (00+03/12) Accurately ripped 06 [cf16e2cc|00e477b1] (00+03/12) Accurately ripped 07 [56fadc6f|acd3837c] (00+03/12) Accurately rippedOffsetted by 86: 01 [50f21b15] (02/12) Accurately ripped 02 [2b7b6758] (02/12) Accurately ripped 03 [089202dc] (02/12) Accurately ripped 04 [d49b0030] (02/12) Accurately ripped 05 [d8644dbd] (02/12) Accurately ripped 06 [b9b32aed] (02/12) Accurately ripped 07 [20c5e14a] (02/12) Accurately ripped
    Track Peak [ CRC32 ] [W/O NULL] [ LOG ] -- 99,9 [CFE368AF] [FEE64C46] CRC32 01 66,0 [31EA2003] [2F200E8D] 02 87,5 [34F98C2B] [C91E0655] 03 60,4 [6F042236] [F6C2DA0B] 04 88,0 [D77429AD] [610735A2] 05 99,1 [E8AB4A5F] [2FF2C22F] 06 33,3 [2A7E18BA] [7DBB682F] 07 99,9 [9C40369A] [93E42594]

    CD 6: Mozart. Konzerte Nrn. 17 und 20

    [CUETools log; Date: 03.02.2014 22:40:25; Version: 2.1.4][AccurateRip ID: 000f7716-00512321-500e4c06] found.Track [ CRC | V2 ] Status 01 [d000d42d|b4f1260c] (00+03/12) Accurately ripped 02 [93df4365|e511f212] (00+03/12) Accurately ripped 03 [98cc160f|33624cb9] (00+03/12) Accurately ripped 04 [70e22491|d4b89954] (00+03/12) Accurately ripped 05 [ccd88c84|5549312d] (00+03/12) Accurately ripped 06 [1c5770f4|c6e6d6d5] (00+03/12) Accurately rippedOffsetted by 86: 01 [352c1ae7] (02/12) Accurately ripped 02 [f4cd2ccf] (02/12) Accurately ripped 03 [0d8146f9] (02/12) Accurately ripped 04 [58acf14a] (02/12) Accurately ripped 05 [302bbd57] (02/12) Accurately ripped 06 [e2180f02] (02/12) Accurately ripped
    Track Peak [ CRC32 ] [W/O NULL] [ LOG ] -- 85,1 [A6F86286] [EF8A0D8C] CRC32 01 82,1 [F13D9EA3] [5A756ADE] 02 62,8 [6089168D] [92481FD5] 03 85,1 [84FFB572] [339B3110] 04 62,1 [E2B658F0] [350B2B29] 05 50,3 [26CEFEE9] [0551470F] 06 64,2 [54EEAF66] [8EB7B913]

    CD 7: Bach. Chromatische Fantasie und Fuge; Mozart. Fantasie c-moll; Chopin. Fantaisie • 2 Études

    [CUETools log; Date: 03.02.2014 22:40:33; Version: 2.1.4][AccurateRip ID: 000b8503-0033c526-3e0ae905] found.Track [ CRC | V2 ] Status 01 [24325a1a|82fdf4da] (00+03/12) Accurately ripped 02 [06fbb5ac|fc8434cf] (00+03/12) Accurately ripped 03 [3bbd7d32|9594c5d6] (00+03/12) Accurately ripped 04 [c97677c6|b885eba7] (00+03/12) Accurately ripped 05 [6e24e0ad|9c575bd1] (00+03/12) Accurately rippedOffsetted by 36: 01 [c369feec] (02/12) Accurately ripped 02 [6de87dca] (02/12) Accurately ripped 03 [cb4ec976] (02/12) Accurately ripped 04 [e630d6da] (02/12) Accurately ripped 05 [10a39fbd] (02/12) Accurately ripped
    Track Peak [ CRC32 ] [W/O NULL] [ LOG ] -- 72,6 [FD4EA771] [E5271446] CRC32 01 69,8 [11FA519D] [11EB6B5C] 02 67,4 [6C52A58F] [11FD75DB] 03 72,6 [C9FD7831] [3F9500B2] 04 66,7 [4BD29D24] [2C602F30] 05 68,6 [7019382E] [17812503]

    CUE sheetsCD 1: Debussy. Préludes I • Images I; Chopin. Fantaisie • Ballade n° 1

    TITLE "Youri Egorov. The Master Pianist"PERFORMER "Youri Egorov"REM GENRE ClassicalREM DISCID D910010FREM COMMENT "ExactAudioCopy v1.0b3"FILE "CD 1 - Debussy. Preludes I, Images I; Chopin. Fantaisie, Ballade n. 1.flac" WAVE TRACK 01 AUDIO TITLE "Préludes (1ere livre), L. 117: I. Danseus de Delphes" PERFORMER "Youri Egorov" REM DATE 1983 INDEX 01 00:00:00 TRACK 02 AUDIO TITLE "Préludes (1ere livre), L. 117: II. Voiles" PERFORMER "Youri Egorov" REM DATE 1983 INDEX 01 03:30:35 TRACK 03 AUDIO TITLE "Préludes (1ere livre), L. 117: III. Le vent dans la plaine" PERFORMER "Youri Egorov" REM DATE 1983 INDEX 01 07:15:45 TRACK 04 AUDIO TITLE "Préludes (1ere livre), L. 117: IV. Les sons et les parfums tournent dans l'air du soir" PERFORMER "Youri Egorov" REM DATE 1983 INDEX 01 09:17:55 TRACK 05 AUDIO TITLE "Préludes (1ere livre), L. 117: V. Les collines d'Anacapri" PERFORMER "Youri Egorov" REM DATE 1983 INDEX 01 13:07:42 TRACK 06 AUDIO TITLE "Préludes (1ere livre), L. 117: VI. Des pas sur la neige" PERFORMER "Youri Egorov" REM DATE 1983 INDEX 01 16:04:37 TRACK 07 AUDIO TITLE "Préludes (1ere livre), L. 117: VII. Ce qu'a vu le vent d'Ouest" PERFORMER "Youri Egorov" REM DATE 1983 INDEX 01 20:24:35 TRACK 08 AUDIO TITLE "Préludes (1ere livre), L. 117: VIII. La fille aux cheveux de lin" PERFORMER "Youri Egorov" REM DATE 1983 INDEX 01 23:49:37 TRACK 09 AUDIO TITLE "Préludes (1ere livre), L. 117: IX. La sérénade interrompue" PERFORMER "Youri Egorov" REM DATE 1983 INDEX 01 26:11:35 TRACK 10 AUDIO TITLE "Préludes (1ere livre), L. 117: X. La cathédrale englotie" PERFORMER "Youri Egorov" REM DATE 1983 INDEX 01 28:46:20 TRACK 11 AUDIO TITLE "Préludes (1ere livre), L. 117: XI. La danse de Puck" PERFORMER "Youri Egorov" REM DATE 1983 INDEX 01 35:30:22 TRACK 12 AUDIO TITLE "Préludes (1ere livre), L. 117: XII. Minstrels" PERFORMER "Youri Egorov" REM DATE 1983 INDEX 01 38:29:20 TRACK 13 AUDIO TITLE "«Images» (1ere série), L. 110: I. Reflets dans l'eau" PERFORMER "Youri Egorov" REM DATE 1983 INDEX 00 40:49:57 INDEX 01 40:55:22 TRACK 14 AUDIO TITLE "Fantaisie en fa mineur, Op. 49" PERFORMER "Youri Egorov" REM DATE 1982 INDEX 00 46:28:21 INDEX 01 46:35:51 TRACK 15 AUDIO TITLE "Ballade n° 1 en sol mineur, Op. 23" PERFORMER "Youri Egorov" REM DATE 1982 INDEX 00 59:01:68 INDEX 01 59:06:67

    CD 2: Debussy. Préludes II • Estampes

    TITLE "Youri Egorov. The Master Pianist"PERFORMER "Youri Egorov"REM GENRE ClassicalREM DISCID EB0C0E0FREM COMMENT "ExactAudioCopy v1.0b3"FILE "CD 2 - Debussy. Preludes II, Estampes.flac" WAVE TRACK 01 AUDIO TITLE "Préludes (2ème livre), L. 123: I. Brouillards" PERFORMER "Youri Egorov" REM DATE 1983 INDEX 01 00:00:00 TRACK 02 AUDIO TITLE "Préludes (2ème livre), L. 123: II. Feuilles mortes" PERFORMER "Youri Egorov" REM DATE 1983 INDEX 01 03:24:29 TRACK 03 AUDIO TITLE "Préludes (2ème livre), L. 123: III. La Puerta del Vino" PERFORMER "Youri Egorov" REM DATE 1983 INDEX 01 06:39:51 TRACK 04 AUDIO TITLE "Préludes (2ème livre), L. 123: IV. «Les fées sont d'exquises danseuses»" PERFORMER "Youri Egorov" REM DATE 1983 INDEX 01 09:52:55 TRACK 05 AUDIO TITLE "Préludes (2ème livre), L. 123: V. Bruyères" PERFORMER "Youri Egorov" REM DATE 1983 INDEX 01 12:58:47 TRACK 06 AUDIO TITLE "Préludes (2ème livre), L. 123: VI. Général Lavine — eccentric" PERFORMER "Youri Egorov" REM DATE 1983 INDEX 01 15:53:42 TRACK 07 AUDIO TITLE "Préludes (2ème livre), L. 123: VII. La terrasse des audiences du clair de lune" PERFORMER "Youri Egorov" REM DATE 1983 INDEX 01 18:17:52 TRACK 08 AUDIO TITLE "Préludes (2ème livre), L. 123: VIII. Ondine" PERFORMER "Youri Egorov" REM DATE 1983 INDEX 01 22:55:25 TRACK 09 AUDIO TITLE "Préludes (2ème livre), L. 123: IX. Hommage à S. Pickwick Esq. P.P.M.P.C." PERFORMER "Youri Egorov" REM DATE 1983 INDEX 01 25:56:20 TRACK 10 AUDIO TITLE "Préludes (2ème livre), L. 123: X. Canope" PERFORMER "Youri Egorov" REM DATE 1983 INDEX 01 28:23:17 TRACK 11 AUDIO TITLE "Préludes (2ème livre), L. 123: XI. Les tierces alternées" PERFORMER "Youri Egorov" REM DATE 1983 INDEX 01 31:34:12 TRACK 12 AUDIO TITLE "Préludes (2ème livre), L. 123: XII. Feux d'Artifice" PERFORMER "Youri Egorov" REM DATE 1983 INDEX 01 33:56:50 TRACK 13 AUDIO TITLE "«Estampes», L. 100: I. Pagodes" PERFORMER "Youri Egorov" REM DATE 1983 INDEX 00 38:08:00 INDEX 01 38:15:47 TRACK 14 AUDIO TITLE "«Estampes», L. 100: II. La soirée dans Grenade" PERFORMER "Youri Egorov" REM DATE 1983 INDEX 01 42:55:07 TRACK 15 AUDIO TITLE "«Estampes», L. 100: III. Jardins sous la pluie" PERFORMER "Youri Egorov" REM DATE 1983 INDEX 01 47:52:25

    CD 3: Schumann. Carnaval • Toccata • Arabeske • Bunte Blätter

    TITLE "Youri Egorov. The Master Pianist"PERFORMER "Youri Egorov"REM GENRE ClassicalREM DISCID 6E125C1AREM COMMENT "ExactAudioCopy v1.0b3"FILE "CD 3 - Schumann. Carnaval, Toccata, Arabeske, Bunte Blaetter.flac" WAVE TRACK 01 AUDIO TITLE "«Carnaval», Op. 9: Préambule" PERFORMER "Youri Egorov" REM DATE 1981 INDEX 01 00:00:00 TRACK 02 AUDIO TITLE "«Carnaval», Op. 9: Pierrot" PERFORMER "Youri Egorov" REM DATE 1981 INDEX 01 02:24:05 TRACK 03 AUDIO TITLE "«Carnaval», Op. 9: Arlequin" PERFORMER "Youri Egorov" REM DATE 1981 INDEX 00 04:23:34 INDEX 01 04:23:35 TRACK 04 AUDIO TITLE "«Carnaval», Op. 9: Valse noble" PERFORMER "Youri Egorov" REM DATE 1981 INDEX 00 05:25:04 INDEX 01 05:25:05 TRACK 05 AUDIO TITLE "«Carnaval», Op. 9: Eusebius" PERFORMER "Youri Egorov" REM DATE 1981 INDEX 00 07:42:26 INDEX 01 07:42:27 TRACK 06 AUDIO TITLE "«Carnaval», Op. 9: Florestan" PERFORMER "Youri Egorov" REM DATE 1981 INDEX 01 09:15:07 TRACK 07 AUDIO TITLE "«Carnaval», Op. 9: Coquette" PERFORMER "Youri Egorov" REM DATE 1981 INDEX 00 10:10:54 INDEX 01 10:10:55 TRACK 08 AUDIO TITLE "«Carnaval», Op. 9: Réplique. — (Sphinxes)" PERFORMER "Youri Egorov" REM DATE 1981 INDEX 00 11:48:16 INDEX 01 11:48:17 TRACK 09 AUDIO TITLE "«Carnaval», Op. 9: Papillons" PERFORMER "Youri Egorov" REM DATE 1981 INDEX 00 12:44:19 INDEX 01 12:44:20 TRACK 10 AUDIO TITLE "«Carnaval», Op. 9: ASCH-SCHA (Lettres dansantes)" PERFORMER "Youri Egorov" REM DATE 1981 INDEX 00 13:26:41 INDEX 01 13:26:42 TRACK 11 AUDIO TITLE "«Carnaval», Op. 9: Chiarina" PERFORMER "Youri Egorov" REM DATE 1981 INDEX 00 14:16:29 INDEX 01 14:16:30 TRACK 12 AUDIO TITLE "«Carnaval», Op. 9: Chopin" PERFORMER "Youri Egorov" REM DATE 1981 INDEX 00 15:56:36 INDEX 01 15:56:37 TRACK 13 AUDIO TITLE "«Carnaval», Op. 9: Estrella" PERFORMER "Youri Egorov" REM DATE 1981 INDEX 00 17:05:11 INDEX 01 17:05:12 TRACK 14 AUDIO TITLE "«Carnaval», Op. 9: Reconnaissance" PERFORMER "Youri Egorov" REM DATE 1981 INDEX 00 17:30:71 INDEX 01 17:30:72 TRACK 15 AUDIO TITLE "«Carnaval», Op. 9: Pantalon et Colombine" PERFORMER "Youri Egorov" REM DATE 1981 INDEX 00 19:08:74 INDEX 01 19:09:00 TRACK 16 AUDIO TITLE "«Carnaval», Op. 9: Valse allemande. — Paganini" PERFORMER "Youri Egorov" REM DATE 1981 INDEX 00 20:07:06 INDEX 01 20:07:07 TRACK 17 AUDIO TITLE "«Carnaval», Op. 9: Aveu" PERFORMER "Youri Egorov" REM DATE 1981 INDEX 01 22:35:15 TRACK 18 AUDIO TITLE "«Carnaval», Op. 9: Promenade" PERFORMER "Youri Egorov" REM DATE 1981 INDEX 00 23:47:39 INDEX 01 23:47:40 TRACK 19 AUDIO TITLE "«Carnaval», Op. 9: Pause" PERFORMER "Youri Egorov" REM DATE 1981 INDEX 00 26:06:64 INDEX 01 26:06:65
    [teatrix.ru].t9726.torrent 
    Торрент: Зарегистрирован [ 2015-10-23 17:11 ] · 963A38CAA4005D0FF3EDB7EFFD0FB90BC8B9E947

    Скачать .torrent

    Скачать

    24 KB

    Статус: проверено
    Скачан: 2 раз
    Размер: 1.51 GB
    terms.php



  • Быстрый ответ

    Имя:

          
    Для отправки сообщений необходимо включить JavaScript
    Показать сообщения:    

    Текущее время: 10-Дек 02:13

    Часовой пояс: UTC + 3


    Вы можете начинать темы
    Вы можете отвечать на сообщения
    Вы не можете редактировать свои сообщения
    Вы не можете удалять свои сообщения
    Вы не можете голосовать в опросах
    Вы не можете прикреплять файлы к сообщениям
    Вы можете скачивать файлы