(Classical) Andreas Staier Edition (Scarlatti D., Bach J.S., Telemann G., Bach C.P.E., Boccherini L., Dussek J.L.,Haydn J.) (10CD box set) - 2011, FLAC (image+.cue) lossless


Статистика раздачи [Обновить пиров]
Размер:  3.35 GB   |    Зарегистрирован:  1 год 1 месяц   |    Скачан:  1 раз

Полного источника не было: 9 дней

Личеров:  4  [  0 KB/s  ]   Подробная статистика пиров
 
   
 
 
 

[Цитировать]

Andreas Staier Edition- -Жанр: Classical || Страна-производитель диска: EU || Год издания: 2011 || Издатель (лейбл): DHM / Sony Music || Номер по каталогу: 88697974472
Дата записи: 1990-1995 || Аудиокодек: FLAC || Тип рипа: image+.cue || Битрейт аудио: lossless || Продолжительность: 10 CD, 11:43:27

CD01 - Domenico Scarlatti - Sonatas “Pour le Clavecin“ [CD1] (69:40)

Domenico Scarlatti (1685-1757)
01. Sonata d-moll K 141 - Allegro [00:03:39]
02. Sonata D-dur K 118 - Non presto [00:04:33]
03. Sonata D-dur K 119 - Allegro [00:05:20]
04. Sonata G-dur K 454 - Andante spirituoso [00:04:08]
05. Sonata G-dur K 455 - Allegro [00:02:41]
06. Sonata e-moll K 198 - Allegro [00:03:30]
07. Sonata e-moll K 203 - Vivo non molto [00:04:28]
08. Sonata C-dur K 501 - Allegretto [00:05:12]
09. Sonata C-dur K 502 - Allegro [00:03:58]
10. Sonata F-dur K 518 - Allegro [00:03:27]
11. Sonata f-moll K 519 - Allegro assai [00:02:54]
12. Sonata d-moll K 516 - Allegretto [00:04:44]
13. Sonata d-moll K 517 - Prestissimo [00:02:30]
14. Sonata g-moll K 108 - Allegro [00:03:33]
15. Sonata D-dur K 490 - Cantabile [00:06:26]
16. Sonata D-dur K 491 - Allegro [00:04:52]
17. Sonata D-dur K 492 - Presto [00:03:35]
Andreas Staier harpsichord
(Recording: December 18-21, 1990, Paedagogisches Zentrum, Lindlar, Germany)

CD02 - Domenico Scarlatti - Sonatas “Pour le Clavecin“ [CD2] (71:00)

Domenico Scarlatti (1685-1757)
01. Sonata C-dur K 420 - Allegro [00:04:04]
02. Sonata C-dur K 421 - Allegro [00:03:29]
03. Sonata e-moll K 263 - Andante [00:04:26]
04. Sonata E-dur K 264 - Vivo [00:05:13]
05. Sonata C-dur K 132 - Cantabile [00:06:36]
06. Sonata C-dur K 133 - Allegro [00:03:42]
07. Sonata a-moll K 175 - Allegro [00:03:28]
08. Sonata D-dur K 277 - Cantabile andantino [00:01:48]
09. Sonata D-dur K 278 - Con velocita [00:02:14]
10. Sonata d-moll K 213 - Andante [00:07:51]
11. Sonata D-dur K 214 - Allegro vivo [00:03:30]
12. Sonata B-dur K 202 - Allegro (ohne Bezeichnung) - Vivo [00:03:32]
13. Sonata d-moll K 64 - Gavotta. Allegro [00:01:37]
14. Sonata D-dur K 96 - Allegrissimo [00:04:44]
15. Sonata h-moll K 87 (ohne Bezeichnung) [00:06:10]
16. Sonata C-dur K 460 - Allegro [00:06:09]
17. Sonata C-dur K 461 - Allegro [00:02:20]
Andreas Staier harpsichord
(Recording: February 26-28, 1992, Paedagogisches Zentrum, Lindlar, Germany)

CD03 - Bach J.S. - Clavierfantasien/Clavierübung I & II [CD1] (68:48)

Johann Sebastian Bach (1685-1750)
01. Fantasie a-moll, BWV 922 [00:06:38]
02. Fantasie und Fuge a-moll, BWV 904 [00:09:00]
03. Fantasie c-moll, BWV 921 [00:03:09]
04. Fantasie c-moll, BWV 919 [00:01:29]
05. Praeludium und Fuge a-moll, BWV 894 [00:09:43]
06. Praeludium und Fughetta G-dur, BWV 902 [00:09:20]
07. Praeludium und Fuge F-dur,BWV 901 [00:02:27]
08. Chromatische Fantasie und Fuge d-moll, BWV 903 [00: 12:06]
09. Fantasie 'duobus subiectis' g-moll, BWV 917 [00:02:16]
10. Fantasie und unvollendete Fuge c-moll, BWV 906 [00:07:03]
Andreas Staier harpsichord
(Recording: Aprel 15-17, 1988, Katholische Kirche in Seewen, Switzerland)

CD04 - Bach J.S. - Clavierfantasien/Clavierübung I & II, BWV 830, 831, 971 [CD2] (73:32)

Johann Sebastian Bach (1685-1750)
Partita VI e-moll BWV 830:
01. I. Toccata [00:06:52]
02. II. Allemande [00:03:51]
03. III. Courante [00:04:23]
04. IV. Air [00:01:27]
05. V. Sarabande [00:06:39]
06. VI. Tempo di Gavotta [00:01:50]
07. VII. Gigue [00:05:49]
Italienisches Konzert F-dur BWV 971:
11. I. Satz [00:03:51]
12. II. Andante [00:04:24]
10. III. Presto [00:03:39]
Partita h-moll BWV 831:
11. I. Overture [00:11:39]
12. II. Courante [00:02:43]
13. III. Gavotte I & II [00:02:59]
14. IV. Passepied I & II [00:02:09]
15. V. Sarabande [00:03:43]
16. VI. Bouree I & II [00:02:19]
17. VII. Gigue [00:02:24]
18. VIII. Echo [00:02:44]
Andreas Staier harpsichord
(Recording: Aprel 15-17, 1988, Katholische Kirche in Seewen, Switzerland)

CD05 - G.Ph. Telemann - Essercizii Musici (74:12)

Georg Philipp Telemann (1681-1767)
Solo 6 (C-Dur) fur Cembalo TWV 32:3:
01. I. Largo [00:02:33]
02. II. Allemanda [00:05:40]
03. III. Lura [00:01:54]
04. IV. Corrente [00:02:41]
05. V. Minue 1 / Minue 2 [00:02:27:01]
06. VI. Gigue [00:02:48]
Trio 8 (B-Dur) fur Flaute dolce, Cembal obligato und B.c. TWV 42:B4:
07. I. Dolce [00:02:27]
08. II. Vivace [00:01:40]
09. III. Siciliana [00:02:34]
10. IV. Vivace [00:01:52]
Trio 12 (Es-Dur) fur Oboe, Cembalo obligato und B.c. TWV 42:Es3:
11. I. Largo [00:03:10]
12. II. Vivace [00:02:34]
13. III. Mesto [00:02:24]
14. IV. Vivace [00:03:33]
Trio 2 (G-Dur) fur Viola da gamba, Cembalo obligato und B.c. TWV 42:G6:
15. I. Andante [00:02:10]
16. II. Allegro [00:01:51]
17. III. Largo [00:05:12]
18. IV. Presto [00:01:17]
Trio 4 (A-Dur) fur Flauto traverso, Cembalo obligato und B.c. TWV 42:A6:
19. I. Largo [00:02:08]
20. II. Allegro [00:03:39]
21. III. Largo [00:03:043:01]
22. IV. Vivace [00:01:53]
Solo 12 (F-Dur) fur Cembalo TWV 32:4:
23. I. Cantabile [00:06:02]
24. II. Bouree [00:01:20]
25. III. Sarabande [00:02:09]
26. IV. Gavotte [00:02:01]
27. V. Passepied [00:00:46]
28. VI. Gigue [00:02:09]
Andreas Staier harpsichord, Paolo Pandolfo viola da gamba,
Oskar Peter transverse flute, Michel Piguet oboe, Conrad Steinmann recorder

Basso continuo:
Jesper Boje Christensen harpsichord, Imke David viola da gamba
(Recording: April 24 - May 1, 1990 at Reformierte Kirche Arlesheim, Switzerland)

CD06 - Bach C.P.E. – Sonatas & Fantasien (70:00)

Carl Philipp Emanuel Bach (1714-1788)
Sonata a-moll Wq 49,1/H 30:
01. I. Moderato [00:06:02]
02. II. Andante [00:04:12]
03. III. Allegro assai [00:03:36]
04. 12 Variationes auf die Folie d'Espagne d-moll Wq 118,9/H 263 [00:08:43]
Sonata g-moll Wq 65,17/H 47:
05. I. Allegro (attacca) [00:05:28]
06. II. Adagio (attacca) [00:04:19]
07. III. Allegro [00:04:16]
08. Freye Fantasie fis-moll Wq 67/H 300 [00:12:47]
09. Rondo c-moll Wq 59,4/H 283: Allegro [00:05:10]
Sonata e-moll Wq 59,1/H 281:
10. I. Presto (attacca) [00:03:27]
11. II. Adagio (attacca) [00:01:34]
12. III. Andantino [00:03:42]
13. Fantasia C-dur Wq 61,6/H 291 [00:07:12]
Andreas Staier harpsichord & fortepiano
(Recording: November 18-20, 1987, Paedagogisches Zentrum, Lindlar, Germany)

CD07 - Boccherini – Klavierquintette (70:18)

Luigi Boccherini (1743- 805)
Quintett e-moll G.415 (op.57 Nr.3):
01. I. Andante lento assai [00:04:20]
02. II. Minuetto non presto [00:02:10]
03. III. Provensal: Allegro vivace - Andante lento [00:09:06]
Quintett a-moll G.412 (op.56 Nr.2):
04. I. Allegretto [00:06:04]
05. II. Andantino - Minuetto/Trio/Minuetto [00:05:49]
06. III. Andantino come prima [00:01:28]
07. IV. Allegro ma non presto - Allegretto [00:05:17]
Quintett Es-dur G.410 (op.56 Nr.3):
08. I. Andantino affetuoso [00:04:30]
09. II. Allegretto [00:05:15]
10. III. Allegro assai [00:05:51]
Quintett C-dur G.418 (op.57 Nr.6):
11. I. Allegretto lento [00:03:09]
12. II. Presto [00:05:56]
13. III. Variazioni sopra la Ritirata notturno di Madrid: Tempo di una lenta marcia [00:06:40]
14. IV. Polonese: Allegretto sostenuto [00:04:38]
Andreas Staier fortepiano, Mary Utiger violin, Paula Kibildis violin,
Hajo Bass viola, Christina Kyprianides violoncello
(Recording: September 23-26, 1987, Evangelische Kirche, Honrath, Germany)

CD08 - Dussek Johann Ladislaus - Sonaten (61:10)

Dussek Johann Ladislaus (1760-1812)
Fantasia and Fugue f-moll:
01. I. Fantasia [00:05:51]
02. II. Fuge [00:06:09]
'Le Retour a Paris' As-Dur:
03. I. Allegro non troppo ed espressivo [00:13:26]
04. II. Molto Adagio con anima ed Espressione [00:07:54]
05. III. Tempo di Minuetto - Scherzo quasi Allegro - Trio [00:03:30]
06. IV. Finale - Scherzo Allegro con spirito [00:07:52]
Elegie Harmonique fis-moll:
07. I. Lento patetico - Tempo agitato [00:11:40]
08. II. Tempo vivace e con fuoco quasi presto [00:04:45]
Andreas Staier fortepiano
(Recording: September 14-18, 1994, Klaviermusiksaal des Beethoven-Hauses, Bonn, Germany)

CD09 - Haydn Joseph – Klaviersonaten, Hob.XVI/48-52 [CD1] (71:50)

Joseph Haydn (1732-1809)
Sonata C-dur Hob. XVI/48:
01. I. Andante con expressione [00:08:27]
02. II. Rondo.Presto [00:04:17]
Sonata Es-dur Hob. XVI/49:
03. I. Allegro [00:06:49]
04. II. Adagio e cantabile [00:07:16]
05. III. Finale. Tempo di Menuet [00:03:38]
Sonata C-dur Hob. XVI/50:
06. I. Allegro [00:07:50]
07. II. Adagio [00:04:22]
08. III. Allegro molto [00:02:20]
Sonata D-dur Hob. XVI/51:
09. I. Andante [00:03:46]
10. II. Finale. Presto[00:01:39]
Sonata Es-dur Hob. XVI/52:
11. I. Allegro [00:08:45]
12. II. Adagio [00:06:34]
13. III. Finale. Presto [00:05:21]
Andreas Staier fortepiano
(Recording: November 27-30, 1989, Schulzentrum, Lindlar, Germany)

CD10 - Haydn Joseph – Klaviersonaten, Hob.XVI/35-39 & 20 [CD2] (77:49)

Joseph Haydn (1732-1809)
Sonata C-dur Hob.XVI/35:
01. I. Allegro con brio [00:05:11]
02. II. Adagio [00:03:26]
03. III. Finale. Allegro [00:02:55]
Sonata cis-moll Hob.XVI/36:
04. I. Moderato [00:06:35]
05. II. Scherzando. Allegro con brio [00:03:13]
06. III. Memuetto. Moderato [00:04:13]
Sonata D-dur Hob.XVI/37:
07. I. Allegro con brio [00:04:07]
08. II. Largo e sostenuto [00:02:35]
09. III. Finale. Presto ma non troppo [00:03:02]
Sonata Es-dur Hob.XVI/38:
10. I. Allegro moderato [00:04:07]
11. II. Adagio [00:03:49]
12. III. Finale. Allegro [00:02:29]
Sonata G-dur Hob.XVI/39:
13. I. Allegro con brio [00:03:51]
14. II. Adagio [00:06:17]
15. III. Prestissimo [00:03:10]
Sonata c-moll Hob.XVI/20:
16. I. Moderato [00:07:23]
17. II. Andante con moto [00:05:10]
18. III. Finale. Allegro [00:03:21]
Andreas Staier fortepiano
(Recording: September 9-12, 1991, Schulzentrum, Lindlar, Germany)

LOG EAC

CD 01

Exact Audio Copy V1.0 beta 1 from 15. November 2010
EAC extraction logfile from 26. May 2012, 15:41
Andreas Staier / Domenico Scarlatti - Sonatas "Pour Le Clavecin" Vol.1
Used drive : PIONEER DVD-RW DVR-218L Adapter: 1 ID: 0
Read mode : Secure
Utilize accurate stream : Yes
Defeat audio cache : Yes
Make use of C2 pointers : No
Read offset correction : 6
Overread into Lead-In and Lead-Out : No
Fill up missing offset samples with silence : Yes
Delete leading and trailing silent blocks : No
Null samples used in CRC calculations : Yes
Used interface : Native Win32 interface for Win NT & 2000
Used output format : User Defined Encoder
Selected bitrate : 192 kBit/s
Quality : High
Add ID3 tag : No
Command line compressor : C:\Program Files\Exact Audio Copy\Flac\flac.exe
Additional command line options : -T "DATE=%y" -T "GENRE=%m" -8 -V %s
TOC of the extracted CD
Track | Start | Length | Start sector | End sector
---------------------------------------------------------
1 | 0:00.00 | 3:39.25 | 0 | 16449
2 | 3:39.25 | 4:33.70 | 16450 | 36994
3 | 8:13.20 | 5:20.60 | 36995 | 61054
4 | 13:34.05 | 4:08.25 | 61055 | 79679
5 | 17:42.30 | 2:41.25 | 79680 | 91779
6 | 20:23.55 | 3:30.70 | 91780 | 107599
7 | 23:54.50 | 4:28.28 | 107600 | 127727
8 | 28:23.03 | 5:12.72 | 127728 | 151199
9 | 33:36.00 | 3:58.35 | 151200 | 169084
10 | 37:34.35 | 3:27.55 | 169085 | 184664
11 | 41:02.15 | 2:54.53 | 184665 | 197767
12 | 43:56.68 | 4:44.50 | 197768 | 219117
13 | 48:41.43 | 2:30.67 | 219118 | 230434
14 | 51:12.35 | 3:33.20 | 230435 | 246429
15 | 54:45.55 | 6:26.60 | 246430 | 275439
16 | 61:12.40 | 4:52.58 | 275440 | 297397
17 | 66:05.23 | 3:35.60 | 297398 | 313582
Range status and errors
Selected range
Filename C:\Domenico Scarlatti - Sonatas ''Pour Le Clavecin'' Vol.1.wav
Peak level 64.2 %
Extraction speed 0.0 X
Range quality 100.0 %
Test CRC 6135AD06
Copy CRC 6135AD06
Copy OK
No errors occurred
AccurateRip summary
Track 1 cannot be verified as accurate (confidence 10) [D62DA07D], AccurateRip returned [9DDDCBD2]
Track 2 cannot be verified as accurate (confidence 10) [D0974330], AccurateRip returned [C5587F13]
Track 3 cannot be verified as accurate (confidence 11) [5BB71CF8], AccurateRip returned [D823B848]
Track 4 cannot be verified as accurate (confidence 10) [41CC954B], AccurateRip returned [696D71AC]
Track 5 cannot be verified as accurate (confidence 11) [8ACAC278], AccurateRip returned [A9E5917E]
Track 6 cannot be verified as accurate (confidence 10) [E6503579], AccurateRip returned [9DCD1E2D]
Track 7 cannot be verified as accurate (confidence 11) [4C552269], AccurateRip returned [BDF799C5]
Track 8 cannot be verified as accurate (confidence 10) [59B2518A], AccurateRip returned [F307C619]
Track 9 cannot be verified as accurate (confidence 10) [5E6EF3CB], AccurateRip returned [FABC82B4]
Track 10 cannot be verified as accurate (confidence 10) [F43C4947], AccurateRip returned [32F0B4FF]
Track 11 cannot be verified as accurate (confidence 11) [CB4ED890], AccurateRip returned [DA7E20A2]
Track 12 cannot be verified as accurate (confidence 11) [2DD2975D], AccurateRip returned [9F113A46]
Track 13 cannot be verified as accurate (confidence 11) [BB6B0E2C], AccurateRip returned [04627779]
Track 14 cannot be verified as accurate (confidence 11) [F1A08F59], AccurateRip returned [DA559A9A]
Track 15 cannot be verified as accurate (confidence 10) [D16887CD], AccurateRip returned [A3131804]
Track 16 cannot be verified as accurate (confidence 11) [377D3D2D], AccurateRip returned [6A5CEDC2]
Track 17 cannot be verified as accurate (confidence 11) [4F28C62F], AccurateRip returned [A963ACDE]
No tracks could be verified as accurate
You may have a different pressing from the one(s) in the database
End of status report
==== Log checksum C304C85B921F0DF7A0A4FC80C3C19AFD02BE36DBFCCB3A1F4091C61075FD3B9D ====

CD 02

Exact Audio Copy V1.0 beta 1 from 15. November 2010
EAC extraction logfile from 26. May 2012, 17:13
Andreas Staier / Domenico Scarlatti - Sonatas "Pour Le Clavecin" Vol.2
Used drive : PIONEER DVD-RW DVR-218L Adapter: 1 ID: 0
Read mode : Secure
Utilize accurate stream : Yes
Defeat audio cache : Yes
Make use of C2 pointers : No
Read offset correction : 6
Overread into Lead-In and Lead-Out : No
Fill up missing offset samples with silence : Yes
Delete leading and trailing silent blocks : No
Null samples used in CRC calculations : Yes
Used interface : Native Win32 interface for Win NT & 2000
Used output format : User Defined Encoder
Selected bitrate : 192 kBit/s
Quality : High
Add ID3 tag : No
Command line compressor : C:\Program Files\Exact Audio Copy\Flac\flac.exe
Additional command line options : -T "DATE=%y" -T "GENRE=%m" -8 -V %s
TOC of the extracted CD
Track | Start | Length | Start sector | End sector
---------------------------------------------------------
1 | 0:00.00 | 4:04.17 | 0 | 18316
2 | 4:04.17 | 3:29.40 | 18317 | 34031
3 | 7:33.57 | 4:26.65 | 34032 | 54046
4 | 12:00.47 | 5:13.25 | 54047 | 77546
5 | 17:13.72 | 6:36.73 | 77547 | 107319
6 | 23:50.70 | 3:42.02 | 107320 | 123971
7 | 27:32.72 | 3:28.05 | 123972 | 139576
8 | 31:01.02 | 1:48.38 | 139577 | 147714
9 | 32:49.40 | 2:14.40 | 147715 | 157804
10 | 35:04.05 | 7:51.45 | 157805 | 193174
11 | 42:55.50 | 3:30.37 | 193175 | 208961
12 | 46:26.12 | 3:32.30 | 208962 | 224891
13 | 49:58.42 | 1:37.40 | 224892 | 232206
14 | 51:36.07 | 4:44.40 | 232207 | 253546
15 | 56:20.47 | 6:10.00 | 253547 | 281296
16 | 62:30.47 | 6:09.50 | 281297 | 309021
17 | 68:40.22 | 2:20.53 | 309022 | 319574
Range status and errors
Selected range
Filename C:\Domenico Scarlatti - Sonatas ''Pour Le Clavecin'' Vol.2.wav
Peak level 94.5 %
Extraction speed 0.0 X
Range quality 100.0 %
Test CRC 12310843
Copy CRC 12310843
Copy OK
No errors occurred
AccurateRip summary
Track 1 cannot be verified as accurate (confidence 4) [B74B38F3], AccurateRip returned [4D50503C]
Track 2 cannot be verified as accurate (confidence 4) [239C3FAF], AccurateRip returned [E1DF286D]
Track 3 cannot be verified as accurate (confidence 4) [98D7ED3B], AccurateRip returned [112A0BAF]
Track 4 cannot be verified as accurate (confidence 4) [7A639CA3], AccurateRip returned [520DD5A5]
Track 5 cannot be verified as accurate (confidence 4) [C39964BB], AccurateRip returned [6B5760B6]
Track 6 cannot be verified as accurate (confidence 4) [E3D07DD7], AccurateRip returned [CCEAF839]
Track 7 cannot be verified as accurate (confidence 4) [C932EBB3], AccurateRip returned [08F2E916]
Track 8 cannot be verified as accurate (confidence 4) [A69911CB], AccurateRip returned [76BD3F75]
Track 9 cannot be verified as accurate (confidence 4) [BD672FB2], AccurateRip returned [7A649C15]
Track 10 cannot be verified as accurate (confidence 4) [1663E2A5], AccurateRip returned [CCE04546]
Track 11 cannot be verified as accurate (confidence 4) [F4C1872E], AccurateRip returned [C025C3D2]
Track 12 cannot be verified as accurate (confidence 4) [1E526660], AccurateRip returned [343BFA73]
Track 13 cannot be verified as accurate (confidence 4) [5C905198], AccurateRip returned [52E1A3B9]
Track 14 cannot be verified as accurate (confidence 4) [8E3A95FC], AccurateRip returned [7E6BBDC2]
Track 15 cannot be verified as accurate (confidence 4) [72F799C5], AccurateRip returned [0FFAA0A2]
Track 16 cannot be verified as accurate (confidence 4) [29BE1AEA], AccurateRip returned [3FAE48AA]
Track 17 cannot be verified as accurate (confidence 4) [EB4A0DA9], AccurateRip returned [26B769E6]
No tracks could be verified as accurate
You may have a different pressing from the one(s) in the database
End of status report
==== Log checksum 33CC375500369C970ADE7DF0D75E83B427902DE0392D93FFD6D22E36500F9CD3 ====

CD 03

Exact Audio Copy V1.0 beta 1 from 15. November 2010
EAC extraction logfile from 28. May 2012, 23:17
Andreas Staier / Bach J.S. - Clavierfantasien
Used drive : PIONEER DVD-RW DVR-218L Adapter: 1 ID: 0
Read mode : Secure
Utilize accurate stream : Yes
Defeat audio cache : Yes
Make use of C2 pointers : No
Read offset correction : 6
Overread into Lead-In and Lead-Out : No
Fill up missing offset samples with silence : Yes
Delete leading and trailing silent blocks : No
Null samples used in CRC calculations : Yes
Used interface : Native Win32 interface for Win NT & 2000
Used output format : User Defined Encoder
Selected bitrate : 192 kBit/s
Quality : High
Add ID3 tag : No
Command line compressor : C:\Program Files\Exact Audio Copy\Flac\flac.exe
Additional command line options : -T "DATE=%y" -T "GENRE=%m" -8 -V %s
TOC of the extracted CD
Track | Start | Length | Start sector | End sector
---------------------------------------------------------
1 | 0:00.00 | 6:38.55 | 0 | 29904
2 | 6:38.55 | 9:00.42 | 29905 | 70446
3 | 15:39.22 | 3:09.65 | 70447 | 84686
4 | 18:49.12 | 1:29.20 | 84687 | 91381
5 | 20:18.32 | 9:43.48 | 91382 | 135154
6 | 30:02.05 | 9:20.32 | 135155 | 177186
7 | 39:22.37 | 2:27.60 | 177187 | 188271
8 | 41:50.22 | 12:06.73 | 188272 | 242794
9 | 53:57.20 | 2:16.60 | 242795 | 253054
10 | 56:14.05 | 7:03.45 | 253055 | 284824
Range status and errors
Selected range
Filename C:\Bach J.S. - Clavierfantasien.wav
Peak level 57.8 %
Extraction speed 0.1 X
Range quality 100.0 %
Test CRC CD2E5D01
Copy CRC CD2E5D01
Copy OK
No errors occurred
AccurateRip summary
Track 1 cannot be verified as accurate (confidence 6) [2C321E36], AccurateRip returned [EEFA9D6E]
Track 2 cannot be verified as accurate (confidence 6) [272191EE], AccurateRip returned [BFAC020D]
Track 3 cannot be verified as accurate (confidence 6) [0596438C], AccurateRip returned [DA0D5CD6]
Track 4 cannot be verified as accurate (confidence 6) [508037DC], AccurateRip returned [F3051005]
Track 5 cannot be verified as accurate (confidence 6) [E424CAA6], AccurateRip returned [2134209B]
Track 6 cannot be verified as accurate (confidence 6) [82773386], AccurateRip returned [698B3143]
Track 7 cannot be verified as accurate (confidence 6) [0BFA4174], AccurateRip returned [B6DFA162]
Track 8 cannot be verified as accurate (confidence 6) [116562C5], AccurateRip returned [C9EA8DF6]
Track 9 cannot be verified as accurate (confidence 5) [EC3C77B1], AccurateRip returned [EA3D3F66]
Track 10 cannot be verified as accurate (confidence 5) [4E64D899], AccurateRip returned [57EA0A10]
No tracks could be verified as accurate
You may have a different pressing from the one(s) in the database
End of status report
==== Log checksum 73758376E1026E1D5401B298C0690CB324FFF1E7FD50004845CB2D8A46E6BC16 ====

CD 04

Exact Audio Copy V1.0 beta 1 from 15. November 2010
EAC extraction logfile from 29. May 2012, 14:30
Andreas Staier / Bach J.S. - Clavierubung I & II
Used drive : PIONEER DVD-RW DVR-218L Adapter: 1 ID: 0
Read mode : Secure
Utilize accurate stream : Yes
Defeat audio cache : Yes
Make use of C2 pointers : No
Read offset correction : 6
Overread into Lead-In and Lead-Out : No
Fill up missing offset samples with silence : Yes
Delete leading and trailing silent blocks : No
Null samples used in CRC calculations : Yes
Used interface : Native Win32 interface for Win NT & 2000
Used output format : User Defined Encoder
Selected bitrate : 192 kBit/s
Quality : High
Add ID3 tag : No
Command line compressor : C:\Program Files\Exact Audio Copy\Flac\flac.exe
Additional command line options : -T "DATE=%y" -T "GENRE=%m" -8 -V %s
TOC of the extracted CD
Track | Start | Length | Start sector | End sector
---------------------------------------------------------
1 | 0:00.00 | 6:52.27 | 0 | 30926
2 | 6:52.27 | 3:51.73 | 30927 | 48324
3 | 10:44.25 | 4:23.17 | 48325 | 68066
4 | 15:07.42 | 1:27.00 | 68067 | 74591
5 | 16:34.42 | 6:39.38 | 74592 | 104554
6 | 23:14.05 | 1:50.27 | 104555 | 112831
7 | 25:04.32 | 5:49.33 | 112832 | 139039
8 | 30:53.65 | 3:51.17 | 139040 | 156381
9 | 34:45.07 | 4:24.48 | 156382 | 176229
10 | 39:09.55 | 3:39.72 | 176230 | 192726
11 | 42:49.52 | 11:39.25 | 192727 | 245176
12 | 54:29.02 | 2:43.45 | 245177 | 257446
13 | 57:12.47 | 2:59.25 | 257447 | 270896
14 | 60:11.72 | 2:09.43 | 270897 | 280614
15 | 62:21.40 | 3:43.20 | 280615 | 297359
16 | 66:04.60 | 2:19.52 | 297360 | 307836
17 | 68:24.37 | 2:24.23 | 307837 | 318659
18 | 70:48.60 | 2:44.47 | 318660 | 331006
Range status and errors
Selected range
Filename C:\Bach J.S. - Clavierubung I & II.wav
Peak level 81.9 %
Extraction speed 0.0 X
Range quality 100.0 %
Test CRC 264E6ABD
Copy CRC 264E6ABD
Copy OK
No errors occurred
AccurateRip summary
Track 1 cannot be verified as accurate (confidence 5) [B03D7497], AccurateRip returned [2B76DA91]
Track 2 cannot be verified as accurate (confidence 5) [0506E060], AccurateRip returned [EC3CEE2A]
Track 3 cannot be verified as accurate (confidence 5) [737397AB], AccurateRip returned [62989FCA]
Track 4 cannot be verified as accurate (confidence 5) [9066B0D2], AccurateRip returned [9897431D]
Track 5 cannot be verified as accurate (confidence 5) [D75B6B6D], AccurateRip returned [98A96568]
Track 6 cannot be verified as accurate (confidence 5) [B6106927], AccurateRip returned [49DC16E2]
Track 7 cannot be verified as accurate (confidence 5) [600BE75F], AccurateRip returned [09779FEC]
Track 8 cannot be verified as accurate (confidence 4) [EC0B3588], AccurateRip returned [16A1B735]
Track 9 cannot be verified as accurate (confidence 4) [0604D859], AccurateRip returned [CAE4FED0]
Track 10 cannot be verified as accurate (confidence 4) [2866CE9C], AccurateRip returned [BBFB3E50]
Track 11 cannot be verified as accurate (confidence 5) [DD2E7748], AccurateRip returned [677B87D5]
Track 12 cannot be verified as accurate (confidence 5) [26AA509C], AccurateRip returned [6AD6679A]
Track 13 cannot be verified as accurate (confidence 5) [F497F19B], AccurateRip returned [E30D9B23]
Track 14 cannot be verified as accurate (confidence 5) [5B9C0CB0], AccurateRip returned [9A75CF11]
Track 15 cannot be verified as accurate (confidence 5) [98461D2D], AccurateRip returned [4B306989]
Track 16 cannot be verified as accurate (confidence 5) [CB13BAF9], AccurateRip returned [2D882923]
Track 17 cannot be verified as accurate (confidence 5) [83213EC8], AccurateRip returned [961491B3]
Track 18 cannot be verified as accurate (confidence 5) [D585D1FF], AccurateRip returned [06B450A1]
No tracks could be verified as accurate
You may have a different pressing from the one(s) in the database
End of status report
==== Log checksum 9A0FF8044EA82A91A6431AB642C9E18E00A61DC89DC9DE6A6B86BB8906656353 ====

CD 05

Exact Audio Copy V1.0 beta 1 from 15. November 2010
EAC extraction logfile from 29. May 2012, 16:20
Andreas Staier / Telemann - Werke mit obligatem Cembalo aus den Essercizii Musici
Used drive : PIONEER DVD-RW DVR-218L Adapter: 1 ID: 0
Read mode : Secure
Utilize accurate stream : Yes
Defeat audio cache : Yes
Make use of C2 pointers : No
Read offset correction : 6
Overread into Lead-In and Lead-Out : No
Fill up missing offset samples with silence : Yes
Delete leading and trailing silent blocks : No
Null samples used in CRC calculations : Yes
Used interface : Native Win32 interface for Win NT & 2000
Used output format : User Defined Encoder
Selected bitrate : 192 kBit/s
Quality : High
Add ID3 tag : No
Command line compressor : C:\Program Files\Exact Audio Copy\Flac\flac.exe
Additional command line options : -T "DATE=%y" -T "GENRE=%m" -8 -V %s
TOC of the extracted CD
Track | Start | Length | Start sector | End sector
---------------------------------------------------------
1 | 0:00.00 | 2:33.20 | 0 | 11494
2 | 2:33.20 | 5:40.40 | 11495 | 37034
3 | 8:13.60 | 1:54.32 | 37035 | 45616
4 | 10:08.17 | 2:41.00 | 45617 | 57691
5 | 12:49.17 | 2:27.05 | 57692 | 68721
6 | 15:16.22 | 2:48.65 | 68722 | 81386
7 | 18:05.12 | 2:27.40 | 81387 | 92451
8 | 20:32.52 | 1:40.13 | 92452 | 99964
9 | 22:12.65 | 2:34.72 | 99965 | 111586
10 | 24:47.62 | 1:52.13 | 111587 | 119999
11 | 26:40.00 | 3:10.30 | 120000 | 134279
12 | 29:50.30 | 2:34.65 | 134280 | 145894
13 | 32:25.20 | 2:24.12 | 145895 | 156706
14 | 34:49.32 | 3:33.43 | 156707 | 172724
15 | 38:23.00 | 2:10.02 | 172725 | 182476
16 | 40:33.02 | 1:51.05 | 182477 | 190806
17 | 42:24.07 | 5:12.43 | 190807 | 214249
18 | 47:36.50 | 1:17.12 | 214250 | 220036
19 | 48:53.62 | 2:08.23 | 220037 | 229659
20 | 51:02.10 | 3:39.52 | 229660 | 246136
21 | 54:41.62 | 3:04.55 | 246137 | 259991
22 | 57:46.42 | 1:53.20 | 259992 | 268486
23 | 59:39.62 | 6:02.55 | 268487 | 295691
24 | 65:42.42 | 1:20.68 | 295692 | 301759
25 | 67:03.35 | 2:09.27 | 301760 | 311461
26 | 69:12.62 | 2:01.50 | 311462 | 320586
27 | 71:14.37 | 0:46.43 | 320587 | 324079
28 | 72:01.05 | 2:09.70 | 324080 | 333824
Range status and errors
Selected range
Filename C:\Telemann - Werke mit obligatem Cembalo aus den Essercizii Musici.wav
Peak level 55.1 %
Extraction speed 0.0 X
Range quality 99.9 %
Test CRC 922E8634
Copy CRC 922E8634
Copy OK
No errors occurred
AccurateRip summary
Track 1 not present in database
Track 2 not present in database
Track 3 not present in database
Track 4 not present in database
Track 5 not present in database
Track 6 not present in database
Track 7 not present in database
Track 8 not present in database
Track 9 not present in database
Track 10 not present in database
Track 11 not present in database
Track 12 not present in database
Track 13 not present in database
Track 14 not present in database
Track 15 not present in database
Track 16 not present in database
Track 17 not present in database
Track 18 not present in database
Track 19 not present in database
Track 20 not present in database
Track 21 not present in database
Track 22 not present in database
Track 23 not present in database
Track 24 not present in database
Track 25 not present in database
Track 26 not present in database
Track 27 not present in database
Track 28 not present in database
None of the tracks are present in the AccurateRip database
End of status report
==== Log checksum D12B25EF647CE3AFCFB9728ECF3F69EE577A7F48E134ADC4BB4E22D967AD2156 ====

CD 06

Exact Audio Copy V1.0 beta 1 from 15. November 2010
EAC extraction logfile from 29. May 2012, 18:29
Andreas Staier / Bach C.P.E. - Sonatas & Fantasien
Used drive : PIONEER DVD-RW DVR-218L Adapter: 1 ID: 0
Read mode : Secure
Utilize accurate stream : Yes
Defeat audio cache : Yes
Make use of C2 pointers : No
Read offset correction : 6
Overread into Lead-In and Lead-Out : No
Fill up missing offset samples with silence : Yes
Delete leading and trailing silent blocks : No
Null samples used in CRC calculations : Yes
Used interface : Native Win32 interface for Win NT & 2000
Used output format : User Defined Encoder
Selected bitrate : 192 kBit/s
Quality : High
Add ID3 tag : No
Command line compressor : C:\Program Files\Exact Audio Copy\Flac\flac.exe
Additional command line options : -T "DATE=%y" -T "GENRE=%m" -8 -V %s
TOC of the extracted CD
Track | Start | Length | Start sector | End sector
---------------------------------------------------------
1 | 0:00.00 | 6:02.05 | 0 | 27154
2 | 6:02.05 | 4:12.35 | 27155 | 46089
3 | 10:14.40 | 3:36.25 | 46090 | 62314
4 | 13:50.65 | 8:43.10 | 62315 | 101549
5 | 22:34.00 | 5:28.72 | 101550 | 126221
6 | 28:02.72 | 4:19.15 | 126222 | 145661
7 | 32:22.12 | 4:16.60 | 145662 | 164921
8 | 36:38.72 | 12:47.00 | 164922 | 222446
9 | 49:25.72 | 5:10.73 | 222447 | 245769
10 | 54:36.70 | 3:27.70 | 245770 | 261364
11 | 58:04.65 | 1:34.37 | 261365 | 268451
12 | 59:39.27 | 3:42.48 | 268452 | 285149
13 | 63:22.00 | 7:12.40 | 285150 | 317589
Range status and errors
Selected range
Filename C:\Bach C.P.E. - Sonatas & Fantasien.wav
Peak level 96.9 %
Extraction speed 0.1 X
Range quality 100.0 %
Test CRC B1300642
Copy CRC B1300642
Copy OK
No errors occurred
AccurateRip summary
Track 1 cannot be verified as accurate (confidence 5) [87380721], AccurateRip returned [BAA938F5]
Track 2 cannot be verified as accurate (confidence 4) [2F76FBA8], AccurateRip returned [D51F0C20]
Track 3 cannot be verified as accurate (confidence 5) [BE7ACCD8], AccurateRip returned [A502F47A]
Track 4 cannot be verified as accurate (confidence 5) [6AE70FCC], AccurateRip returned [CD86CCA3]
Track 5 cannot be verified as accurate (confidence 5) [143B4958], AccurateRip returned [40C29DD9]
Track 6 cannot be verified as accurate (confidence 5) [FAB36A70], AccurateRip returned [8667EABD]
Track 7 cannot be verified as accurate (confidence 5) [E6F7C101], AccurateRip returned [37BD7B2A]
Track 8 cannot be verified as accurate (confidence 5) [C9500171], AccurateRip returned [E0622E30]
Track 9 cannot be verified as accurate (confidence 5) [8EEF2003], AccurateRip returned [2C6633F3]
Track 10 cannot be verified as accurate (confidence 5) [5487FCED], AccurateRip returned [57A691B1]
Track 11 cannot be verified as accurate (confidence 5) [82B044AE], AccurateRip returned [9868319E]
Track 12 cannot be verified as accurate (confidence 5) [CA7C5E94], AccurateRip returned [5D8A5E1B]
Track 13 cannot be verified as accurate (confidence 5) [67658387], AccurateRip returned [B75C0BF2]
No tracks could be verified as accurate
You may have a different pressing from the one(s) in the database
End of status report
==== Log checksum 0F6CD22DA415BC8DA457B0FD5E3580858129AB0A93D0BE131D915A256B93E744 ====

CD 07

Exact Audio Copy V1.0 beta 1 from 15. November 2010
EAC extraction logfile from 29. May 2012, 20:35
Andreas Staier - Les Adieux / Boccherini - Klavierquintette
Used drive : PIONEER DVD-RW DVR-218L Adapter: 1 ID: 0
Read mode : Secure
Utilize accurate stream : Yes
Defeat audio cache : Yes
Make use of C2 pointers : No
Read offset correction : 6
Overread into Lead-In and Lead-Out : No
Fill up missing offset samples with silence : Yes
Delete leading and trailing silent blocks : No
Null samples used in CRC calculations : Yes
Used interface : Native Win32 interface for Win NT & 2000
Used output format : User Defined Encoder
Selected bitrate : 192 kBit/s
Quality : High
Add ID3 tag : No
Command line compressor : C:\Program Files\Exact Audio Copy\Flac\flac.exe
Additional command line options : -T "DATE=%y" -T "GENRE=%m" -8 -V %s
TOC of the extracted CD
Track | Start | Length | Start sector | End sector
---------------------------------------------------------
1 | 0:00.00 | 4:20.40 | 0 | 19539
2 | 4:20.40 | 2:10.25 | 19540 | 29314
3 | 6:30.65 | 9:06.10 | 29315 | 70274
4 | 15:37.00 | 6:04.22 | 70275 | 97596
5 | 21:41.22 | 5:49.03 | 97597 | 123774
6 | 27:30.25 | 1:28.27 | 123775 | 130401
7 | 28:58.52 | 5:17.23 | 130402 | 154199
8 | 34:16.00 | 4:30.20 | 154200 | 174469
9 | 38:46.20 | 5:15.40 | 174470 | 198134
10 | 44:01.60 | 5:51.15 | 198135 | 224474
11 | 49:53.00 | 3:09.17 | 224475 | 238666
12 | 53:02.17 | 5:56.33 | 238667 | 265399
13 | 58:58.50 | 6:40.70 | 265400 | 295469
14 | 65:39.45 | 4:38.47 | 295470 | 316366
Range status and errors
Selected range
Filename C:\Boccherini - Klavierquintette.wav
Peak level 96.0 %
Extraction speed 0.1 X
Range quality 99.9 %
Test CRC 58EDE061
Copy CRC 58EDE061
Copy OK
No errors occurred
AccurateRip summary
Track 1 cannot be verified as accurate (confidence 6) [9F42831D], AccurateRip returned [30CDFBF5]
Track 2 cannot be verified as accurate (confidence 6) [1A932B5B], AccurateRip returned [5A717033]
Track 3 cannot be verified as accurate (confidence 5) [1CCF45E1], AccurateRip returned [B6F63AF9]
Track 4 cannot be verified as accurate (confidence 6) [58B615F0], AccurateRip returned [ED2DECC7]
Track 5 cannot be verified as accurate (confidence 6) [FABAB65A], AccurateRip returned [04CF6C2F]
Track 6 cannot be verified as accurate (confidence 6) [867300E1], AccurateRip returned [78DF377A]
Track 7 cannot be verified as accurate (confidence 5) [C318F3F1], AccurateRip returned [D8638DB8]
Track 8 cannot be verified as accurate (confidence 6) [F2440E2C], AccurateRip returned [0B88EF1A]
Track 9 cannot be verified as accurate (confidence 6) [31ACC314], AccurateRip returned [7D324CDC]
Track 10 cannot be verified as accurate (confidence 6) [98D79411], AccurateRip returned [0D7ADB37]
Track 11 cannot be verified as accurate (confidence 6) [C8E1695E], AccurateRip returned [AC798A29]
Track 12 cannot be verified as accurate (confidence 6) [DFA4E16D], AccurateRip returned [74EA8E4F]
Track 13 cannot be verified as accurate (confidence 6) [103FC9F0], AccurateRip returned [C244B5C3]
Track 14 cannot be verified as accurate (confidence 5) [B64EDF63], AccurateRip returned [BFA7488A]
No tracks could be verified as accurate
You may have a different pressing from the one(s) in the database
End of status report
==== Log checksum 35F1D4E0EDF8874EB30742804424138DF8811451A4F3599283C23DEDE7BACB81 ====

CD 08

Exact Audio Copy V1.0 beta 1 from 15. November 2010
EAC extraction logfile from 30. May 2012, 20:54
Andreas Staier / Dussek, Johann Ladislaus - Sonaten
Used drive : PIONEER DVD-RW DVR-218L Adapter: 1 ID: 0
Read mode : Secure
Utilize accurate stream : Yes
Defeat audio cache : Yes
Make use of C2 pointers : No
Read offset correction : 6
Overread into Lead-In and Lead-Out : No
Fill up missing offset samples with silence : Yes
Delete leading and trailing silent blocks : No
Null samples used in CRC calculations : Yes
Used interface : Native Win32 interface for Win NT & 2000
Used output format : User Defined Encoder
Selected bitrate : 192 kBit/s
Quality : High
Add ID3 tag : No
Command line compressor : C:\Program Files\Exact Audio Copy\Flac\flac.exe
Additional command line options : -T "DATE=%y" -T "GENRE=%m" -8 -V %s
TOC of the extracted CD
Track | Start | Length | Start sector | End sector
---------------------------------------------------------
1 | 0:00.00 | 5:51.42 | 0 | 26366
2 | 5:51.42 | 6:09.45 | 26367 | 54086
3 | 12:01.12 | 13:26.73 | 54087 | 114609
4 | 25:28.10 | 7:54.27 | 114610 | 150186
5 | 33:22.37 | 3:30.28 | 150187 | 165964
6 | 36:52.65 | 7:52.05 | 165965 | 201369
7 | 44:44.70 | 11:40.27 | 201370 | 253896
8 | 56:25.22 | 4:45.53 | 253897 | 275324
Range status and errors
Selected range
Filename C:\Dussek, Johann Ladislaus - Sonaten.wav
Peak level 91.5 %
Extraction speed 0.1 X
Range quality 100.0 %
Test CRC 770992D8
Copy CRC 770992D8
Copy OK
No errors occurred
AccurateRip summary
Track 1 cannot be verified as accurate (confidence 3) [F8744AB2], AccurateRip returned [B1295C0C]
Track 2 cannot be verified as accurate (confidence 3) [8526CEE7], AccurateRip returned [D176E27C]
Track 3 cannot be verified as accurate (confidence 3) [C4407063], AccurateRip returned [A8366EA1]
Track 4 cannot be verified as accurate (confidence 3) [FCAC98F1], AccurateRip returned [6D0E6328]
Track 5 cannot be verified as accurate (confidence 3) [5DE19310], AccurateRip returned [B9FE1958]
Track 6 cannot be verified as accurate (confidence 3) [9E5E8940], AccurateRip returned [F6B3231F]
Track 7 cannot be verified as accurate (confidence 3) [5D681F43], AccurateRip returned [823DEBD2]
Track 8 cannot be verified as accurate (confidence 3) [2948CA0F], AccurateRip returned [8B6D7BBF]
No tracks could be verified as accurate
You may have a different pressing from the one(s) in the database
End of status report
==== Log checksum 8AF77AF7786C216F4B3DEB0EEFEA65BAC46B0037D30F5CD9712EB54C244DEB5D ====

CD 09

Exact Audio Copy V1.0 beta 1 from 15. November 2010
EAC extraction logfile from 31. May 2012, 15:32
Andreas Staier / Haydn Joseph - Klaviersonaten Hob.XVI/48-52
Used drive : PIONEER DVD-RW DVR-218L Adapter: 1 ID: 0
Read mode : Secure
Utilize accurate stream : Yes
Defeat audio cache : Yes
Make use of C2 pointers : No
Read offset correction : 6
Overread into Lead-In and Lead-Out : No
Fill up missing offset samples with silence : Yes
Delete leading and trailing silent blocks : No
Null samples used in CRC calculations : Yes
Used interface : Native Win32 interface for Win NT & 2000
Used output format : User Defined Encoder
Selected bitrate : 192 kBit/s
Quality : High
Add ID3 tag : No
Command line compressor : C:\Program Files\Exact Audio Copy\Flac\flac.exe
Additional command line options : -T "DATE=%y" -T "GENRE=%m" -8 -V %s
TOC of the extracted CD
Track | Start | Length | Start sector | End sector
---------------------------------------------------------
1 | 0:00.00 | 8:29.17 | 0 | 38191
2 | 8:29.17 | 4:21.63 | 38192 | 57829
3 | 12:51.05 | 6:55.12 | 57830 | 88966
4 | 19:46.17 | 7:18.35 | 88967 | 121851
5 | 27:04.52 | 3:46.10 | 121852 | 138811
6 | 30:50.62 | 7:53.23 | 138812 | 174309
7 | 38:44.10 | 4:23.10 | 174310 | 194044
8 | 43:07.20 | 2:25.50 | 194045 | 204969
9 | 45:32.70 | 3:46.32 | 204970 | 221951
10 | 49:19.27 | 1:46.35 | 221952 | 229936
11 | 51:05.62 | 8:49.15 | 229937 | 269626
12 | 59:55.02 | 6:34.50 | 269627 | 299226
13 | 66:29.52 | 5:21.23 | 299227 | 323324
Range status and errors
Selected range
Filename C:\Haydn Joseph - Klaviersonaten Hob.XVI,48-52.wav
Peak level 99.9 %
Extraction speed 0.1 X
Range quality 100.0 %
Test CRC 6A66ABE9
Copy CRC 6A66ABE9
Copy OK
No errors occurred
AccurateRip summary
Track 1 accurately ripped (confidence 2) [3BB02B9F]
Track 2 accurately ripped (confidence 2) [C88B4918]
Track 3 accurately ripped (confidence 2) [53A9B9EF]
Track 4 accurately ripped (confidence 2) [D1309074]
Track 5 accurately ripped (confidence 2) [8BA8674C]
Track 6 accurately ripped (confidence 2) [59F0D47A]
Track 7 accurately ripped (confidence 2) [5EF53156]
Track 8 accurately ripped (confidence 2) [7DEC4F6C]
Track 9 accurately ripped (confidence 2) [564F65B4]
Track 10 accurately ripped (confidence 2) [3149B37E]
Track 11 accurately ripped (confidence 2) [9957B6DC]
Track 12 accurately ripped (confidence 2) [D08F0E27]
Track 13 accurately ripped (confidence 2) [ADB0ADE4]
All tracks accurately ripped
End of status report
==== Log checksum 8F6F4B83B67BC01299F35B74289E97A592FE84FD7D59777FA9D8F169D7B80C4C ====

CD 10

Exact Audio Copy V1.0 beta 1 from 15. November 2010
EAC extraction logfile from 31. May 2012, 17:07
Andreas Staier / Haydn Joseph - Klaviersonaten Hob.XVI/35-39 & 20
Used drive : PIONEER DVD-RW DVR-218L Adapter: 1 ID: 0
Read mode : Secure
Utilize accurate stream : Yes
Defeat audio cache : Yes
Make use of C2 pointers : No
Read offset correction : 6
Overread into Lead-In and Lead-Out : No
Fill up missing offset samples with silence : Yes
Delete leading and trailing silent blocks : No
Null samples used in CRC calculations : Yes
Used interface : Native Win32 interface for Win NT & 2000
Used output format : User Defined Encoder
Selected bitrate : 192 kBit/s
Quality : High
Add ID3 tag : No
Command line compressor : C:\Program Files\Exact Audio Copy\Flac\flac.exe
Additional command line options : -T "DATE=%y" -T "GENRE=%m" -8 -V %s
TOC of the extracted CD
Track | Start | Length | Start sector | End sector
---------------------------------------------------------
1 | 0:00.00 | 5:16.10 | 0 | 23709
2 | 5:16.10 | 3:29.35 | 23710 | 39419
3 | 8:45.45 | 3:07.35 | 39420 | 53479
4 | 11:53.05 | 6:37.60 | 53480 | 83314
5 | 18:30.65 | 3:17.72 | 83315 | 98161
6 | 21:48.62 | 4:26.23 | 98162 | 118134
7 | 26:15.10 | 4:10.45 | 118135 | 136929
8 | 30:25.55 | 2:35.05 | 136930 | 148559
9 | 33:00.60 | 3:15.42 | 148560 | 163226
10 | 36:16.27 | 4:11.15 | 163227 | 182066
11 | 40:27.42 | 3:49.03 | 182067 | 199244
12 | 44:16.45 | 2:43.60 | 199245 | 211529
13 | 47:00.30 | 3:55.10 | 211530 | 229164
14 | 50:55.40 | 6:21.00 | 229165 | 257739
15 | 57:16.40 | 3:25.62 | 257740 | 273176
16 | 60:42.27 | 7:28.10 | 273177 | 306786
17 | 68:10.37 | 5:20.53 | 306787 | 330839
18 | 73:31.15 | 4:18.60 | 330840 | 350249
Range status and errors
Selected range
Filename C:\Haydn Joseph - Klaviersonaten Hob.XVI,35-39 & 20.wav
Peak level 98.4 %
Extraction speed 0.1 X
Range quality 100.0 %
Test CRC AF50AD5E
Copy CRC AF50AD5E
Copy OK
No errors occurred
AccurateRip summary
Track 1 cannot be verified as accurate (confidence 2) [FE39616E], AccurateRip returned [B48D1FD2]
Track 2 cannot be verified as accurate (confidence 2) [84B8C1C3], AccurateRip returned [2052465A]
Track 3 cannot be verified as accurate (confidence 2) [DBA6A0B6], AccurateRip returned [1405FE16]
Track 4 cannot be verified as accurate (confidence 2) [585D19E2], AccurateRip returned [6AC4E36B]
Track 5 cannot be verified as accurate (confidence 2) [6389C76D], AccurateRip returned [6F0494EC]
Track 6 cannot be verified as accurate (confidence 2) [F76DA13D], AccurateRip returned [10BA5E2E]
Track 7 cannot be verified as accurate (confidence 2) [C3E3B32F], AccurateRip returned [222EA1D9]
Track 8 cannot be verified as accurate (confidence 2) [B729C5F2], AccurateRip returned [DE4F6F4A]
Track 9 cannot be verified as accurate (confidence 2) [904E9E1C], AccurateRip returned [28AEDB60]
Track 10 cannot be verified as accurate (confidence 2) [A755D0C4], AccurateRip returned [9795F243]
Track 11 cannot be verified as accurate (confidence 2) [8AEB6EBF], AccurateRip returned [C2C41CAE]
Track 12 cannot be verified as accurate (confidence 2) [445A6276], AccurateRip returned [129C9AEF]
Track 13 cannot be verified as accurate (confidence 2) [F6B772C6], AccurateRip returned [1D889E12]
Track 14 cannot be verified as accurate (confidence 2) [F9E3F8FF], AccurateRip returned [4281F88C]
Track 15 cannot be verified as accurate (confidence 2) [66370574], AccurateRip returned [38B2E915]
Track 16 cannot be verified as accurate (confidence 2) [6061D982], AccurateRip returned [C6226F47]
Track 17 cannot be verified as accurate (confidence 2) [8E72A153], AccurateRip returned [BDC13A8B]
Track 18 cannot be verified as accurate (confidence 2) [22A8DBAA], AccurateRip returned [1306E2F4]
No tracks could be verified as accurate
You may have a different pressing from the one(s) in the database
End of status report
==== Log checksum 3B4D967E1D2E920CCAEDCEA814233810FC8D6F8FE2F51EE70ED928AA7B2973D2 ====
[teatrix.ru].t9727.torrent 
Торрент: Зарегистрирован [ 2015-10-23 17:11 ] · E389B4A3189AAA6605B61A7930079A3D786ABC81

Скачать .torrent

Скачать

20 KB

Статус: проверено
Скачан: 1 раз
Размер: 3.35 GB
terms.php



Быстрый ответ

Имя:

      
Для отправки сообщений необходимо включить JavaScript
Показать сообщения:    

Текущее время: 08-Дек 07:06

Часовой пояс: UTC + 3


Вы можете начинать темы
Вы можете отвечать на сообщения
Вы не можете редактировать свои сообщения
Вы не можете удалять свои сообщения
Вы не можете голосовать в опросах
Вы не можете прикреплять файлы к сообщениям
Вы можете скачивать файлы