(Classical, Baroque) Freiburger Barockorchester Edition (J.S. Bach, C.P.E. Bach, Biber, Handel, Locatelli, Pisendel, Purcell, Schmelzer, Telemann, Vivaldi, Zavateri, Zelenka) (10CD box set) - 2011, FLAC (image+.cue) lossless


Статистика раздачи [Обновить пиров]
Размер:  3.24 GB   |    Зарегистрирован:  1 год 1 месяц   |    Скачан:  0 раз

Полного источника не было: Никогда

Личеров:  4  [  0 KB/s  ]   Подробная статистика пиров
 
   
 
 
 

[Цитировать]

Freiburger Barockorchester Edition- -Жанр: Classical, Baroque || Страна-производитель диска: EU || Год издания: 2011 || Издатель (лейбл): DHM / Sony Music || Номер по каталогу: 88697937052
Дата записи: 1990-1995 || Аудиокодек: FLAC || Тип рипа: image+.cue || Битрейт аудио: lossless || Продолжительность: 10 CD, 11:01:49

CD01 - P.A. Locatelli: Introduttioni Teatrali Op.4 (66:18)

PIETRO ANTONIO LOCATELLI (1695-1764)
Concerti Grossi, Op.4 (Introduttioni Teatrale)
01. Introduttione No.1 in D major [00:05:47]
02. Introduttione No.2 in F major [00:06:57]
Sonata for violin & b.c. in D major, Op.8-2
03. Adagio [00:02:14]
04. Allegro [00:03:29]
05. Presto - Lento - Presto [00:04:06]
Concerti Grossi, Op.4 (Introduttioni Teatrale)
06. Introduttione No.3 in B flat major [00:05:45]
07. Introduttione No.4 in G major [00:04:33]
Sonata for 2 violins & b.c. in E minor, Op.5-2
08. Largo - Andante [00:05:39]
09. Allegro [00:03:00]
10. Allegro [00:01:41]
Concerti Grossi, Op.4 (Introduttioni Teatrale)
11. Introduttione No.5 in D major [00:06:56]
Sonata for violin & b.c. in A major, Op. 8-10
12. Cantabile [00:03:58]
13. Allegro [00:01:39]
14. Vivace [00:04:39]
15. Introduttione No.6 in C major [00:05:49]
Freiburger Barockorchester, Thomas Hengelbrock
Recorded: April 1992, Maria Minor, Utrecht

CD02 - J.S. Bach, A. Vivaldi: Overtures, Sinfonias, Concerti (64:20)

ANTONIO VIVALDI (1678-1741)
01. Ouverture zur Oper 'L'Olimpiade' [00:05:45]
JOHANN SEBASTIAN BACH (1685-1750)
Suite for orchestra (Overture) No.4 in D major, BWV 1069
02. Ouverture [00:11:54]
03. Bouree I & II [00:02:55]
04. Gavotte [00:02:00]
05. Rejouissance [00:02:25]
ANTONIO VIVALDI
Sinfonia for strings in A major, RV 158
06. Allegro molto [00:02:27]
07. Andante molto [00:01:59]
08. Allegro [00:03:11]
JOHANN SEBASTIAN BACH
09. Sinfonia aus der Kantate 'Am Abend aber desselbigen Sabbats', BWV 42 [00:06:41]
ANTONIO VIVALDI
Concerto in B minor, Op. 3-10, RV 580 (from 'L'Estro Armonico')
10. Allegro [00:03:29]
11. Largo [00:02:05]
12. Allegro [00:03:06]
JOHANN SEBASTIAN BACH
Concerto for 3 violins and strings, BWV 1064
13. Allegro [00:06:03]
14. Adagio [00:06:10]
15. Allegro [00:04:05]
Freiburger Barockorchester, Thomas Hengelbrock
Recorded: September, 11-15, 1992, Maria Minor, Utrecht
February, 10-15, 1991, Auenkirche, Berlin (2-5)

CD03 - H. Purcell: Dioclesian Suite, Händel: Concerto Grosso op.6 No.6, Il Duello Amoroso (68:48)

HENRY PURCELL (1659-1695)
Orchestral suite from 'Dioclesian', Z. 627
01. Overture [00:04:11]
02. Dance - 'If music be the food' [00:03:06]
03. Dance of Bacchanals - Trumpet Tune [00:02:14]
04. Prelude - 'O how happy' - Hornpipe [00:03:46]
05. Dance of the Furies [00:04:16]
06. First music [00:01:46]
07. Duet 'Lost is my quiet' [00:03:34]
08. Prelude - 'Let the soldiers rejoice' - Act tune [00:02:28]
09. Chaconne [00:02:24]
10. Second Music - Paspe - Chair dance [00:04:11]
GEORG FRIEDRICH HANDEL (1685-1759)
Concerto Grosso in G minor, Op. 6-6, HWV 324
11. Largo e affettuoso [00:02:54]
12. A tempo giusto [00:01:35]
13. Musette - Larghetto [00:04:55]
14. Allegro [00:02:42]
15. Allegro [00:02:10]
'Il duello amoroso', HWV 82 (Amarilli vezzosa)
16. Sonata: Allegro Menuetto [00:02:28]
17. Recitativo 'Amarilli vezzosa' [00:00:30]
18. Aria 'Pietoso sguardo' [00:03:50]
19. Recitativo 'Dunque tanto s'avanza' [00:00:33]
20. Aria 'Piacer che non si dona' [00:03:28]
21. Recitativo 'Si, si crudel, ti acceta' [00:00:46]
22. Aria 'Quel nocchiero' [00:02:04]
23. Recitativo 'Amarilli, Amarilli, in vano' [00:00:29]
24. Aria 'E vanità d'un cot' [00:04:33]
25. Recitativo 'Or su, gia che ostinato' [00:01:42]
26. Aria a 2 con Ritornello 'Si, si lasciami, ingrata' [00:02:02]
Freiburger Barockorchester, Gottfried von der Goltz
Recorded: January 1993, Maria Minor, Utrecht

CD04 - G.Ph. Telemann: Overtures (Suites) (74:02)

GEORG PHILIPP TELEMANN (1681-1767)
Overture in G major, TWV 55-G10, 'Bourlesque de Quixotte'
01. Ouverture [00:05:36]
02. La Reveil de Quixotte [00:02:49]
03. Son Attaque des Moulins a Vent (Tres vite) [00:01:50]
04. Ses soupirs amoureux apres la Princesse Dulcinee [00:03:12]
05. Sanche Panse berne [00:01:50]
06. Le Galope de Rosinante Celui d'Ane de Sanche Panse [00:02:20]
07. Le Couche de Quixote [00:02:52]
Overture for 2 recorders, strings and continuo in F minor
08. Ouverture [00:04:42]
09. Menuet I & II [00:02:54]
10. Rondeau [00:01:04]
11. Sarabande [00:02:04]
12. Passepied [00:01:10]
13. Plainte [00:04:43]
14. Allemande [00:01:25]
15. Chaconne [00:03:39]
16. Gigue [00:00:59]
Concerto a 7 in E minor
17. Andante [00:02:56]
18. Allegro [00:01:37]
19. Adagio [00:02:14]
20. Vivace [00:01:59]
Overture for 3 oboes, strings and continuo in D major
21. Ouverture [00:06:23]
22. Prelude [00:00:51]
23. Gigue [00:02:18]
24. Menuet I & II [00:03:21]
25. Harlequinade [00:02:06]
26. Loure [00:02:57]
27. Rondeau [00:01:30]
28. Rejouissance [00:02:28]
Freiburger Barockorchester, Gottfried von der Goltz
Recorded: December, 19-23, 1993, Maria Minor, Utrecht

CD05 - J.D. Zelenka, J.G. Pisendel: Concerti (63:50)

JAN DISMAS ZELENKA (1679-1745)
Hipocondrie à 7 in A major, ZWV 187
01. Movement 1: Allegro [00:07:56]
JOHANN GEORG PISENDEL (1687-1755)
Concerto in D major
02. Vivace [00:05:00]
03. Andante [00:03:01]
04. Andante [00:04:51]
JAN DISMAS ZELENKA
Concerto a 8 in G major, ZWV 186
05. Allegro [00:05:55]
06. Largo [00:03:37]
07. Allegro [00:06:23]
JOHANN GEORG PISENDEL
Sonata in C minor
08. Largo [00:01:22]
09. Allegro [00:02:23]
JAN DISMAS ZELENKA
Sinfonia a 8 in A minor, ZWV 189
10. Movement I [00:08:08]
11. Andante [00:03:06]
12. Capriccio: Tempo di gavotta [00:03:52]
13. Aria da Capriccio [00:05:16]
14. Menuet I & II [00:02:55]
Freiburger Barockorchester, Gottfried von der Goltz
Recorded: September 29-October 3, 1994, Maria Minor, Utrecht

CD06 - H.I.F. Biber, J.H. Schmelzer: Sonatas (74:29)

HEINRICH IGNAZ FRANZ BIBER (1644-1704)
01. Sonata No.1 a otto in C major [00:04:42]
02. Sonata No.6 a cinque in F major [00:04:42]
03. Sonata No.4 a cinque in C major [00:04:40]
JOHANN HEINRICH SCHMELZER (c.1620/23-1680)
04. Sonata a tre con organo et violone in B minor (Lamento) [00:06:40]
05. Sonata a due con basso continuo in A minor [00:04:44]
06. Lamento per la morte Ferdinandi III in B minor [00:06:43]
HEINRICH IGNAZ FRANZ BIBER
07. Sonata No.8 a cinque in G major [00:06:30]
08. Sonata No.10 a cinque in G minor [00:05:40]
09. Sonata No.7 a cinque in C major [00:05:39]
JOHANN HEINRICH SCHMELZER
10. Sonata a due con basso continuo in D minor [00:05:48]
11. Lamento a tre con basso continuo in B flat major [00:08:34]
12. Harmonia a cinque con basso continuo in B flat major [00:04:57]
HEINRICH IGNAZ FRANZ BIBER
13. Sonata No.12 a otto in C major [00:05:05]
Freiburger Barockorchester Consort
Recorded: November 21-23, 1994 & May 2-5, 1995, Utrecht, Maria Minor Church

CD07 - L.G Zavateri: Concerti da Chiesa e da Camera (teil 1) (52:05)

LORENZO GAETANO ZAVATERI (1690-1764)
Concerto primo Introducione in G major for strings and b.c.
01. Largo Spico - Allegro Assai - Allegro [00:04:18]
Concerto secondo in D major for violino obligato, strings and b.c.
02. Allegro [00:05:35]
03. Adagio [00:03:10]
04. Spirituoso [00:02:28]
Concerto terzo in C major for strings and b.c.
05. Allegro [00:02:25]
06. Andante [00:02:31]
07. Allegro assai [00:01:45]
Concerto quarto in C minor for violino obligato, strings and b.c.
08. Allegro [00:05:45]
09. Andante ma Largetto [00:03:31]
10. Allegro [00:03:00]
Concerto quinto in E major for strings and b.c.
11. Largo - Allegro ma Aperto [00:03:39]
12. Andante e Spico - Allegro [00:02:47]
Concerto sesto in A major for violino obligato, strings and b.c.
13. Allegro [00:04:20]
14. Adagio [00:02:37]
15. Vivace [00:04:08]
Freiburger Barockorchester, Gottfried von der Goltz
Recorded: August 29-September 1, 1995
November 16-19, 1995, Festsaal des Maximilian-Parks Hamm

CD08 - L.G Zavateri: Concerti da Chiesa e da Camera (teil 2) (51:13)

LORENZO GAETANO ZAVATERI
Concerto settimo Teatrale in B flat major for strings and b.c.
01. Vivace [00:02:40]
02. Andante [00:03:26]
03. Allegro [00:03:00]
Concerto ottavo in E flat major for violino obligato, strings and b.c.
04. Allegro [00:03:48]
05. Adagio [00:02:30]
06. Allegro [00:03:35]
Concerto nono Teatrale in F major for strings and b.c.
07. Alleggro a Spico [00:02:10]
08. Largetto alla francese [00:01:35]
09. Presto [00:01:42]
Concerto decimo a Pastorale in D major for 2 violini obligati, strings and b.c.
10. Grave - Allegro [00:04:33]
11. Largo - Pastorale [00:05:27]
Concerto undecimo in G minor for strings and b.c.
12. Spirituoso [00:02:01]
13. Andantino - Allegro [00:02:19]
Concerto duodecimo a Tempesta di Mare in G major for violino obligato and b.c.
14. Allegro [00:04:50]
15. Adagio [00:02:37]
16. Allegro [00:04:55]
Freiburger Barockorchester, Gottfried von der Goltz
Recorded: August 29-September 1, 1995
November 16-19, 1995, Festsaal des Maximilian-Parks Hamm

CD09 - C.P.E. Bach: Hamburger Sinfonien, Concerti (70:34)

CARL PHILIPP EMANUEL BACH (1714-1788)
Symphony No.3 in C major, Wq182-3 (H 659)
01. Allegro assai [00:02:46]
02. Adagio [00:03:25]
03. Allegretto [00:05:36]
Concerto for harpsichord, strings and b.c. in C minor Wq43-4 (H 474)
04. Allegro assai [00:03:17]
05. Poco Adagio [00:01:55]
06. Tempo di Menuetto [00:02:15]
07. Allegro assai [00:04:31]
Symphony No.4 in A major, Wq182-4 (H 660)
08. Allegro ma non troppo [00:04:31]
09. Largo et Innocemente [00:03:49]
10. Allegro assai [00:04:23]
Concerto for oboe, strings and b.c. in E flat major, Wq165 (H 468)
11. Allegro [00:06:31]
12. Adagio [00:09:14]
13. Allegro ma non troppo [00:07:19]
Symphony No. 5 in B minor, Wq182-5 (H 661)
14. Allegretto [00:03:58]
15. Larghetto [00:03:13]
16. Presto [00:03:44]
Freiburger Barockorchoster, Thomas Hengelbrock
Recorded: June 25-30, 1990, Schloss Kirchheim, Cedernsaal (Germany)

CD10 - H. Purcell: Instrumental Music (75:52)

HENRY PURCELL
The Fairy Queen, Z.629
01. Prelude in G - Hornpipe in G [00:02:31]
02. Air in B - Rondeau in B [00:02:23]
03. Overture in D [00:01:19]
04. Prelude in C - Entry Dance in C - Dance for the Fairies in G [00:03:35]
05. Overture in G - Air in G - Prelude in G [00:05:33]
06. Hornpipe in D [00:01:50]
07. Symphony [00:06:27]
Dido and Aeneas, Z.626
08. Overture in C - Air in C - The Triumphing Dance in C [00:07:04]
09. Ritornelle in D - Air - Dance in D [00:03:04]
10. Echo Dance of Furies in F [00:00:50]
11. The Sailors' Dance in B [00:00:51]
12. The Witches' Dance in B [00:01:38]
13. Chacony [00:04:25]
King Arthur, Z.628
14. Overture in D - Air in D - Overture in D [00:05:32]
15. Symphony in G - Air in G - Hornpipe in G [00:03:59]
16. Air in D - Air in A - Song Tune in A [00:03:37]
17. Symphony in C - Trumpet Tune in C [00:02:58]
18. Frost Dance in C - Hornpipe in G [00:02:33]
19. Passacaglia in G [00:03:19]
Abdelazer, Z.570
20. Overture in D [00:03:06]
21. Rondeau in D [00:01:25]
22. Aire in D - Aire in G [00:02:29]
23. Minuet in G - Aire in G [00:02:03]
24. Jigg in G [00:01:23]
25. Hornpipe in B - Aire in G [00:01:46]
Freiburger Barockorchester, Thomas Hengelbrock
Recorded: March 17-21, 1991, Arlesheim, Ev.-Ref. Kirche

LOG EAC

CD 01

Exact Audio Copy V1.0 beta 1 from 15. November 2010
EAC extraction logfile from 1. June 2012, 19:59
Freiburger Barockorchester - Thomas Hengelbrock / Locatelli - 6 Introduttioni Teatrali Op.4 & Sonatas
Used drive : PIONEER DVD-RW DVR-218L Adapter: 1 ID: 0
Read mode : Secure
Utilize accurate stream : Yes
Defeat audio cache : Yes
Make use of C2 pointers : No
Read offset correction : 6
Overread into Lead-In and Lead-Out : No
Fill up missing offset samples with silence : Yes
Delete leading and trailing silent blocks : No
Null samples used in CRC calculations : Yes
Used interface : Native Win32 interface for Win NT & 2000
Used output format : User Defined Encoder
Selected bitrate : 192 kBit/s
Quality : High
Add ID3 tag : No
Command line compressor : C:\Program Files\Exact Audio Copy\Flac\flac.exe
Additional command line options : -T "DATE=%y" -T "GENRE=%m" -8 -V %s
TOC of the extracted CD
Track | Start | Length | Start sector | End sector
---------------------------------------------------------
1 | 0:00.00 | 5:47.20 | 0 | 26044
2 | 5:47.20 | 6:57.62 | 26045 | 57381
3 | 12:45.07 | 2:13.73 | 57382 | 67429
4 | 14:59.05 | 3:29.15 | 67430 | 83119
5 | 18:28.20 | 4:06.50 | 83120 | 101619
6 | 22:34.70 | 5:45.07 | 101620 | 127501
7 | 28:20.02 | 4:33.53 | 127502 | 148029
8 | 32:53.55 | 5:39.50 | 148030 | 173504
9 | 38:33.30 | 3:00.55 | 173505 | 187059
10 | 41:34.10 | 1:41.35 | 187060 | 194669
11 | 43:15.45 | 6:56.05 | 194670 | 225874
12 | 50:11.50 | 3:58.72 | 225875 | 243796
13 | 54:10.47 | 1:39.43 | 243797 | 251264
14 | 55:50.15 | 4:39.15 | 251265 | 272204
15 | 60:29.30 | 5:49.50 | 272205 | 298429
Range status and errors
Selected range
Filename C:\Locatelli - 6 Introduttioni Teatrali Op.4 & Sonatas.wav
Peak level 90.4 %
Extraction speed 0.1 X
Range quality 100.0 %
Test CRC FEFD7083
Copy CRC FEFD7083
Copy OK
No errors occurred
AccurateRip summary
Track 1 accurately ripped (confidence 2) [8B3DB49C]
Track 2 cannot be verified as accurate (confidence 4) [8B022E80], AccurateRip returned [1BF99986]
Track 3 accurately ripped (confidence 2) [56FA49A7]
Track 4 accurately ripped (confidence 2) [FF9EA7D9]
Track 5 accurately ripped (confidence 2) [B891DBED]
Track 6 accurately ripped (confidence 2) [2252BBC8]
Track 7 accurately ripped (confidence 2) [88D274AB]
Track 8 accurately ripped (confidence 2) [E9BA9F07]
Track 9 accurately ripped (confidence 2) [CD9BADD0]
Track 10 accurately ripped (confidence 2) [406FD906]
Track 11 accurately ripped (confidence 2) [08C4BD8C]
Track 12 accurately ripped (confidence 2) [4C0D955B]
Track 13 accurately ripped (confidence 2) [E5E70A6C]
Track 14 accurately ripped (confidence 2) [4564B364]
Track 15 accurately ripped (confidence 2) [70A93C3F]
14 track(s) accurately ripped
1 track(s) could not be verified as accurate
Some tracks could not be verified as accurate
End of status report
==== Log checksum EA98D2FE6C5CC61EF1380D4DE2CB8E8C1BDB6389E7D467A61EB075F5222207D0 ====

CD 02

Exact Audio Copy V1.0 beta 1 from 15. November 2010
EAC extraction logfile from 1. June 2012, 21:33
Freiburger Barockorchester - Thomas Hengelbrock / Bach J.S., Vivaldi - Overtures, Sinfonias, Concerti
Used drive : PIONEER DVD-RW DVR-218L Adapter: 1 ID: 0
Read mode : Secure
Utilize accurate stream : Yes
Defeat audio cache : Yes
Make use of C2 pointers : No
Read offset correction : 6
Overread into Lead-In and Lead-Out : No
Fill up missing offset samples with silence : Yes
Delete leading and trailing silent blocks : No
Null samples used in CRC calculations : Yes
Used interface : Native Win32 interface for Win NT & 2000
Used output format : User Defined Encoder
Selected bitrate : 192 kBit/s
Quality : High
Add ID3 tag : No
Command line compressor : C:\Program Files\Exact Audio Copy\Flac\flac.exe
Additional command line options : -T "DATE=%y" -T "GENRE=%m" -8 -V %s
TOC of the extracted CD
Track | Start | Length | Start sector | End sector
---------------------------------------------------------
1 | 0:00.00 | 5:45.02 | 0 | 25876
2 | 5:45.02 | 11:54.53 | 25877 | 79479
3 | 17:39.55 | 2:55.00 | 79480 | 92604
4 | 20:34.55 | 2:00.20 | 92605 | 101624
5 | 22:35.00 | 2:25.52 | 101625 | 112551
6 | 25:00.52 | 2:27.13 | 112552 | 123589
7 | 27:27.65 | 1:59.00 | 123590 | 132514
8 | 29:26.65 | 3:11.20 | 132515 | 146859
9 | 32:38.10 | 6:41.40 | 146860 | 176974
10 | 39:19.50 | 3:29.12 | 176975 | 192661
11 | 42:48.62 | 2:05.50 | 192662 | 202086
12 | 44:54.37 | 3:06.53 | 202087 | 216089
13 | 48:01.15 | 6:03.52 | 216090 | 243366
14 | 54:04.67 | 6:10.60 | 243367 | 271176
15 | 60:15.52 | 4:05.50 | 271177 | 289601
Range status and errors
Selected range
Filename C:\Bach J.S., Vivaldi - Overtures, Sinfonias, Concerti.wav
Peak level 99.0 %
Extraction speed 0.1 X
Range quality 100.0 %
Test CRC 6130D531
Copy CRC 6130D531
Copy OK
No errors occurred
AccurateRip summary
Track 1 cannot be verified as accurate (confidence 48) [12D30D85], AccurateRip returned [BE24E425]
Track 2 cannot be verified as accurate (confidence 48) [38C162C7], AccurateRip returned [6C40D96F]
Track 3 cannot be verified as accurate (confidence 48) [D791256D], AccurateRip returned [1DE2F0B5]
Track 4 cannot be verified as accurate (confidence 48) [07BE5073], AccurateRip returned [476BAAB3]
Track 5 cannot be verified as accurate (confidence 48) [2801AFF4], AccurateRip returned [A64BCD54]
Track 6 cannot be verified as accurate (confidence 48) [3667CBC3], AccurateRip returned [07606EA3]
Track 7 cannot be verified as accurate (confidence 48) [EC44A3C7], AccurateRip returned [7C272AC1]
Track 8 cannot be verified as accurate (confidence 48) [A436840B], AccurateRip returned [91FACDDC]
Track 9 cannot be verified as accurate (confidence 48) [02112697], AccurateRip returned [065D350C]
Track 10 cannot be verified as accurate (confidence 48) [CA968171], AccurateRip returned [57C63289]
Track 11 cannot be verified as accurate (confidence 48) [3A72B107], AccurateRip returned [DF1D36C3]
Track 12 cannot be verified as accurate (confidence 48) [30E0163A], AccurateRip returned [50828621]
Track 13 cannot be verified as accurate (confidence 48) [A4F04A0C], AccurateRip returned [5FFAB4B4]
Track 14 cannot be verified as accurate (confidence 48) [05558BAD], AccurateRip returned [D56EB9BE]
Track 15 cannot be verified as accurate (confidence 48) [A5E9EA86], AccurateRip returned [F0E6CFDD]
No tracks could be verified as accurate
You may have a different pressing from the one(s) in the database
End of status report
==== Log checksum 3B2EF4E64659310E2DBD1CFD7D5F8095455288BFAA554196157912699DCF9D0B ====

CD 03

Exact Audio Copy V1.0 beta 1 from 15. November 2010
EAC extraction logfile from 2. June 2012, 12:42
N.Argenta, M.Chance, G. von der Goltz, Freiburger Barockorchester / Purcell - Dioclesian Suite, Händel - Concerto Grosso op.6 No.6, Il Duello Amoroso
Used drive : PIONEER DVD-RW DVR-218L Adapter: 1 ID: 0
Read mode : Secure
Utilize accurate stream : Yes
Defeat audio cache : Yes
Make use of C2 pointers : No
Read offset correction : 6
Overread into Lead-In and Lead-Out : No
Fill up missing offset samples with silence : Yes
Delete leading and trailing silent blocks : No
Null samples used in CRC calculations : Yes
Used interface : Native Win32 interface for Win NT & 2000
Used output format : User Defined Encoder
Selected bitrate : 192 kBit/s
Quality : High
Add ID3 tag : No
Command line compressor : C:\Program Files\Exact Audio Copy\Flac\flac.exe
Additional command line options : -T "DATE=%y" -T "GENRE=%m" -8 -V %s
TOC of the extracted CD
Track | Start | Length | Start sector | End sector
---------------------------------------------------------
1 | 0:00.00 | 4:11.67 | 0 | 18891
2 | 4:11.67 | 3:06.53 | 18892 | 32894
3 | 7:18.45 | 2:14.42 | 32895 | 42986
4 | 9:33.12 | 3:45.73 | 42987 | 59934
5 | 13:19.10 | 4:16.47 | 59935 | 79181
6 | 17:35.57 | 1:46.40 | 79182 | 87171
7 | 19:22.22 | 3:34.15 | 87172 | 103236
8 | 22:56.37 | 2:28.55 | 103237 | 114391
9 | 25:25.17 | 2:24.25 | 114392 | 125216
10 | 27:49.42 | 4:11.50 | 125217 | 144091
11 | 32:01.17 | 2:54.33 | 144092 | 157174
12 | 34:55.50 | 1:35.12 | 157175 | 164311
13 | 36:30.62 | 4:55.15 | 164312 | 186451
14 | 41:26.02 | 2:42.28 | 186452 | 198629
15 | 44:08.30 | 2:10.45 | 198630 | 208424
16 | 46:19.00 | 2:28.35 | 208425 | 219559
17 | 48:47.35 | 0:30.00 | 219560 | 221809
18 | 49:17.35 | 3:50.15 | 221810 | 239074
19 | 53:07.50 | 0:33.42 | 239075 | 241591
20 | 53:41.17 | 3:28.53 | 241592 | 257244
21 | 57:09.70 | 0:46.35 | 257245 | 260729
22 | 57:56.30 | 2:04.57 | 260730 | 270086
23 | 60:01.12 | 0:29.68 | 270087 | 272329
24 | 60:31.05 | 4:33.60 | 272330 | 292864
25 | 65:04.65 | 1:41.72 | 292865 | 300511
26 | 66:46.62 | 2:02.30 | 300512 | 309691
Range status and errors
Selected range
Filename C:\Purcell - Dioclesian Suite, Händel - Concerto Grosso op.6 No.6, Il Duello Amoroso.wav
Peak level 96.2 %
Extraction speed 0.0 X
Range quality 99.9 %
Test CRC 9D818C53
Copy CRC 9D818C53
Copy OK
No errors occurred
AccurateRip summary
Track 1 cannot be verified as accurate (confidence 46) [63E8FBF7], AccurateRip returned [2D9E8657]
Track 2 cannot be verified as accurate (confidence 47) [1A031CE6], AccurateRip returned [C1134E59]
Track 3 cannot be verified as accurate (confidence 47) [CCDE1D0F], AccurateRip returned [142D2480]
Track 4 cannot be verified as accurate (confidence 47) [8A1CA284], AccurateRip returned [99BC63F3]
Track 5 cannot be verified as accurate (confidence 47) [45D06040], AccurateRip returned [82A15882]
Track 6 cannot be verified as accurate (confidence 47) [60C921EF], AccurateRip returned [9BE5B3AD]
Track 7 cannot be verified as accurate (confidence 47) [65C0AFA7], AccurateRip returned [B3BF56C0]
Track 8 cannot be verified as accurate (confidence 47) [64CD1801], AccurateRip returned [354D451B]
Track 9 cannot be verified as accurate (confidence 47) [96289310], AccurateRip returned [BA394CE9]
Track 10 cannot be verified as accurate (confidence 46) [1A4F1406], AccurateRip returned [767B8726]
Track 11 cannot be verified as accurate (confidence 46) [5D11C71A], AccurateRip returned [5DA2EE3B]
Track 12 cannot be verified as accurate (confidence 47) [65696C0F], AccurateRip returned [5696906C]
Track 13 cannot be verified as accurate (confidence 47) [C98E5211], AccurateRip returned [243C70F9]
Track 14 cannot be verified as accurate (confidence 47) [215C296F], AccurateRip returned [27E38ECE]
Track 15 cannot be verified as accurate (confidence 47) [9E0FB5C0], AccurateRip returned [C349722D]
Track 16 cannot be verified as accurate (confidence 47) [660FCF22], AccurateRip returned [44BAF35D]
Track 17 cannot be verified as accurate (confidence 47) [AB1B0255], AccurateRip returned [E5EEF3DA]
Track 18 cannot be verified as accurate (confidence 47) [CD0A6777], AccurateRip returned [D8DDCB01]
Track 19 cannot be verified as accurate (confidence 47) [8BF51C8B], AccurateRip returned [76C6FB65]
Track 20 cannot be verified as accurate (confidence 47) [EDC435EC], AccurateRip returned [4B53DA4B]
Track 21 cannot be verified as accurate (confidence 47) [FEFDACB8], AccurateRip returned [EF4F08EE]
Track 22 cannot be verified as accurate (confidence 47) [3248C9EF], AccurateRip returned [E2A7945D]
Track 23 cannot be verified as accurate (confidence 47) [11BC144C], AccurateRip returned [25E147AE]
Track 24 cannot be verified as accurate (confidence 47) [D3497701], AccurateRip returned [64F017D9]
Track 25 cannot be verified as accurate (confidence 44) [8B1F7E73], AccurateRip returned [A526B425]
Track 26 cannot be verified as accurate (confidence 47) [45331FF8], AccurateRip returned [91F37E2C]
No tracks could be verified as accurate
You may have a different pressing from the one(s) in the database
End of status report
==== Log checksum 763E5621F46DF85038FEEB6E739AD9ECBF79E6FA9F9B937F9BCA15F41ED5604C ====

CD 04

Exact Audio Copy V1.0 beta 1 from 15. November 2010
EAC extraction logfile from 2. June 2012, 17:35
Gottfried von der Goltz - Freiburger Barockorchester / Telemann - Suites (Overtures); Concerto
Used drive : PIONEER DVD-RW DVR-218L Adapter: 1 ID: 0
Read mode : Secure
Utilize accurate stream : Yes
Defeat audio cache : Yes
Make use of C2 pointers : No
Read offset correction : 6
Overread into Lead-In and Lead-Out : No
Fill up missing offset samples with silence : Yes
Delete leading and trailing silent blocks : No
Null samples used in CRC calculations : Yes
Used interface : Native Win32 interface for Win NT & 2000
Used output format : User Defined Encoder
Selected bitrate : 192 kBit/s
Quality : High
Add ID3 tag : No
Command line compressor : C:\Program Files\Exact Audio Copy\Flac\flac.exe
Additional command line options : -T "DATE=%y" -T "GENRE=%m" -8 -V %s
TOC of the extracted CD
Track | Start | Length | Start sector | End sector
---------------------------------------------------------
1 | 0:00.00 | 5:36.07 | 0 | 25206
2 | 5:36.07 | 2:49.60 | 25207 | 37941
3 | 8:25.67 | 1:49.73 | 37942 | 46189
4 | 10:15.65 | 3:12.70 | 46190 | 60659
5 | 13:28.60 | 1:50.22 | 60660 | 68931
6 | 15:19.07 | 2:20.08 | 68932 | 79439
7 | 17:39.15 | 2:52.45 | 79440 | 92384
8 | 20:31.60 | 4:42.62 | 92385 | 113596
9 | 25:14.47 | 2:54.15 | 113597 | 126661
10 | 28:08.62 | 1:04.15 | 126662 | 131476
11 | 29:13.02 | 2:04.70 | 131477 | 140846
12 | 31:17.72 | 1:10.43 | 140847 | 146139
13 | 32:28.40 | 4:43.40 | 146140 | 167404
14 | 37:12.05 | 1:25.62 | 167405 | 173841
15 | 38:37.67 | 3:39.33 | 173842 | 190299
16 | 42:17.25 | 0:59.45 | 190300 | 194769
17 | 43:16.70 | 2:56.12 | 194770 | 207981
18 | 46:13.07 | 1:37.45 | 207982 | 215301
19 | 47:50.52 | 2:14.48 | 215302 | 225399
20 | 50:05.25 | 1:59.25 | 225400 | 234349
21 | 52:04.50 | 6:23.70 | 234350 | 263144
22 | 58:28.45 | 0:51.35 | 263145 | 267004
23 | 59:20.05 | 2:18.30 | 267005 | 277384
24 | 61:38.35 | 3:21.02 | 277385 | 292461
25 | 64:59.37 | 2:06.35 | 292462 | 301946
26 | 67:05.72 | 2:57.58 | 301947 | 315279
27 | 70:03.55 | 1:30.32 | 315280 | 322061
28 | 71:34.12 | 2:28.63 | 322062 | 333224
Range status and errors
Selected range
Filename C:\Telemann - Suites (Overtures); Concerto.wav
Peak level 97.8 %
Extraction speed 0.0 X
Range quality 99.9 %
Test CRC 615DA4BC
Copy CRC 615DA4BC
Copy OK
No errors occurred
AccurateRip summary
Track 1 accurately ripped (confidence 2) [8BE0CD6C]
Track 2 accurately ripped (confidence 2) [4C3D9539]
Track 3 accurately ripped (confidence 2) [A57BEF12]
Track 4 accurately ripped (confidence 2) [7D7A27B2]
Track 5 accurately ripped (confidence 2) [58F73753]
Track 6 accurately ripped (confidence 2) [1D5A1FEF]
Track 7 accurately ripped (confidence 2) [1F8E6A91]
Track 8 accurately ripped (confidence 2) [383018E2]
Track 9 accurately ripped (confidence 2) [2F0DB3F8]
Track 10 accurately ripped (confidence 2) [BAC67554]
Track 11 accurately ripped (confidence 2) [F96B90AD]
Track 12 accurately ripped (confidence 2) [7A63ADC8]
Track 13 accurately ripped (confidence 2) [D368BF4E]
Track 14 accurately ripped (confidence 2) [D7478595]
Track 15 accurately ripped (confidence 2) [45F64D64]
Track 16 accurately ripped (confidence 2) [1C2F4712]
Track 17 accurately ripped (confidence 2) [159B860A]
Track 18 accurately ripped (confidence 2) [F7B8D373]
Track 19 accurately ripped (confidence 2) [7A866D8B]
Track 20 accurately ripped (confidence 2) [D48EAAD5]
Track 21 accurately ripped (confidence 2) [D92DC333]
Track 22 accurately ripped (confidence 2) [15A42702]
Track 23 accurately ripped (confidence 2) [3CDC70F1]
Track 24 accurately ripped (confidence 2) [B1FCB558]
Track 25 accurately ripped (confidence 2) [0F0F853D]
Track 26 accurately ripped (confidence 2) [FAF76312]
Track 27 accurately ripped (confidence 2) [DB87F02A]
Track 28 accurately ripped (confidence 2) [86845CE4]
All tracks accurately ripped
End of status report
==== Log checksum 7FD9B79D502499E3475DFA38A59D914F00C179D66F0F2AAD1A74F7ACF16CA89C ====

CD 05

Exact Audio Copy V1.0 beta 1 from 15. November 2010
EAC extraction logfile from 3. June 2012, 14:13
Gottfried Von Der Goltz - Freiburger Barockorchester / Zelenka, Pisendel - Concerti et al.
Used drive : PIONEER DVD-RW DVR-218L Adapter: 1 ID: 0
Read mode : Secure
Utilize accurate stream : Yes
Defeat audio cache : Yes
Make use of C2 pointers : No
Read offset correction : 6
Overread into Lead-In and Lead-Out : No
Fill up missing offset samples with silence : Yes
Delete leading and trailing silent blocks : No
Null samples used in CRC calculations : Yes
Used interface : Native Win32 interface for Win NT & 2000
Used output format : User Defined Encoder
Selected bitrate : 192 kBit/s
Quality : High
Add ID3 tag : No
Command line compressor : C:\Program Files\Exact Audio Copy\Flac\flac.exe
Additional command line options : -T "DATE=%y" -T "GENRE=%m" -8 -V %s
TOC of the extracted CD
Track | Start | Length | Start sector | End sector
---------------------------------------------------------
1 | 0:00.00 | 7:56.57 | 0 | 35756
2 | 7:56.57 | 5:00.68 | 35757 | 58324
3 | 12:57.50 | 3:01.00 | 58325 | 71899
4 | 15:58.50 | 4:51.37 | 71900 | 93761
5 | 20:50.12 | 5:55.50 | 93762 | 120436
6 | 26:45.62 | 3:37.25 | 120437 | 136736
7 | 30:23.12 | 6:23.70 | 136737 | 165531
8 | 36:47.07 | 1:22.10 | 165532 | 171691
9 | 38:09.17 | 2:22.73 | 171692 | 182414
10 | 40:32.15 | 8:08.07 | 182415 | 219021
11 | 48:40.22 | 3:06.53 | 219022 | 233024
12 | 51:47.00 | 3:52.05 | 233025 | 250429
13 | 55:39.05 | 5:16.62 | 250430 | 274191
14 | 60:55.67 | 2:55.30 | 274192 | 287346
Range status and errors
Selected range
Filename C:\Zelenka, Pisendel - Concerti et al..wav
Peak level 91.9 %
Extraction speed 0.0 X
Range quality 100.0 %
Test CRC FC85260C
Copy CRC FC85260C
Copy OK
No errors occurred
AccurateRip summary
Track 1 accurately ripped (confidence 2) [49FA63A9]
Track 2 accurately ripped (confidence 2) [DACD4108]
Track 3 accurately ripped (confidence 2) [F1938392]
Track 4 accurately ripped (confidence 2) [B1BAF5D9]
Track 5 cannot be verified as accurate (confidence 50) [5DF500C6], AccurateRip returned [3E66BCAF]
Track 6 accurately ripped (confidence 2) [0FE39CAB]
Track 7 accurately ripped (confidence 2) [B49CCD56]
Track 8 accurately ripped (confidence 2) [E2181251]
Track 9 accurately ripped (confidence 2) [1A07A1E9]
Track 10 accurately ripped (confidence 2) [71511B09]
Track 11 accurately ripped (confidence 2) [63C8CF71]
Track 12 accurately ripped (confidence 2) [58208C16]
Track 13 accurately ripped (confidence 2) [86D08CDE]
Track 14 accurately ripped (confidence 2) [281912FE]
13 track(s) accurately ripped
1 track(s) could not be verified as accurate
Some tracks could not be verified as accurate
End of status report
==== Log checksum 118C1563D2631DD63DB5D7EFDE5A0CA588FACB26124A3494D9A2BDA334E91D4B ====

CD 06

Exact Audio Copy V1.0 beta 1 from 15. November 2010
EAC extraction logfile from 6. June 2012, 21:09
Freiburger Barockorchester Consort / Biber, Schmelzer - Sonatas
Used drive : PIONEER DVD-RW DVR-218L Adapter: 1 ID: 0
Read mode : Secure
Utilize accurate stream : Yes
Defeat audio cache : Yes
Make use of C2 pointers : No
Read offset correction : 6
Overread into Lead-In and Lead-Out : No
Fill up missing offset samples with silence : Yes
Delete leading and trailing silent blocks : No
Null samples used in CRC calculations : Yes
Used interface : Native Win32 interface for Win NT & 2000
Used output format : User Defined Encoder
Selected bitrate : 192 kBit/s
Quality : High
Add ID3 tag : No
Command line compressor : C:\Program Files\Exact Audio Copy\Flac\flac.exe
Additional command line options : -T "DATE=%y" -T "GENRE=%m" -8 -V %s
TOC of the extracted CD
Track | Start | Length | Start sector | End sector
---------------------------------------------------------
1 | 0:00.00 | 4:42.20 | 0 | 21169
2 | 4:42.20 | 4:42.05 | 21170 | 42324
3 | 9:24.25 | 4:40.40 | 42325 | 63364
4 | 14:04.65 | 6:40.27 | 63365 | 93391
5 | 20:45.17 | 4:44.33 | 93392 | 114724
6 | 25:29.50 | 6:43.45 | 114725 | 144994
7 | 32:13.20 | 6:30.20 | 144995 | 174264
8 | 38:43.40 | 5:40.55 | 174265 | 199819
9 | 44:24.20 | 5:39.45 | 199820 | 225289
10 | 50:03.65 | 5:48.02 | 225290 | 251391
11 | 55:51.67 | 8:34.28 | 251392 | 289969
12 | 64:26.20 | 4:57.70 | 289970 | 312314
13 | 69:24.15 | 5:05.60 | 312315 | 335249
Range status and errors
Selected range
Filename C:\Biber, Schmelzer - Sonatas.wav
Peak level 88.0 %
Extraction speed 0.1 X
Range quality 100.0 %
Test CRC AB2BCAAB
Copy CRC AB2BCAAB
Copy OK
No errors occurred
AccurateRip summary
Track 1 cannot be verified as accurate (confidence 4) [B6026174], AccurateRip returned [C7753DB0]
Track 2 cannot be verified as accurate (confidence 4) [FF8471E3], AccurateRip returned [61C0014E]
Track 3 cannot be verified as accurate (confidence 3) [C127F968], AccurateRip returned [F79B05EB]
Track 4 cannot be verified as accurate (confidence 4) [E8D5030F], AccurateRip returned [EB7FE61E]
Track 5 cannot be verified as accurate (confidence 4) [4A316FEF], AccurateRip returned [32ABD384]
Track 6 cannot be verified as accurate (confidence 4) [FF445C8F], AccurateRip returned [D6070B9D]
Track 7 cannot be verified as accurate (confidence 3) [E3AB8A05], AccurateRip returned [D7F493FE]
Track 8 cannot be verified as accurate (confidence 4) [0CAE0025], AccurateRip returned [645060DA]
Track 9 cannot be verified as accurate (confidence 4) [D2C611B5], AccurateRip returned [26CAC161]
Track 10 cannot be verified as accurate (confidence 4) [4CE8C02C], AccurateRip returned [63CB8E2E]
Track 11 cannot be verified as accurate (confidence 3) [66345D72], AccurateRip returned [90D22C3E]
Track 12 cannot be verified as accurate (confidence 4) [42511DF4], AccurateRip returned [B5B6E83B]
Track 13 cannot be verified as accurate (confidence 4) [333EB214], AccurateRip returned [16141FE9]
No tracks could be verified as accurate
You may have a different pressing from the one(s) in the database
End of status report
==== Log checksum D89AA4F7FCF2D21D653C5530910DCF10486AAF1D4FEFE3E1D98009AC6E3E1F84 ====

CD 07

Exact Audio Copy V1.0 beta 1 from 15. November 2010
EAC extraction logfile from 7. June 2012, 14:13
Gottfried von der Goltz - Freiburger Barockorchester / Zavateri - Concerti da Chiesa e da Camera CD1
Used drive : PIONEER DVD-RW DVR-218L Adapter: 1 ID: 0
Read mode : Secure
Utilize accurate stream : Yes
Defeat audio cache : Yes
Make use of C2 pointers : No
Read offset correction : 6
Overread into Lead-In and Lead-Out : No
Fill up missing offset samples with silence : Yes
Delete leading and trailing silent blocks : No
Null samples used in CRC calculations : Yes
Used interface : Native Win32 interface for Win NT & 2000
Used output format : User Defined Encoder
Selected bitrate : 192 kBit/s
Quality : High
Add ID3 tag : No
Command line compressor : C:\Program Files\Exact Audio Copy\Flac\flac.exe
Additional command line options : -T "DATE=%y" -T "GENRE=%m" -8 -V %s
TOC of the extracted CD
Track | Start | Length | Start sector | End sector
---------------------------------------------------------
1 | 0:00.00 | 4:18.40 | 0 | 19389
2 | 4:18.40 | 5:35.52 | 19390 | 44566
3 | 9:54.17 | 3:10.68 | 44567 | 58884
4 | 13:05.10 | 2:28.15 | 58885 | 69999
5 | 15:33.25 | 2:25.50 | 70000 | 80924
6 | 17:59.00 | 2:31.57 | 80925 | 92306
7 | 20:30.57 | 1:45.30 | 92307 | 100211
8 | 22:16.12 | 5:45.40 | 100212 | 126126
9 | 28:01.52 | 3:30.73 | 126127 | 141949
10 | 31:32.50 | 3:00.35 | 141950 | 155484
11 | 34:33.10 | 3:39.02 | 155485 | 171911
12 | 38:12.12 | 2:47.63 | 171912 | 184499
13 | 41:00.00 | 4:20.12 | 184500 | 204011
14 | 45:20.12 | 2:37.33 | 204012 | 215819
15 | 47:57.45 | 4:08.37 | 215820 | 234456
Range status and errors
Selected range
Filename C:\Zavateri - Concerti da Chiesa e da Camera CD1.wav
Peak level 67.5 %
Extraction speed 0.1 X
Range quality 100.0 %
Test CRC 5F89E08B
Copy CRC 5F89E08B
Copy OK
No errors occurred
AccurateRip summary
Track 1 cannot be verified as accurate (confidence 6) [55FA0170], AccurateRip returned [10858181]
Track 2 cannot be verified as accurate (confidence 6) [7F74A5CE], AccurateRip returned [CB855863]
Track 3 cannot be verified as accurate (confidence 6) [93A9AD07], AccurateRip returned [19FD6D7E]
Track 4 cannot be verified as accurate (confidence 6) [013D9493], AccurateRip returned [9FD66219]
Track 5 cannot be verified as accurate (confidence 6) [1AED565E], AccurateRip returned [04B39DD7]
Track 6 cannot be verified as accurate (confidence 6) [8A3ED8BF], AccurateRip returned [C17E5A54]
Track 7 cannot be verified as accurate (confidence 6) [E09876E2], AccurateRip returned [9A92C0C7]
Track 8 cannot be verified as accurate (confidence 6) [BBE52114], AccurateRip returned [939DB0A1]
Track 9 cannot be verified as accurate (confidence 6) [5220A144], AccurateRip returned [39FC84F7]
Track 10 cannot be verified as accurate (confidence 6) [1EE59945], AccurateRip returned [D4304020]
Track 11 cannot be verified as accurate (confidence 6) [4EA41352], AccurateRip returned [FA1A3147]
Track 12 cannot be verified as accurate (confidence 6) [BAA026D3], AccurateRip returned [EAB26329]
Track 13 cannot be verified as accurate (confidence 6) [40AEF10F], AccurateRip returned [CB42C3A7]
Track 14 cannot be verified as accurate (confidence 6) [9725A0B2], AccurateRip returned [9C3C4F61]
Track 15 cannot be verified as accurate (confidence 5) [A0C6F8B5], AccurateRip returned [20B40116]
No tracks could be verified as accurate
You may have a different pressing from the one(s) in the database
End of status report
==== Log checksum 04886AA87B0CE4E42EA06498A52CC6DBAE86E1DB16B7A115F0CCE0ADC9B4B4AF ====

CD 08

Exact Audio Copy V1.0 beta 1 from 15. November 2010
EAC extraction logfile from 7. June 2012, 15:45
Gottfried von der Goltz - Freiburger Barockorchester / Zavateri - Concerti da Chiesa e da Camera CD2
Used drive : PIONEER DVD-RW DVR-218L Adapter: 1 ID: 0
Read mode : Secure
Utilize accurate stream : Yes
Defeat audio cache : Yes
Make use of C2 pointers : No
Read offset correction : 6
Overread into Lead-In and Lead-Out : No
Fill up missing offset samples with silence : Yes
Delete leading and trailing silent blocks : No
Null samples used in CRC calculations : Yes
Used interface : Native Win32 interface for Win NT & 2000
Used output format : User Defined Encoder
Selected bitrate : 192 kBit/s
Quality : High
Add ID3 tag : No
Command line compressor : C:\Program Files\Exact Audio Copy\Flac\flac.exe
Additional command line options : -T "DATE=%y" -T "GENRE=%m" -8 -V %s
TOC of the extracted CD
Track | Start | Length | Start sector | End sector
---------------------------------------------------------
1 | 0:00.00 | 2:40.35 | 0 | 12034
2 | 2:40.35 | 3:26.72 | 12035 | 27556
3 | 6:07.32 | 3:00.18 | 27557 | 41074
4 | 9:07.50 | 3:48.37 | 41075 | 58211
5 | 12:56.12 | 2:30.13 | 58212 | 69474
6 | 15:26.25 | 3:35.20 | 69475 | 85619
7 | 19:01.45 | 2:10.65 | 85620 | 95434
8 | 21:12.35 | 1:34.72 | 95435 | 102556
9 | 22:47.32 | 1:42.35 | 102557 | 110241
10 | 24:29.67 | 4:33.05 | 110242 | 130721
11 | 29:02.72 | 5:27.45 | 130722 | 155291
12 | 34:30.42 | 2:01.30 | 155292 | 164396
13 | 36:31.72 | 2:19.60 | 164397 | 174881
14 | 38:51.57 | 4:50.28 | 174882 | 196659
15 | 43:42.10 | 2:37.50 | 196660 | 208484
16 | 46:19.60 | 4:54.72 | 208485 | 230606
Range status and errors
Selected range
Filename C:\Zavateri - Concerti da Chiesa e da Camera CD2.wav
Peak level 86.2 %
Extraction speed 0.1 X
Range quality 100.0 %
Test CRC 40CD0B19
Copy CRC 40CD0B19
Copy OK
No errors occurred
AccurateRip summary
Track 1 cannot be verified as accurate (confidence 5) [E7DFC73A], AccurateRip returned [7E6E4467]
Track 2 cannot be verified as accurate (confidence 5) [735F7A32], AccurateRip returned [3A3E990F]
Track 3 cannot be verified as accurate (confidence 5) [7C0735A7], AccurateRip returned [7713F8C1]
Track 4 cannot be verified as accurate (confidence 5) [2E0FD4D6], AccurateRip returned [DC0F13CE]
Track 5 cannot be verified as accurate (confidence 5) [3BA4ABAC], AccurateRip returned [EDF7ABFE]
Track 6 cannot be verified as accurate (confidence 5) [DCB2F0C9], AccurateRip returned [48FF6181]
Track 7 cannot be verified as accurate (confidence 5) [6BD74210], AccurateRip returned [F332A0DD]
Track 8 cannot be verified as accurate (confidence 5) [DC9D454D], AccurateRip returned [69688518]
Track 9 cannot be verified as accurate (confidence 5) [5734E156], AccurateRip returned [57EF0929]
Track 10 cannot be verified as accurate (confidence 5) [F6E6114D], AccurateRip returned [1F3E3A1F]
Track 11 cannot be verified as accurate (confidence 5) [4ABA94D6], AccurateRip returned [F1B59EC3]
Track 12 cannot be verified as accurate (confidence 5) [72660502], AccurateRip returned [213DF517]
Track 13 cannot be verified as accurate (confidence 5) [EBBE3935], AccurateRip returned [96866E8A]
Track 14 cannot be verified as accurate (confidence 5) [EA3AAE69], AccurateRip returned [E209C2E2]
Track 15 cannot be verified as accurate (confidence 5) [932D245C], AccurateRip returned [56460478]
Track 16 cannot be verified as accurate (confidence 4) [B23EFCD4], AccurateRip returned [7E253769]
No tracks could be verified as accurate
You may have a different pressing from the one(s) in the database
End of status report
==== Log checksum 70E7F52083BB2411DAD145DCF5EB8B62AFAC42F6E3F3E9B4C9CB59E38A09A89E ====

CD 09

Exact Audio Copy V1.0 beta 1 from 15. November 2010
EAC extraction logfile from 7. June 2012, 17:38
Thomas Hengelbrock - Freiburger Barockorchester / Bach C.P.E. – Hamburger Sinfonien, Concerti
Used drive : PIONEER DVD-RW DVR-218L Adapter: 1 ID: 0
Read mode : Secure
Utilize accurate stream : Yes
Defeat audio cache : Yes
Make use of C2 pointers : No
Read offset correction : 6
Overread into Lead-In and Lead-Out : No
Fill up missing offset samples with silence : Yes
Delete leading and trailing silent blocks : No
Null samples used in CRC calculations : Yes
Used interface : Native Win32 interface for Win NT & 2000
Used output format : User Defined Encoder
Selected bitrate : 192 kBit/s
Quality : High
Add ID3 tag : No
Command line compressor : C:\Program Files\Exact Audio Copy\Flac\flac.exe
Additional command line options : -T "DATE=%y" -T "GENRE=%m" -8 -V %s
TOC of the extracted CD
Track | Start | Length | Start sector | End sector
---------------------------------------------------------
1 | 0:00.00 | 2:46.50 | 0 | 12499
2 | 2:46.50 | 3:25.37 | 12500 | 27911
3 | 6:12.12 | 5:36.50 | 27912 | 53161
4 | 11:48.62 | 3:17.30 | 53162 | 67966
5 | 15:06.17 | 1:55.15 | 67967 | 76606
6 | 17:01.32 | 2:15.50 | 76607 | 86781
7 | 19:17.07 | 4:31.55 | 86782 | 107161
8 | 23:48.62 | 4:31.28 | 107162 | 127514
9 | 28:20.15 | 3:49.10 | 127515 | 144699
10 | 32:09.25 | 4:23.72 | 144700 | 164496
11 | 36:33.22 | 6:31.70 | 164497 | 193891
12 | 43:05.17 | 9:14.43 | 193892 | 235484
13 | 52:19.60 | 7:19.25 | 235485 | 268434
14 | 59:39.10 | 3:58.30 | 268435 | 286314
15 | 63:37.40 | 3:13.37 | 286315 | 300826
16 | 66:51.02 | 3:43.73 | 300827 | 317624
Range status and errors
Selected range
Filename C:\Bach C.P.E. – Hamburger Sinfonien, Concerti.wav
Peak level 100.0 %
Extraction speed 0.0 X
Range quality 100.0 %
Test CRC E566FB2F
Copy CRC E566FB2F
Copy OK
No errors occurred
AccurateRip summary
Track 1 accurately ripped (confidence 2) [AD308564]
Track 2 accurately ripped (confidence 2) [F5B16545]
Track 3 accurately ripped (confidence 2) [B192FD58]
Track 4 accurately ripped (confidence 2) [53B77507]
Track 5 accurately ripped (confidence 2) [11BFCE9C]
Track 6 accurately ripped (confidence 2) [359631C0]
Track 7 accurately ripped (confidence 2) [DC8D21DF]
Track 8 accurately ripped (confidence 2) [87ABCD3E]
Track 9 cannot be verified as accurate (confidence 8) [9CB99A62], AccurateRip returned [5964317D]
Track 10 accurately ripped (confidence 2) [D9EAC037]
Track 11 accurately ripped (confidence 2) [4C5344A2]
Track 12 cannot be verified as accurate (confidence 8) [41BDDFA9], AccurateRip returned [F70FF18D]
Track 13 accurately ripped (confidence 2) [E57CF6F4]
Track 14 accurately ripped (confidence 2) [3081A1F2]
Track 15 accurately ripped (confidence 2) [3AC6B5CD]
Track 16 accurately ripped (confidence 2) [047545B6]
14 track(s) accurately ripped
2 track(s) could not be verified as accurate
Some tracks could not be verified as accurate
End of status report
==== Log checksum 9EEF7CF5A9FE2A70B06C9581DEFDC852C8DCCD2BC16143754BF64FACEF97070E ====

CD 10

Exact Audio Copy V1.0 beta 1 from 15. November 2010
EAC extraction logfile from 7. June 2012, 19:31
Thomas Hengelbrock - Freiburger Barockorchester / Purcell - Instrumental Music
Used drive : PIONEER DVD-RW DVR-218L Adapter: 1 ID: 0
Read mode : Secure
Utilize accurate stream : Yes
Defeat audio cache : Yes
Make use of C2 pointers : No
Read offset correction : 6
Overread into Lead-In and Lead-Out : No
Fill up missing offset samples with silence : Yes
Delete leading and trailing silent blocks : No
Null samples used in CRC calculations : Yes
Used interface : Native Win32 interface for Win NT & 2000
Used output format : User Defined Encoder
Selected bitrate : 192 kBit/s
Quality : High
Add ID3 tag : No
Command line compressor : C:\Program Files\Exact Audio Copy\Flac\flac.exe
Additional command line options : -T "DATE=%y" -T "GENRE=%m" -8 -V %s
TOC of the extracted CD
Track | Start | Length | Start sector | End sector
---------------------------------------------------------
1 | 0:00.00 | 2:31.12 | 0 | 11336
2 | 2:31.12 | 2:23.40 | 11337 | 22101
3 | 4:54.52 | 1:19.38 | 22102 | 28064
4 | 6:14.15 | 3:35.05 | 28065 | 44194
5 | 9:49.20 | 5:33.27 | 44195 | 69196
6 | 15:22.47 | 1:50.25 | 69197 | 77471
7 | 17:12.72 | 6:27.53 | 77472 | 106549
8 | 23:40.50 | 7:04.10 | 106550 | 138359
9 | 30:44.60 | 3:04.07 | 138360 | 152166
10 | 33:48.67 | 0:50.55 | 152167 | 155971
11 | 34:39.47 | 0:51.08 | 155972 | 159804
12 | 35:30.55 | 1:38.35 | 159805 | 167189
13 | 37:09.15 | 4:25.52 | 167190 | 187116
14 | 41:34.67 | 5:32.70 | 187117 | 212086
15 | 47:07.62 | 3:59.10 | 212087 | 230021
16 | 51:06.72 | 3:37.65 | 230022 | 246361
17 | 54:44.62 | 2:58.13 | 246362 | 259724
18 | 57:43.00 | 2:33.17 | 259725 | 271216
19 | 60:16.17 | 3:19.68 | 271217 | 286209
20 | 63:36.10 | 3:06.42 | 286210 | 300201
21 | 66:42.52 | 1:25.70 | 300202 | 306646
22 | 68:08.47 | 2:29.53 | 306647 | 317874
23 | 70:38.25 | 2:03.70 | 317875 | 327169
24 | 72:42.20 | 1:23.67 | 327170 | 333461
25 | 74:06.12 | 1:46.63 | 333462 | 341474
Range status and errors
Selected range
Filename C:\Purcell - Instrumental Music.wav
Peak level 95.1 %
Extraction speed 0.0 X
Range quality 100.0 %
Test CRC 8BC8727F
Copy CRC 8BC8727F
Copy OK
No errors occurred
AccurateRip summary
Track 1 accurately ripped (confidence 2) [6EC8F5DD]
Track 2 accurately ripped (confidence 2) [B19DDE0D]
Track 3 accurately ripped (confidence 2) [1166DC2E]
Track 4 accurately ripped (confidence 2) [8EEE4EDB]
Track 5 accurately ripped (confidence 2) [EF209B30]
Track 6 accurately ripped (confidence 2) [60036DAB]
Track 7 accurately ripped (confidence 2) [F8EEB229]
Track 8 accurately ripped (confidence 2) [7DC07D21]
Track 9 accurately ripped (confidence 2) [75D0F49E]
Track 10 accurately ripped (confidence 2) [FB30B217]
Track 11 accurately ripped (confidence 2) [2BB7EE0B]
Track 12 cannot be verified as accurate (confidence 10) [A25C7EBB], AccurateRip returned [A772FDB1]
Track 13 accurately ripped (confidence 2) [5BFDD218]
Track 14 accurately ripped (confidence 2) [B46DCEDA]
Track 15 accurately ripped (confidence 2) [2D0994CB]
Track 16 accurately ripped (confidence 2) [6CBC938F]
Track 17 accurately ripped (confidence 2) [FA34189F]
Track 18 accurately ripped (confidence 2) [1B40B92B]
Track 19 accurately ripped (confidence 2) [B787A7F4]
Track 20 accurately ripped (confidence 2) [74D45AD5]
Track 21 accurately ripped (confidence 2) [2287099A]
Track 22 accurately ripped (confidence 2) [6113A81F]
Track 23 accurately ripped (confidence 2) [FC3157AF]
Track 24 accurately ripped (confidence 2) [08621924]
Track 25 accurately ripped (confidence 2) [7AA5F8BE]
24 track(s) accurately ripped
1 track(s) could not be verified as accurate
Some tracks could not be verified as accurate
End of status report
==== Log checksum 04F8589CCAD9233A2CD2ADD75DC10612E159A38FC16ABCA19F0AF27B0F1BB8D6 ====
[teatrix.ru].t9728.torrent 
Торрент: Зарегистрирован [ 2015-10-23 17:11 ] · 1E09956DA18D0FD89EB30A1774C3B8D0B3F7657E

Скачать .torrent

Скачать

25 KB

Статус: проверено
Скачан: 0 раз
Размер: 3.24 GB
terms.php



Быстрый ответ

Имя:

      
Для отправки сообщений необходимо включить JavaScript
Показать сообщения:    

Текущее время: 05-Дек 15:33

Часовой пояс: UTC + 3


Вы можете начинать темы
Вы можете отвечать на сообщения
Вы не можете редактировать свои сообщения
Вы не можете удалять свои сообщения
Вы не можете голосовать в опросах
Вы не можете прикреплять файлы к сообщениям
Вы можете скачивать файлы