(Classical, Baroque) Collegium Aureum Edition (C.P.E. Bach, Handel, Rameau, J.S. Bach, Pergolesi, Biber, Mozart etc.) (10CD box set) - 2011, FLAC (image+.cue) lossless


Статистика раздачи [Обновить пиров]
Размер:  2.74 GB   |    Зарегистрирован:  1 год 1 месяц   |    Скачан:  0 раз

Полного источника не было: Никогда

Личеров:  4  [  0 KB/s  ]   Подробная статистика пиров
 
   
 
 
 

[Цитировать]

Collegium Aureum Edition- -Жанр: Classical, Baroque || Страна-производитель диска: EU || Год издания: 2011 || Издатель (лейбл): DHM / Sony Music || Номер по каталогу: 88697937072
Дата записи: 1961-1982 || Аудиокодек: FLAC || Тип рипа: image+.cue || Битрейт аудио: lossless || Продолжительность: 10 CD, 09:12:30
Наличие сканов в содержимом раздачи: да

CD01 - C.P.E. Bach - Doppelkonzerte, Wq.46 & 47; Sonatine, Wq.109 (57:58)

CARL PHILIPP EMANUEL BACH (1714-1788)
Doppelkonzert für Cembalo, Fortepiano und Orchester, Es-dur, Wq.47
01. I. Allegro di molto [00:07:15]
02. II. Larghetto [00:07:41]
03. III. Presto [00:04:29]
Sonatine für 2 Cembali und Orchester, D-dur, Wq.109
04. Presto - Tempo di Minuetto [00:15:51]
Doppelkonzert für 2 Cembali, Fortepiano und Orchester, F-dur, Wq.46
05. I. Allegro [00:09:55]
06. II. Largo [00:07:22]
07. III. Largo [00:05:22]-Eric Lynn Kelley harpsichord (Wq.47 & Wq.109)
Jos van Immerseel Fortepiano (Wq.47), harpsichord (Wq.109)
Alan Curtis harpsichord (Wq.46)
Gustav Leonhardt harpsichord (Wq.46)
Collegium Aureum
(Recording: Juni 21-24, 1982, Cedernsaal, Schloss Kirchheim
(Wq.47 & 109))

CD02 - G.F. Händel - Music for the Royal Fireworks; Water Music (76:17)

GEORGE FRIDERIC HANDEL (1685-1750)
Music for the Royal Fireworks, HWV 351
01. I. Ouverture [00:08:24]
02. II. Bourrée [00:02:06]
03. III. La Paix [00:03:33]
04. IV. La Rejouissance [00:04:17]
05. V. Manuet I [00:01:22]
06. VI. Manuet II [00:02:41]
Water Music, Suite N.1 in F, HWV 348
07. I. Ouverture [00:03:21]
08. II. Adagio e staccato [00:02:02]
09. III. Allegro - Andante - Allegro [00:07:55]
10. IV. Allegro [00:04:20]
11. V. Air [00:03:18]
12. VI. Minuet [00:03:22]
13. VII. Bourrée [00:01:04]
14. VIII. Andante [00:04:48]
15. IX. Hornpipe [00:01:28]
Water Music, Suite N.2 in D-Dur, HWV 349
16. I. Ouverture [00:02:07]
17. II. Alla Hornpipe [00:04:08]
18. III. Minuet [00:01:21]
19. IV. Lentement [00:01:59]
20. V. Bourrée [00:01:19]
Water Music, Suite N.3 in G-Dur, HWV 350
21. I. Andante [00:02:54]
22. II. Rigauden I & II [00:03:01]
23. III. Menuet I & II [00:03:45]
24. IV. Gigue I & II [00:01:31]-Collegium Aureum
(Recording: July 1971, Cedernsaal, Schloss Kirchheim
(Water Music) - September 2-4, 1971 (Music for the Royal Fireworks))

CD03 - J.Ph. Rameau - Les Indes galantes; Dardanus (69:34)

JEAN-PHILIPPE RAMEAU (1683-1764)
Les Indes Galantes (ballet suite)
01. I. Ouverture [00:04:40]
02. II. Entrée des quatre nations [00:02:02]
03. III. Menuet I et II [00:02:27]
04. IV. Forlane [00:02:04]
05. V. Rondeau. Danse du Grand Calumet de la Paix executee par les sauvages [00:01:46]
06. VI. Air pour les amours [00:01:51]
07. VII. Contre-danse [00:02:21]
08. VIII. Air pour les Persans [00:02:57]
09. IX. Air vif pour Zephire et la Rose [00:02:41]
10. X. Air pour Borée et la Rose [00:01:30]
11. XI. Air des Fleurs [00:01:21]
12. XII. Air tendre pour la Rose [00:02:02]
13. XIII. Gavotte pour les Fleurs [00:01:27]
14. XIV. Tambourin [00:01:52]
15. XV. Chaconne [00:06:22]
Dardanus (suite)
16. I. Ouverture. Lent et majestueux; vite [00:03:17]
17. II. Marche pour les differentes nations. Gai [00:01:27]
18. III. Menuet tendre en Rondeau. Modéré [00:01:35]
19. IV. Tambourin I et II [00:02:23]
20. V. Air vif [00:02:52]
21. VI. Rigaudon I et II [00:03:50]
22. VII. Air en Rondeau. Gaiment [00:01:47]
23. VIII. Entree. Gracieusement et un peu gai [00:01:38]
24. IX. Sommeil. Rondeau tendre [00:02:59]
25. X. Tambourin I et II [00:02:28]
26. XI. Chaconne [00:07:41]-Collegium Aureum
(Recording: June 16-21, 1964
(Dardanus), June 14-16, 1967 (Les Indes Galantes), Cedernsaal, Schloss Kirchheim)

CD04 - J.S. Bach - Kaffee-kantate, Bauern-kantate (58:11)

Johann Sebastian Bach(1685-1750)
Kaffee-kantate, BWV 211
01. I. Recitativo (Erzähler): Schweigt stille, plaudert nicht [00:00:37]
02. II. Aria (Schlendrian): Hat man nicht mit seinen Kindern [00:03:14]
03. III. Recitativo (Schlendrian): Du böses Kind, du loses Mädchen [00:00:43]
04. IV. Aria (Lieschen): Ei, wie schmeckt der Coffee süße [00:04:45]
05. V. Recitativo (Schlendrian): Wenn du mir nicht den Coffee lässt [00:01:19]
06. VI. Aria (Schlendrian): Mädchen, die von harten Sinnen [00:03:29]
07. VII. Recitativo (Schlendrian): Nun folge, was dein Vater spricht [00:00:54]
08. VIII. Aria (Lieschen): Heute noch, heute noch [00:06:54]
09. IX. Recitativo (Erzähler): Nun geht und sucht der alte Schlendrian [00:00:44]
10. X. Coro: Die Katze lässt das Mausen nicht [00:05:04]
Bauern-kantate, BWV 212
11. I. Sinfonia [00:02:23]
12. II. Duetto: Mer han en neue Oberkeet [00:00:40]
13. III. Recitativo (bass): Nu, Miecke, gib dein Guschel immer her [00:00:53]
14. IV. Aria (soprano): Ach es schmeckt doch gar zu gut [00:01:03]
15. V. Recitativo (bass): Der Herr ist gut [00:00:26]
16. VI. Aria (bass): Ach, Herr Schösser, geht nicht gar zu schlimm [00:01:15]
17. VII. Recitativo (soprano): Es bleibt dabei, dass unser Herr der beste sei [00:00:22]
18. VIII. Aria (soprano): Unser trefflicher lieber Kammerherr [00:01:53]
19. IX. Recitativo (bass): Er hilft uns allein, alt und jung [00:00:28]
20. X. Aria (soprano): Das ist galant [00:01:17]
21. XI. Recitativo (bass): Und unsre gnädige Frau ist nicht ein prinkel stolz [00:00:41]
22. XII. Aria (bass): Fünfzig Taler bares Geld [00:00:50]
23. XIII. Recitativo (soprano): Im Ernst ein Wort! [00:00:27]
24. XIV. Aria (soprano): Kein Zschocher müsse so zart und süße [00:06:21]
25. XV. Recitativo (bass): Das ist zu klug vor dich [00:00:19]
26. XVI. Aria (bass): Es nehme zehntausend Ducaten [00:00:40]
27. XVII. Recitativo (soprano): Das klingt zu liederlich [00:00:19]
28. XVIII. Aria (soprano): Gib, Schöne, viel Söhne von artger Gestalt [00:00:30]
29. XIX. Recitativo (bass): Du hast wohl recht [00:00:18]
30. XX. Aria (bass): Dein Wachstum sei feste und lache vor Lust [00:06:14]
31. XXI. Recitativo (soprano): Und damit sei es auch genug [00:00:19]
32. XXII. Aria (soprano): Und dass ihr's alle wisst [00:00:44]
33. XXIII. Recitativo (bass): Mein Schatz, erraten! [00:00:31]
34. XXIV. Coro: Wir gehn nun, wo der Tudelsack [00:01:15]-Elly Ameling soprano, Gerald English tenor,Siegmund Nimsgern bass
Collegium Aureum
(Recording: 1964/66/68, Cedernsaal, Schloss Kirchheim)

CD05 - J.S. Bach - Hochzeits-kantate, Non sà che sia dolore (48:16)

Johann Sebastian Bach
Hochzeits-kantate, BMV 202
01. I. Aria: Weichet nur, betrübte Schatten [00:07:04]
02. II. Recitativo: Drum sucht auch Amor sein Vergnügen [00:00:31]
03. III. Recitativo: Die Welt wird wieder neu [00:03:49]
04. IV. Aria: Phöbus eilt mit schnellen Pfeilen [00:00:41]
05. V. Aria: Wenn die Frühlingslüfte streichen [00:03:00]
06. VI. Recitativo: Und dieses ist das Glücke [00:00:46]
07. VII. Aria: Sich üben im Lieben [00:05:19]
08. VIII. Recitativo: So sei das Band der keuschen Liebe [00:00:25]
09. IX. Aria: Sehet in Zufriedenheit [00:01:51]
Non sà che sia dolore, BWV 209
10. I. Sinfonia [00:07:14]
11. II. Recitativo: Non sà che sia dolore [00:01:03]
12. III. Aria: Parti pur col dolore [00:09:13]
13. IV. Recitativo: Tuo saver al tempo e l'età [00:00:45]
14. V. Aria: Recitti gramezza e pavento [00:06:29]-Elly Ameling soprano, Gerald English tenor,Siegmund Nimsgern bass
Collegium Aureum
(Recording: 1964/66/68, Cedernsaal, Schloss Kirchheim)

CD06 - Dance Music Of The Renaissance (35:47)

JACQUES MODERNE (first half of the XVIth century)
01. 3 Branles De Bourgogne & Branle gay nouveau [00:03:43]
TIELMAN SUSATO (died c.1561)
02. Pavane 'Mille Regretz' - Ronde - Pavane 'Si pas souffrir' - Ronde & Saltarelle - Hoboecken dans - Ronde 'Il estoit une fillette' [00:11:54]
CLAUDE GERVAISE (XVIth century)
03. Branle [00:01:43]
PIERRE PHALESE (c.1510-c.1573)
04. L'arboscello ballo Furlano [00:01:05]
MELCHIOR FRANCK (1573-1639)
05. Pavana - Galliarda [00:03:57]
HANS LEO HASSLER (1564-1612)
06. 3 Intraden [00:04:41]
PIERRE ATTAIGNANT (before 1500-1553)
07. Tordion - Pavane - Galliarde [00:04:45]
CHRISTOPH DEMANTIUS (1567-1643)
08. Polnischer Tanz - Galliarde [00:03:56]-Collegium Aureum
Recorder & crumhorn: Ferdinand Conrad
Viola da braccio: Ilse Brix-Meinert, Ulrich Koch, Günter Lemmen
Viola da gamba: Johannes Koch, Heinrich Haferland
Dulcian: Otto Steinkopf
Lute: Walter Gerwig
(Recording: September 1961)

CD07 - G.B. Pergolesi - La serva padrona (48:54)

Giovanni Battista Pergolesi (1710-1736)
La serva padrona
Atto primo
01. Aspettare, e non venire (Uberto) [00:01:44]
02. Recitativo [00:04:02]
03. Sempre in contrasti (Uberto) [00:04:14]
04. Recitativo [00:01:41]
05. Stizzoso, mio stizzoso (Serpina) [00:03:37]
06. Recitativo [00:02:23]
07. La conosco a quegl' occhietti (Serpina, Uberto) [00:04:20]
Atto secondo
08. Recitativo [00:03:48]
09. A Serpina penserete (Serpina) [00:05:40]
10. Recitativo [00:02:32]
11. Son imbrogliato io gia (Uberto) [00:03:48]
12. Recitativo [00:04:17]
13. Per te io ho nel core (Duet) [00:06:41]-Maddalena Bonifacio soprano, Siegmund Nimsgern bass
Collegium Aureum
Violins: Franzjosef Maier concertmaster
Ulrich Beetz, Sigiswald Kuijken, Ruth Nielen-Wagner, Gerhard Peters, Jan Reichow, Doris Wolff-Malm
Viola: Franz Beyer, Karlheinz Steeb
Violoncello: Anner Bylsma
Double-bass: Paul Breuer
Harpsichord: Fritz Neumeyer
(Recording: 1969, Schloss Kirchheim, Cedernsaal)

CD08 - H.I.F. Biber - Missa Sancti Henrici; Sonatae tam aris quam aulis servientes (46:47)

HEINRICH IGNAZ FRANZ BIBER (1644-1704)
Missa Sancti Henrici
01. I. Kyrie [00:07:55]
02. II. Gloria [00:08:20]
03. III. Credo [00:11:50]
04. IV. Sanctus et Bendedictus [00:05:01]
05. V. Agnus Dei [00:03:24]
Sonatae tam aris quam aulis servientes
Sonata I a otto 1676
06. I. (Allegro) [00:01:28]
07. II. Adagio - Presto [00:02:39]
08. III. Allegro [00:01:06]
Sonata XII a otto 1676
09. I. (Allegro) [00:01:32]
10. II. Adagio - Allegro [00:02:15]
11. III. Adagio - Presto [00:01:12]-3 Regensburger Domspatzen
James Griffett
tenor, Michael Schopper bass
Franzjosef Maier concertmaster
Herbert Metzger organ
Regensburger Domspatzen
Collegium Aureum
on historic instruments
Georg Ratzinger direction
(Recording: November 13-23, 1982, St. Emmeram, Regensburg)

CD09 - W.A. Mozart - Klarinettenkonzert K622, Oboenkonzert K314 (47:56)

Wolfgang Amadeus Mozart (1756-1791)
Konzert für Klarinette und Orchester, A-Dur, K 622
01. I. Allegro [00:12:01]
02. II. Adagio [00:07:13]
03. III. Rondo - Allegro [00:09:03]
Konzert für Oboe und Orchester, C-Dur, K 314
04. I. Allegro aperto [00:07:16]
05. II. Adagio non troppo [00:06:29]
06. III. Rondo - Allegretto [00:05:51]-Hans Deinzer clarinet, Helmut Hucke oboe
Collegium Aureum
Franzjosef Maier
direction
(Recording: 1985/86, Cedernsaal, Schloss Kirchheim)

CD10 - W.A. Mozart - Krönungsmesse, K317; Vesperae solennes de confessore, K339 (62:44)

Wolfgang Amadeus Mozart
Missa, C-dur, KV 317 'Krönungsmesse'
01. I. Kyrie [00:02:45]
02. II. Gloria [00:04:26]
03. III. Credo [00:06:00]
04. IV. Sanctus [00:01:32]
05. V. Benedictus [00:03:08]
06. VI. Agnus Dei [00:05:58]
Vesperae solennes de confessore, KV 339
07. I. Dixit [00:03:43]
08. II. Confitebor [00:04:50]
09. III. Beatus vir [00:04:40]
10. IV. Laudate pueri [00:03:18]
11. V. Laudate Dominum [00:04:19]
12. VI. Magnificat [00:04:21]
13. Litaniae Laurentanae, KV 109 [00:13:37]-Hans Buchheirl soprano (KV 317, 339)
Ursula Buckel soprano (KV 109)
Andreas Stein alto (KV 317, 339)
Maureen Lehane alto (KV 109)
Theo Altmeyer tenor (KV 317, 339)
Richard van Vrooman tenor (KV 109)
Michael Schopper bass (KV 317, 339)
Eduard Wollitz bass (KV 109)
Tölzer Knabenchor
Gerhard Schmidt-Gaden
chorus master
Collegium Aureum
Rolf Reinhardt
conductor (KV 109)
(Recording: September 1973, Pfarrkirche Lengries (KV 317, 339), October 1963, Einsiedeln, Basilika (13))

LOG EAC

CD 01

Exact Audio Copy V1.0 beta 1 from 15. November 2010
EAC extraction logfile from 7. June 2012, 23:40
Collegium Aureum / Bach C.P.E. - Double Concertos WQ.46 & 47, Sonatina WQ.109
Used drive : PIONEER DVD-RW DVR-218L Adapter: 1 ID: 0
Read mode : Secure
Utilize accurate stream : Yes
Defeat audio cache : Yes
Make use of C2 pointers : No
Read offset correction : 6
Overread into Lead-In and Lead-Out : No
Fill up missing offset samples with silence : Yes
Delete leading and trailing silent blocks : No
Null samples used in CRC calculations : Yes
Used interface : Native Win32 interface for Win NT & 2000
Used output format : User Defined Encoder
Selected bitrate : 192 kBit/s
Quality : High
Add ID3 tag : No
Command line compressor : C:\Program Files\Exact Audio Copy\Flac\flac.exe
Additional command line options : -T "DATE=%y" -T "GENRE=%m" -8 -V %s
TOC of the extracted CD
Track | Start | Length | Start sector | End sector
---------------------------------------------------------
1 | 0:00.00 | 7:15.50 | 0 | 32674
2 | 7:15.50 | 7:41.12 | 32675 | 67261
3 | 14:56.62 | 4:29.38 | 67262 | 87474
4 | 19:26.25 | 15:51.07 | 87475 | 158806
5 | 35:17.32 | 9:55.65 | 158807 | 203496
6 | 45:13.22 | 7:22.48 | 203497 | 236694
7 | 52:35.70 | 5:22.20 | 236695 | 260864
Range status and errors
Selected range
Filename C:\Bach C.P.E. - Double Concertos WQ.46 & 47, Sonatina WQ.109.wav
Peak level 94.1 %
Extraction speed 0.1 X
Range quality 100.0 %
Test CRC 03C09B94
Copy CRC 03C09B94
Copy OK
No errors occurred
AccurateRip summary
Track 1 cannot be verified as accurate (confidence 3) [1B782110], AccurateRip returned [47B2F438]
Track 2 cannot be verified as accurate (confidence 3) [F2E4F6F0], AccurateRip returned [53C99CFE]
Track 3 cannot be verified as accurate (confidence 3) [6F56BA8F], AccurateRip returned [58DDC92D]
Track 4 cannot be verified as accurate (confidence 3) [95A37B53], AccurateRip returned [2A5891D3]
Track 5 cannot be verified as accurate (confidence 3) [BC850053], AccurateRip returned [4F43D6D2]
Track 6 cannot be verified as accurate (confidence 3) [040BDC28], AccurateRip returned [6C4DA0DC]
Track 7 cannot be verified as accurate (confidence 3) [E24CDB51], AccurateRip returned [64970466]
No tracks could be verified as accurate
You may have a different pressing from the one(s) in the database
End of status report
==== Log checksum DF49CD0DB883C6F3782BFBFA68890EB2679DB4BA5DC20D956594767E903DA73D ====

CD 02

Exact Audio Copy V1.0 beta 1 from 15. November 2010
EAC extraction logfile from 8. June 2012, 21:49
Collegium Aureum / Handel - Music for the Royal Fireworks & Water Music
Used drive : PIONEER DVD-RW DVR-218L Adapter: 1 ID: 0
Read mode : Secure
Utilize accurate stream : Yes
Defeat audio cache : Yes
Make use of C2 pointers : No
Read offset correction : 6
Overread into Lead-In and Lead-Out : No
Fill up missing offset samples with silence : Yes
Delete leading and trailing silent blocks : No
Null samples used in CRC calculations : Yes
Used interface : Native Win32 interface for Win NT & 2000
Used output format : User Defined Encoder
Selected bitrate : 192 kBit/s
Quality : High
Add ID3 tag : No
Command line compressor : C:\Program Files\Exact Audio Copy\Flac\flac.exe
Additional command line options : -T "DATE=%y" -T "GENRE=%m" -8 -V %s
TOC of the extracted CD
Track | Start | Length | Start sector | End sector
---------------------------------------------------------
1 | 0:00.00 | 8:24.72 | 0 | 37871
2 | 8:24.72 | 2:06.40 | 37872 | 47361
3 | 10:31.37 | 3:33.15 | 47362 | 63351
4 | 14:04.52 | 4:17.30 | 63352 | 82656
5 | 18:22.07 | 1:22.35 | 82657 | 88841
6 | 19:44.42 | 2:41.63 | 88842 | 100979
7 | 22:26.30 | 3:21.37 | 100980 | 116091
8 | 25:47.67 | 2:02.05 | 116092 | 125246
9 | 27:49.72 | 7:55.68 | 125247 | 160939
10 | 35:45.65 | 4:20.17 | 160940 | 180456
11 | 40:06.07 | 3:18.18 | 180457 | 195324
12 | 43:24.25 | 3:22.47 | 195325 | 210521
13 | 46:46.72 | 1:04.13 | 210522 | 215334
14 | 47:51.10 | 4:48.17 | 215335 | 236951
15 | 52:39.27 | 1:28.60 | 236952 | 243611
16 | 54:08.12 | 2:07.58 | 243612 | 253194
17 | 56:15.70 | 4:08.65 | 253195 | 271859
18 | 60:24.60 | 1:20.72 | 271860 | 277931
19 | 61:45.57 | 1:59.30 | 277932 | 286886
20 | 63:45.12 | 1:19.30 | 286887 | 292841
21 | 65:04.42 | 2:54.00 | 292842 | 305891
22 | 67:58.42 | 3:01.20 | 305892 | 319486
23 | 70:59.62 | 3:45.70 | 319487 | 336431
24 | 74:45.57 | 1:31.10 | 336432 | 343266
Range status and errors
Selected range
Filename C:\Handel - Music for the Royal Fireworks & Water Music.wav
Peak level 80.8 %
Extraction speed 0.0 X
Range quality 100.0 %
Test CRC 0F0B6841
Copy CRC 0F0B6841
Copy OK
No errors occurred
AccurateRip summary
Track 1 cannot be verified as accurate (confidence 6) [DF8CA9F2], AccurateRip returned [67463F6B]
Track 2 cannot be verified as accurate (confidence 6) [9E7686BF], AccurateRip returned [69652B2C]
Track 3 cannot be verified as accurate (confidence 6) [740D2255], AccurateRip returned [89B6A999]
Track 4 cannot be verified as accurate (confidence 6) [1D8FC2FF], AccurateRip returned [2886DE94]
Track 5 cannot be verified as accurate (confidence 6) [8DB1B9FD], AccurateRip returned [D572D3F5]
Track 6 cannot be verified as accurate (confidence 6) [EC86573E], AccurateRip returned [9310A725]
Track 7 cannot be verified as accurate (confidence 6) [C7389E76], AccurateRip returned [968617FF]
Track 8 cannot be verified as accurate (confidence 6) [D47CE3D0], AccurateRip returned [55B80E89]
Track 9 cannot be verified as accurate (confidence 6) [1B5C2488], AccurateRip returned [8D2B46DB]
Track 10 cannot be verified as accurate (confidence 6) [8C5B6177], AccurateRip returned [DBA85A4F]
Track 11 cannot be verified as accurate (confidence 6) [8FB0DD3C], AccurateRip returned [B2EE6EAC]
Track 12 cannot be verified as accurate (confidence 6) [98CE73D0], AccurateRip returned [362EDA24]
Track 13 cannot be verified as accurate (confidence 6) [47FDA89E], AccurateRip returned [88459020]
Track 14 cannot be verified as accurate (confidence 6) [8323E6FF], AccurateRip returned [8BEA260B]
Track 15 cannot be verified as accurate (confidence 6) [8B61A690], AccurateRip returned [22E73D4B]
Track 16 cannot be verified as accurate (confidence 6) [862B7D52], AccurateRip returned [04540B17]
Track 17 cannot be verified as accurate (confidence 6) [F0191308], AccurateRip returned [4FF45AEE]
Track 18 cannot be verified as accurate (confidence 6) [80501584], AccurateRip returned [245036AF]
Track 19 cannot be verified as accurate (confidence 6) [B516AC0E], AccurateRip returned [A35C0BF2]
Track 20 cannot be verified as accurate (confidence 6) [812650E0], AccurateRip returned [B07E5DE0]
Track 21 cannot be verified as accurate (confidence 6) [E32B40B1], AccurateRip returned [8B6DB398]
Track 22 cannot be verified as accurate (confidence 6) [21914103], AccurateRip returned [28A543D4]
Track 23 cannot be verified as accurate (confidence 6) [5B4BD621], AccurateRip returned [E8D4E12E]
Track 24 cannot be verified as accurate (confidence 6) [4AB0D3AF], AccurateRip returned [FDFDDB3B]
No tracks could be verified as accurate
You may have a different pressing from the one(s) in the database
End of status report
==== Log checksum 88F4BB201FCC2443C4D4037AD38EE8539934E9302592B6C39AE94118E4B74770 ====

CD 03

Exact Audio Copy V1.0 beta 1 from 15. November 2010
EAC extraction logfile from 9. June 2012, 11:59
Collegium Aureum / Rameau - Les Indes Galantes (ballet suite), Dardanus (suite)
Used drive : PIONEER DVD-RW DVR-218L Adapter: 1 ID: 0
Read mode : Secure
Utilize accurate stream : Yes
Defeat audio cache : Yes
Make use of C2 pointers : No
Read offset correction : 6
Overread into Lead-In and Lead-Out : No
Fill up missing offset samples with silence : Yes
Delete leading and trailing silent blocks : No
Null samples used in CRC calculations : Yes
Used interface : Native Win32 interface for Win NT & 2000
Used output format : User Defined Encoder
Selected bitrate : 192 kBit/s
Quality : High
Add ID3 tag : No
Command line compressor : C:\Program Files\Exact Audio Copy\Flac\flac.exe
Additional command line options : -T "DATE=%y" -T "GENRE=%m" -8 -V %s
TOC of the extracted CD
Track | Start | Length | Start sector | End sector
---------------------------------------------------------
1 | 0:00.00 | 4:40.70 | 0 | 21069
2 | 4:40.70 | 2:02.30 | 21070 | 30249
3 | 6:43.25 | 2:27.30 | 30250 | 41304
4 | 9:10.55 | 2:04.55 | 41305 | 50659
5 | 11:15.35 | 1:46.25 | 50660 | 58634
6 | 13:01.60 | 1:51.67 | 58635 | 67026
7 | 14:53.52 | 2:21.05 | 67027 | 77606
8 | 17:14.57 | 2:57.00 | 77607 | 90881
9 | 20:11.57 | 2:41.63 | 90882 | 103019
10 | 22:53.45 | 1:30.35 | 103020 | 109804
11 | 24:24.05 | 1:21.70 | 109805 | 115949
12 | 25:46.00 | 2:02.70 | 115950 | 125169
13 | 27:48.70 | 1:27.22 | 125170 | 131716
14 | 29:16.17 | 1:52.53 | 131717 | 140169
15 | 31:08.70 | 6:22.20 | 140170 | 168839
16 | 37:31.15 | 3:17.37 | 168840 | 183651
17 | 40:48.52 | 1:27.18 | 183652 | 190194
18 | 42:15.70 | 1:35.35 | 190195 | 197354
19 | 43:51.30 | 2:23.07 | 197355 | 208086
20 | 46:14.37 | 2:52.43 | 208087 | 221029
21 | 49:07.05 | 3:50.52 | 221030 | 238331
22 | 52:57.57 | 1:47.70 | 238332 | 246426
23 | 54:45.52 | 1:38.15 | 246427 | 253791
24 | 56:23.67 | 2:59.63 | 253792 | 267279
25 | 59:23.55 | 2:28.05 | 267280 | 278384
26 | 61:51.60 | 7:41.65 | 278385 | 313024
Range status and errors
Selected range
Filename C:\Rameau - Les Indes Galantes (ballet suite), Dardanus (suite).wav
Peak level 99.8 %
Extraction speed 0.2 X
Range quality 100.0 %
Test CRC 563CE518
Copy CRC 563CE518
Copy OK
No errors occurred
AccurateRip summary
Track 1 cannot be verified as accurate (confidence 7) [0716938B], AccurateRip returned [94F02E43]
Track 2 cannot be verified as accurate (confidence 7) [040642DD], AccurateRip returned [7105EF27]
Track 3 cannot be verified as accurate (confidence 7) [8B0A3DD2], AccurateRip returned [CF85586F]
Track 4 cannot be verified as accurate (confidence 7) [1225C025], AccurateRip returned [AECC7BD7]
Track 5 cannot be verified as accurate (confidence 7) [4C9CB09B], AccurateRip returned [C60F90F2]
Track 6 cannot be verified as accurate (confidence 7) [0C95302C], AccurateRip returned [74AB38D3]
Track 7 cannot be verified as accurate (confidence 7) [FEA64B65], AccurateRip returned [D50036DF]
Track 8 cannot be verified as accurate (confidence 7) [ACBB0391], AccurateRip returned [E7814B56]
Track 9 cannot be verified as accurate (confidence 7) [90FC819A], AccurateRip returned [999E6B35]
Track 10 cannot be verified as accurate (confidence 7) [094CDAE7], AccurateRip returned [E07565CD]
Track 11 cannot be verified as accurate (confidence 7) [975EF260], AccurateRip returned [0AE694CA]
Track 12 cannot be verified as accurate (confidence 7) [63B3917F], AccurateRip returned [A80EAE0C]
Track 13 cannot be verified as accurate (confidence 7) [DACE7DC8], AccurateRip returned [4DBD0F77]
Track 14 cannot be verified as accurate (confidence 7) [6352F31B], AccurateRip returned [BAEB5A1A]
Track 15 cannot be verified as accurate (confidence 7) [691B9239], AccurateRip returned [F9CC4706]
Track 16 cannot be verified as accurate (confidence 7) [B30C62AF], AccurateRip returned [2176C099]
Track 17 cannot be verified as accurate (confidence 7) [683629C3], AccurateRip returned [E7B104E5]
Track 18 cannot be verified as accurate (confidence 7) [9F007243], AccurateRip returned [BF722861]
Track 19 cannot be verified as accurate (confidence 7) [B021ABD8], AccurateRip returned [0D73BC97]
Track 20 cannot be verified as accurate (confidence 7) [06F7B4A0], AccurateRip returned [79453D1B]
Track 21 cannot be verified as accurate (confidence 7) [D1E9687A], AccurateRip returned [0DBAF306]
Track 22 cannot be verified as accurate (confidence 7) [A2B9894B], AccurateRip returned [9ED233F5]
Track 23 cannot be verified as accurate (confidence 7) [43D6B41E], AccurateRip returned [03FF930B]
Track 24 cannot be verified as accurate (confidence 7) [52DB6EE8], AccurateRip returned [FAD6A7A5]
Track 25 cannot be verified as accurate (confidence 7) [02048EA0], AccurateRip returned [5FE265AA]
Track 26 cannot be verified as accurate (confidence 7) [F4773EE4], AccurateRip returned [ED0BCAED]
No tracks could be verified as accurate
You may have a different pressing from the one(s) in the database
End of status report
==== Log checksum A7E11BD2F2CCC6FBEDE45E1B7219B085D26FB91408126EFC552887D14D13D563 ====

CD 04

Exact Audio Copy V1.0 beta 1 from 15. November 2010
EAC extraction logfile from 10. June 2012, 11:47
E.Ameling, G.English, S.Nimsgern, Collegium Aureum / Bach - Weltliche Kantaten CD1
Used drive : PIONEER DVD-RW DVR-218L Adapter: 1 ID: 0
Read mode : Secure
Utilize accurate stream : Yes
Defeat audio cache : Yes
Make use of C2 pointers : No
Read offset correction : 6
Overread into Lead-In and Lead-Out : No
Fill up missing offset samples with silence : Yes
Delete leading and trailing silent blocks : No
Null samples used in CRC calculations : Yes
Used interface : Native Win32 interface for Win NT & 2000
Used output format : User Defined Encoder
Selected bitrate : 192 kBit/s
Quality : High
Add ID3 tag : No
Command line compressor : C:\Program Files\Exact Audio Copy\Flac\flac.exe
Additional command line options : -T "DATE=%y" -T "GENRE=%m" -8 -V %s
TOC of the extracted CD
Track | Start | Length | Start sector | End sector
---------------------------------------------------------
1 | 0:00.33 | 0:37.52 | 33 | 2859
2 | 0:38.10 | 3:14.28 | 2860 | 17437
3 | 3:52.38 | 0:43.47 | 17438 | 20709
4 | 4:36.10 | 4:45.30 | 20710 | 42114
5 | 9:21.40 | 1:19.48 | 42115 | 48087
6 | 10:41.13 | 3:29.42 | 48088 | 63804
7 | 14:10.55 | 0:54.40 | 63805 | 67894
8 | 15:05.20 | 6:54.65 | 67895 | 99009
9 | 22:00.10 | 0:44.45 | 99010 | 102354
10 | 22:44.55 | 5:04.65 | 102355 | 125219
11 | 27:49.45 | 2:23.00 | 125220 | 135944
12 | 30:12.45 | 0:40.08 | 135945 | 138952
13 | 30:52.53 | 0:53.55 | 138953 | 142982
14 | 31:46.33 | 1:03.45 | 142983 | 147752
15 | 32:50.03 | 0:26.10 | 147753 | 149712
16 | 33:16.13 | 1:15.40 | 149713 | 155377
17 | 34:31.53 | 0:22.70 | 155378 | 157097
18 | 34:54.48 | 1:53.32 | 157098 | 165604
19 | 36:48.05 | 0:28.60 | 165605 | 167764
20 | 37:16.65 | 1:17.20 | 167765 | 173559
21 | 38:34.10 | 0:41.58 | 173560 | 176692
22 | 39:15.68 | 0:50.50 | 176693 | 180492
23 | 40:06.43 | 0:27.47 | 180493 | 182564
24 | 40:34.15 | 6:21.03 | 182565 | 211142
25 | 46:55.18 | 0:19.57 | 211143 | 212624
26 | 47:15.00 | 0:40.70 | 212625 | 215694
27 | 47:55.70 | 0:19.38 | 215695 | 217157
28 | 48:15.33 | 0:30.65 | 217158 | 219472
29 | 48:46.23 | 0:18.27 | 219473 | 220849
30 | 49:04.50 | 6:14.33 | 220850 | 248932
31 | 55:19.08 | 0:19.67 | 248933 | 250424
32 | 55:39.00 | 0:44.65 | 250425 | 253789
33 | 56:23.65 | 0:31.45 | 253790 | 256159
34 | 56:55.35 | 1:15.38 | 256160 | 261822
Range status and errors
Selected range
Filename C:\Bach - Weltliche Kantaten CD1.wav
Peak level 88.9 %
Extraction speed 0.0 X
Range quality 99.9 %
Test CRC BD4C11E0
Copy CRC BD4C11E0
Copy OK
No errors occurred
AccurateRip summary
Track 1 cannot be verified as accurate (confidence 4) [4B4767EB], AccurateRip returned [2C5FE26C]
Track 2 cannot be verified as accurate (confidence 4) [88292921], AccurateRip returned [4347DAFF]
Track 3 cannot be verified as accurate (confidence 4) [B386DA87], AccurateRip returned [2D2BF118]
Track 4 cannot be verified as accurate (confidence 4) [2B32A828], AccurateRip returned [7E455BE0]
Track 5 cannot be verified as accurate (confidence 4) [19CB9B18], AccurateRip returned [4F644615]
Track 6 cannot be verified as accurate (confidence 4) [6CB04510], AccurateRip returned [50CC422D]
Track 7 cannot be verified as accurate (confidence 4) [8FD3D7E7], AccurateRip returned [1EB9F213]
Track 8 cannot be verified as accurate (confidence 4) [E52AEDCA], AccurateRip returned [0A30CDFF]
Track 9 cannot be verified as accurate (confidence 4) [12140310], AccurateRip returned [AB4A9313]
Track 10 cannot be verified as accurate (confidence 4) [CCA2C0A0], AccurateRip returned [DBE5D266]
Track 11 cannot be verified as accurate (confidence 4) [DED86FC5], AccurateRip returned [78A0B576]
Track 12 cannot be verified as accurate (confidence 4) [3A7CC202], AccurateRip returned [14E15084]
Track 13 cannot be verified as accurate (confidence 4) [B1DE4395], AccurateRip returned [5579D349]
Track 14 cannot be verified as accurate (confidence 4) [C502B65C], AccurateRip returned [BA302208]
Track 15 cannot be verified as accurate (confidence 4) [4865C214], AccurateRip returned [8A090B92]
Track 16 cannot be verified as accurate (confidence 4) [AD5F8922], AccurateRip returned [27017D07]
Track 17 cannot be verified as accurate (confidence 4) [1DA8146E], AccurateRip returned [A9E06D93]
Track 18 cannot be verified as accurate (confidence 4) [B7253B0E], AccurateRip returned [FF354880]
Track 19 cannot be verified as accurate (confidence 4) [8F8A74E7], AccurateRip returned [F9F94AB7]
Track 20 cannot be verified as accurate (confidence 4) [BBE4CCD8], AccurateRip returned [11F6EB74]
Track 21 cannot be verified as accurate (confidence 4) [1DD00772], AccurateRip returned [E615C8B7]
Track 22 cannot be verified as accurate (confidence 4) [9D48091A], AccurateRip returned [54CADC50]
Track 23 cannot be verified as accurate (confidence 4) [A344BA28], AccurateRip returned [4CD868E9]
Track 24 cannot be verified as accurate (confidence 4) [2F5690E8], AccurateRip returned [79EA937A]
Track 25 cannot be verified as accurate (confidence 4) [AA7539E1], AccurateRip returned [939CA18D]
Track 26 cannot be verified as accurate (confidence 4) [D0644756], AccurateRip returned [BA305472]
Track 27 cannot be verified as accurate (confidence 4) [AEC2B34F], AccurateRip returned [44341099]
Track 28 cannot be verified as accurate (confidence 4) [D4C96C78], AccurateRip returned [8493F28F]
Track 29 cannot be verified as accurate (confidence 4) [1B704F62], AccurateRip returned [2D7AD74B]
Track 30 cannot be verified as accurate (confidence 4) [99489A62], AccurateRip returned [E1865CF2]
Track 31 cannot be verified as accurate (confidence 4) [DE326CCA], AccurateRip returned [03E2FC57]
Track 32 cannot be verified as accurate (confidence 4) [19E40CB7], AccurateRip returned [D27FA387]
Track 33 cannot be verified as accurate (confidence 4) [88A3BAFC], AccurateRip returned [AD7BF904]
Track 34 cannot be verified as accurate (confidence 4) [9CFA36AC], AccurateRip returned [B0B50C11]
No tracks could be verified as accurate
You may have a different pressing from the one(s) in the database
End of status report
==== Log checksum 87739C7E58238FF4348D1837F5011AFB4EF721D021D382D98F19902AA1DB1CC1 ====

CD 05

Exact Audio Copy V1.0 beta 1 from 15. November 2010
EAC extraction logfile from 10. June 2012, 13:20
E.Ameling, G.English, S.Nimsgern, Collegium Aureum / Bach – Weltliche Kantaten CD2
Used drive : PIONEER DVD-RW DVR-218L Adapter: 1 ID: 0
Read mode : Secure
Utilize accurate stream : Yes
Defeat audio cache : Yes
Make use of C2 pointers : No
Read offset correction : 6
Overread into Lead-In and Lead-Out : No
Fill up missing offset samples with silence : Yes
Delete leading and trailing silent blocks : No
Null samples used in CRC calculations : Yes
Used interface : Native Win32 interface for Win NT & 2000
Used output format : User Defined Encoder
Selected bitrate : 192 kBit/s
Quality : High
Add ID3 tag : No
Command line compressor : C:\Program Files\Exact Audio Copy\Flac\flac.exe
Additional command line options : -T "DATE=%y" -T "GENRE=%m" -8 -V %s
TOC of the extracted CD
Track | Start | Length | Start sector | End sector
---------------------------------------------------------
1 | 0:00.32 | 7:04.48 | 32 | 31879
2 | 7:05.05 | 0:31.42 | 31880 | 34246
3 | 7:36.47 | 3:49.10 | 34247 | 51431
4 | 11:25.57 | 0:41.60 | 51432 | 54566
5 | 12:07.42 | 3:00.53 | 54567 | 68119
6 | 15:08.20 | 0:46.10 | 68120 | 71579
7 | 15:54.30 | 5:19.32 | 71580 | 95536
8 | 21:13.62 | 0:25.40 | 95537 | 97451
9 | 21:39.27 | 1:51.18 | 97452 | 105794
10 | 23:30.45 | 7:14.45 | 105795 | 138389
11 | 30:45.15 | 1:03.42 | 138390 | 143156
12 | 31:48.57 | 9:13.50 | 143157 | 184681
13 | 41:02.32 | 0:45.18 | 184682 | 188074
14 | 41:47.50 | 6:29.00 | 188075 | 217249
Range status and errors
Selected range
Filename C:\Bach – Weltliche Kantaten CD2.wav
Peak level 93.5 %
Extraction speed 0.2 X
Range quality 100.0 %
Test CRC 29AFFEFE
Copy CRC 29AFFEFE
Copy OK
No errors occurred
AccurateRip summary
Track 1 cannot be verified as accurate (confidence 4) [BEED4BA2], AccurateRip returned [256190D2]
Track 2 cannot be verified as accurate (confidence 4) [AE4D78D4], AccurateRip returned [14672BCF]
Track 3 cannot be verified as accurate (confidence 4) [C8BE3C38], AccurateRip returned [16278B6F]
Track 4 cannot be verified as accurate (confidence 4) [A6B80A4E], AccurateRip returned [0AD4E284]
Track 5 cannot be verified as accurate (confidence 4) [4206A824], AccurateRip returned [94C027E6]
Track 6 cannot be verified as accurate (confidence 4) [684233DC], AccurateRip returned [4EB5C390]
Track 7 cannot be verified as accurate (confidence 4) [04332FC0], AccurateRip returned [949AD78F]
Track 8 cannot be verified as accurate (confidence 4) [F56628C4], AccurateRip returned [E11064DB]
Track 9 cannot be verified as accurate (confidence 4) [422E8C1D], AccurateRip returned [623E6B8B]
Track 10 cannot be verified as accurate (confidence 4) [FBB8E307], AccurateRip returned [9C8F8057]
Track 11 cannot be verified as accurate (confidence 4) [464CB63C], AccurateRip returned [C84F6372]
Track 12 cannot be verified as accurate (confidence 4) [56E231C2], AccurateRip returned [8B55FBAF]
Track 13 cannot be verified as accurate (confidence 4) [A6104596], AccurateRip returned [AAF7A8BC]
Track 14 cannot be verified as accurate (confidence 4) [5055EF39], AccurateRip returned [69B4E27A]
No tracks could be verified as accurate
You may have a different pressing from the one(s) in the database
End of status report
==== Log checksum AB1D14E43CEB14DDB0C930B84F75DB10E7B77E77D995FDB15A49E48339AF4EAA ====

CD 06

Exact Audio Copy V1.0 beta 1 from 15. November 2010
EAC extraction logfile from 10. June 2012, 15:03
Collegium Aureum / Tanzmusik Der Renaissance
Used drive : PIONEER DVD-RW DVR-218L Adapter: 1 ID: 0
Read mode : Secure
Utilize accurate stream : Yes
Defeat audio cache : Yes
Make use of C2 pointers : No
Read offset correction : 6
Overread into Lead-In and Lead-Out : No
Fill up missing offset samples with silence : Yes
Delete leading and trailing silent blocks : No
Null samples used in CRC calculations : Yes
Used interface : Native Win32 interface for Win NT & 2000
Used output format : User Defined Encoder
Selected bitrate : 192 kBit/s
Quality : High
Add ID3 tag : No
Command line compressor : C:\Program Files\Exact Audio Copy\Flac\flac.exe
Additional command line options : -T "DATE=%y" -T "GENRE=%m" -8 -V %s
TOC of the extracted CD
Track | Start | Length | Start sector | End sector
---------------------------------------------------------
1 | 0:00.00 | 3:43.40 | 0 | 16764
2 | 3:43.40 | 11:54.45 | 16765 | 70359
3 | 15:38.10 | 1:43.25 | 70360 | 78109
4 | 17:21.35 | 1:05.67 | 78110 | 83051
5 | 18:27.27 | 3:56.73 | 83052 | 100824
6 | 22:24.25 | 4:41.12 | 100825 | 121911
7 | 27:05.37 | 4:45.05 | 121912 | 143291
8 | 31:50.42 | 3:56.38 | 143292 | 161029
Range status and errors
Selected range
Filename C:\Tanzmusik Der Renaissance.wav
Peak level 99.5 %
Extraction speed 0.1 X
Range quality 100.0 %
Test CRC 1FEAB015
Copy CRC 1FEAB015
Copy OK
No errors occurred
AccurateRip summary
Track 1 cannot be verified as accurate (confidence 3) [4A918268], AccurateRip returned [3009CD34]
Track 2 cannot be verified as accurate (confidence 3) [3BAE6284], AccurateRip returned [107B2734]
Track 3 cannot be verified as accurate (confidence 3) [FB8407F8], AccurateRip returned [A12228A2]
Track 4 cannot be verified as accurate (confidence 3) [3D19B7BB], AccurateRip returned [2069BB00]
Track 5 cannot be verified as accurate (confidence 3) [BF5A6461], AccurateRip returned [44B67BBC]
Track 6 cannot be verified as accurate (confidence 3) [63997DE9], AccurateRip returned [BDCB8477]
Track 7 cannot be verified as accurate (confidence 3) [BB19A146], AccurateRip returned [B4932B78]
Track 8 cannot be verified as accurate (confidence 3) [596979E7], AccurateRip returned [D11C3ACE]
No tracks could be verified as accurate
You may have a different pressing from the one(s) in the database
End of status report
==== Log checksum 23D06156DA9255F191A74D9645432AD4D966FA9668423498722FF8881A99FE9D ====

CD 07

Exact Audio Copy V1.0 beta 1 from 15. November 2010
EAC extraction logfile from 10. June 2012, 16:30
Collegium Aureum / Pergolesi - La serva padrona
Used drive : PIONEER DVD-RW DVR-218L Adapter: 1 ID: 0
Read mode : Secure
Utilize accurate stream : Yes
Defeat audio cache : Yes
Make use of C2 pointers : No
Read offset correction : 6
Overread into Lead-In and Lead-Out : No
Fill up missing offset samples with silence : Yes
Delete leading and trailing silent blocks : No
Null samples used in CRC calculations : Yes
Used interface : Native Win32 interface for Win NT & 2000
Used output format : User Defined Encoder
Selected bitrate : 192 kBit/s
Quality : High
Add ID3 tag : No
Command line compressor : C:\Program Files\Exact Audio Copy\Flac\flac.exe
Additional command line options : -T "DATE=%y" -T "GENRE=%m" -8 -V %s
TOC of the extracted CD
Track | Start | Length | Start sector | End sector
---------------------------------------------------------
1 | 0:00.00 | 1:44.50 | 0 | 7849
2 | 1:44.50 | 4:02.35 | 7850 | 26034
3 | 5:47.10 | 4:14.70 | 26035 | 45154
4 | 10:02.05 | 1:41.57 | 45155 | 52786
5 | 11:43.62 | 3:37.43 | 52787 | 69104
6 | 15:21.30 | 2:23.62 | 69105 | 79891
7 | 17:45.17 | 4:19.73 | 79892 | 99389
8 | 22:05.15 | 3:48.40 | 99390 | 116529
9 | 25:53.55 | 5:40.45 | 116530 | 142074
10 | 31:34.25 | 2:32.37 | 142075 | 153511
11 | 34:06.62 | 3:48.38 | 153512 | 170649
12 | 37:55.25 | 4:17.17 | 170650 | 189941
13 | 42:12.42 | 6:41.48 | 189942 | 220064
Range status and errors
Selected range
Filename C:\Pergolesi - La serva padrona.wav
Peak level 90.0 %
Extraction speed 0.2 X
Range quality 100.0 %
Test CRC 7CB0D285
Copy CRC 7CB0D285
Copy OK
No errors occurred
AccurateRip summary
Track 1 cannot be verified as accurate (confidence 36) [1C8A0B72], AccurateRip returned [C26A2064]
Track 2 cannot be verified as accurate (confidence 36) [C5F5AA88], AccurateRip returned [54B92D58]
Track 3 cannot be verified as accurate (confidence 35) [2C5B90A1], AccurateRip returned [8EBF6520]
Track 4 cannot be verified as accurate (confidence 36) [F19FF486], AccurateRip returned [0381F74D]
Track 5 cannot be verified as accurate (confidence 36) [AA26046F], AccurateRip returned [5BE122B3]
Track 6 cannot be verified as accurate (confidence 35) [F3D8CC16], AccurateRip returned [E80D4A78]
Track 7 cannot be verified as accurate (confidence 35) [BE8CCEBF], AccurateRip returned [ED0609E2]
Track 8 cannot be verified as accurate (confidence 36) [A3EE44FE], AccurateRip returned [0A8E979D]
Track 9 cannot be verified as accurate (confidence 35) [0DA56CF5], AccurateRip returned [64EDCB14]
Track 10 cannot be verified as accurate (confidence 36) [89BBE993], AccurateRip returned [D08A6E28]
Track 11 cannot be verified as accurate (confidence 35) [101C54BF], AccurateRip returned [ECA461E1]
Track 12 cannot be verified as accurate (confidence 36) [191987C7], AccurateRip returned [046A1CEA]
Track 13 cannot be verified as accurate (confidence 36) [823FE074], AccurateRip returned [D8A11E40]
No tracks could be verified as accurate
You may have a different pressing from the one(s) in the database
End of status report
==== Log checksum 453A1D21A0A7045525F9D5491F04A72356728E63D3554996F3626DF60DB51DBE ====

CD 08

Exact Audio Copy V1.0 beta 1 from 15. November 2010
EAC extraction logfile from 10. June 2012, 18:14
Regensburger Domspatzen - Collegium Aureum - Ratzinger / Biber - Missa Sancti Henrici, Sonatae Tam Aris Quam Aulis Servientes
Used drive : PIONEER DVD-RW DVR-218L Adapter: 1 ID: 0
Read mode : Secure
Utilize accurate stream : Yes
Defeat audio cache : Yes
Make use of C2 pointers : No
Read offset correction : 6
Overread into Lead-In and Lead-Out : No
Fill up missing offset samples with silence : Yes
Delete leading and trailing silent blocks : No
Null samples used in CRC calculations : Yes
Used interface : Native Win32 interface for Win NT & 2000
Used output format : User Defined Encoder
Selected bitrate : 192 kBit/s
Quality : High
Add ID3 tag : No
Command line compressor : C:\Program Files\Exact Audio Copy\Flac\flac.exe
Additional command line options : -T "DATE=%y" -T "GENRE=%m" -8 -V %s
TOC of the extracted CD
Track | Start | Length | Start sector | End sector
---------------------------------------------------------
1 | 0:00.32 | 7:55.50 | 32 | 35706
2 | 7:56.07 | 8:20.15 | 35707 | 73221
3 | 16:16.22 | 11:50.23 | 73222 | 126494
4 | 28:06.45 | 5:01.35 | 126495 | 149104
5 | 33:08.05 | 3:24.17 | 149105 | 164421
6 | 36:32.22 | 1:28.55 | 164422 | 171076
7 | 38:01.02 | 2:39.08 | 171077 | 183009
8 | 40:40.10 | 1:06.15 | 183010 | 187974
9 | 41:46.25 | 1:32.50 | 187975 | 194924
10 | 43:19.00 | 2:15.50 | 194925 | 205099
11 | 45:34.50 | 1:12.27 | 205100 | 210526
Range status and errors
Selected range
Filename C:\Biber - Missa Sancti Henrici, Sonatae Tam Aris Quam Aulis Servientes.wav
Peak level 97.3 %
Extraction speed 0.0 X
Range quality 100.0 %
Test CRC 9D056A2C
Copy CRC 9D056A2C
Copy OK
No errors occurred
AccurateRip summary
Track 1 cannot be verified as accurate (confidence 2) [D1707A64], AccurateRip returned [48707DC4]
Track 2 cannot be verified as accurate (confidence 2) [C4212075], AccurateRip returned [7B07DBBC]
Track 3 cannot be verified as accurate (confidence 2) [BCF761E6], AccurateRip returned [28D41516]
Track 4 cannot be verified as accurate (confidence 2) [FCDD1E0B], AccurateRip returned [CACE3B59]
Track 5 cannot be verified as accurate (confidence 2) [4594FABD], AccurateRip returned [B1E854DE]
Track 6 cannot be verified as accurate (confidence 2) [E06B0D40], AccurateRip returned [A943D367]
Track 7 cannot be verified as accurate (confidence 2) [C8C67D43], AccurateRip returned [A87ACCA2]
Track 8 cannot be verified as accurate (confidence 2) [A1E31467], AccurateRip returned [7F4A9FF3]
Track 9 cannot be verified as accurate (confidence 2) [2DCE4C24], AccurateRip returned [D5B8BCB9]
Track 10 cannot be verified as accurate (confidence 2) [36877C9A], AccurateRip returned [11B9DADA]
Track 11 cannot be verified as accurate (confidence 2) [51AE60F1], AccurateRip returned [7D6D9A0F]
No tracks could be verified as accurate
You may have a different pressing from the one(s) in the database
End of status report
==== Log checksum A33C98F23981C4E66BC36CB44CF9B560A779D120C2224F951561740BAB814B31 ====

CD 09

Exact Audio Copy V1.0 beta 1 from 15. November 2010
EAC extraction logfile from 10. June 2012, 21:45
Collegium Aureum - Franzjosef Maier / Mozart - Klarinettenkonzert K622, Oboenkonzert K314
Used drive : PIONEER DVD-RW DVR-218L Adapter: 1 ID: 0
Read mode : Secure
Utilize accurate stream : Yes
Defeat audio cache : Yes
Make use of C2 pointers : No
Read offset correction : 6
Overread into Lead-In and Lead-Out : No
Fill up missing offset samples with silence : Yes
Delete leading and trailing silent blocks : No
Null samples used in CRC calculations : Yes
Used interface : Native Win32 interface for Win NT & 2000
Used output format : User Defined Encoder
Selected bitrate : 192 kBit/s
Quality : High
Add ID3 tag : No
Command line compressor : C:\Program Files\Exact Audio Copy\Flac\flac.exe
Additional command line options : -T "DATE=%y" -T "GENRE=%m" -8 -V %s
TOC of the extracted CD
Track | Start | Length | Start sector | End sector
---------------------------------------------------------
1 | 0:00.00 | 12:01.72 | 0 | 54146
2 | 12:01.72 | 7:13.63 | 54147 | 86684
3 | 19:15.60 | 9:03.20 | 86685 | 127429
4 | 28:19.05 | 7:16.15 | 127430 | 160144
5 | 35:35.20 | 6:29.45 | 160145 | 189364
6 | 42:04.65 | 5:51.62 | 189365 | 215751
Range status and errors
Selected range
Filename C:\Mozart - Klarinettenkonzert K622, Oboenkonzert K314.wav
Peak level 91.1 %
Extraction speed 0.1 X
Range quality 99.9 %
Test CRC 4F3F25A9
Copy CRC 4F3F25A9
Copy OK
No errors occurred
AccurateRip summary
Track 1 cannot be verified as accurate (confidence 3) [AFA08208], AccurateRip returned [2A38DE60]
Track 2 cannot be verified as accurate (confidence 3) [9023EEFD], AccurateRip returned [D2204BD1]
Track 3 cannot be verified as accurate (confidence 3) [82CAA13F], AccurateRip returned [7B2121AF]
Track 4 cannot be verified as accurate (confidence 3) [0176F7A7], AccurateRip returned [F16836B3]
Track 5 cannot be verified as accurate (confidence 3) [DC2A4430], AccurateRip returned [A32019E4]
Track 6 cannot be verified as accurate (confidence 3) [8CBED6B6], AccurateRip returned [66B42F76]
No tracks could be verified as accurate
You may have a different pressing from the one(s) in the database
End of status report
==== Log checksum 204081A331ACE8001AB326009A3FAD161A02329436BC412EE8CACF5E15710C57 ====

CD 10

Exact Audio Copy V1.0 beta 1 from 15. November 2010
EAC extraction logfile from 10. June 2012, 23:12
Toelzer Knabenchor - Collegium Aureum / Mozart - Coronation Mass K317, Vesperae solennes de confessore K339
Used drive : PIONEER DVD-RW DVR-218L Adapter: 1 ID: 0
Read mode : Secure
Utilize accurate stream : Yes
Defeat audio cache : Yes
Make use of C2 pointers : No
Read offset correction : 6
Overread into Lead-In and Lead-Out : No
Fill up missing offset samples with silence : Yes
Delete leading and trailing silent blocks : No
Null samples used in CRC calculations : Yes
Used interface : Native Win32 interface for Win NT & 2000
Used output format : User Defined Encoder
Selected bitrate : 192 kBit/s
Quality : High
Add ID3 tag : No
Command line compressor : C:\Program Files\Exact Audio Copy\Flac\flac.exe
Additional command line options : -T "DATE=%y" -T "GENRE=%m" -8 -V %s
TOC of the extracted CD
Track | Start | Length | Start sector | End sector
---------------------------------------------------------
1 | 0:00.00 | 2:45.70 | 0 | 12444
2 | 2:45.70 | 4:26.10 | 12445 | 32404
3 | 7:12.05 | 6:00.10 | 32405 | 59414
4 | 13:12.15 | 1:32.63 | 59415 | 66377
5 | 14:45.03 | 3:08.52 | 66378 | 80529
6 | 17:53.55 | 5:58.25 | 80530 | 107404
7 | 23:52.05 | 3:43.68 | 107405 | 124197
8 | 27:35.73 | 4:50.47 | 124198 | 145994
9 | 32:26.45 | 4:40.50 | 145995 | 167044
10 | 37:07.20 | 3:18.13 | 167045 | 181907
11 | 40:25.33 | 4:19.62 | 181908 | 201394
12 | 44:45.20 | 4:21.25 | 201395 | 220994
13 | 49:06.45 | 13:37.43 | 220995 | 282312
Range status and errors
Selected range
Filename C:\Mozart - Coronation Mass K317, Vesperae solennes de confessore K339.wav
Peak level 98.9 %
Extraction speed 0.3 X
Range quality 100.0 %
Test CRC D2042735
Copy CRC D2042735
Copy OK
No errors occurred
AccurateRip summary
Track 1 cannot be verified as accurate (confidence 2) [555E9570], AccurateRip returned [A1CAA838]
Track 2 cannot be verified as accurate (confidence 2) [560B6315], AccurateRip returned [D7139792]
Track 3 cannot be verified as accurate (confidence 2) [31688F5B], AccurateRip returned [674EB1D8]
Track 4 cannot be verified as accurate (confidence 2) [B7F91DDD], AccurateRip returned [B7FF948F]
Track 5 cannot be verified as accurate (confidence 2) [624FC33D], AccurateRip returned [B7D86505]
Track 6 cannot be verified as accurate (confidence 2) [1E9F333C], AccurateRip returned [90B12AF9]
Track 7 cannot be verified as accurate (confidence 2) [53CED515], AccurateRip returned [05F97B76]
Track 8 cannot be verified as accurate (confidence 2) [D86217CD], AccurateRip returned [76545FF0]
Track 9 cannot be verified as accurate (confidence 2) [41C89530], AccurateRip returned [09CFE863]
Track 10 cannot be verified as accurate (confidence 2) [4A897D89], AccurateRip returned [9B23F4BC]
Track 11 cannot be verified as accurate (confidence 2) [7D70251C], AccurateRip returned [2D88BEA9]
Track 12 cannot be verified as accurate (confidence 2) [D9F68EC2], AccurateRip returned [4720DA68]
Track 13 cannot be verified as accurate (confidence 2) [A9A2A702], AccurateRip returned [61511E3D]
No tracks could be verified as accurate
You may have a different pressing from the one(s) in the database
End of status report
==== Log checksum 203D0692B0B696F5643E5299CB29D738B4D630639842EDCA2DC9FF7E02658999 ====
[teatrix.ru].t9729.torrent 
Торрент: Зарегистрирован [ 2015-10-23 17:11 ] · F5081EB775FDADB3D1209B868AD6EE65D062CBD9

Скачать .torrent

Скачать

22 KB

Статус: проверено
Скачан: 0 раз
Размер: 2.74 GB
terms.php



Быстрый ответ

Имя:

      
Для отправки сообщений необходимо включить JavaScript
Показать сообщения:    

Текущее время: 08-Дек 17:19

Часовой пояс: UTC + 3


Вы можете начинать темы
Вы можете отвечать на сообщения
Вы не можете редактировать свои сообщения
Вы не можете удалять свои сообщения
Вы не можете голосовать в опросах
Вы не можете прикреплять файлы к сообщениям
Вы можете скачивать файлы