(Classical) Witold Lutoslawski - Centenary Edition. (Gold Collection 8CDs) - 2012, FLAC (image+.cue) lossless


Статистика раздачи [Обновить пиров]
Размер:  2.09 GB   |    Зарегистрирован:  1 год 1 месяц   |    Скачан:  0 раз

Полного источника не было: Никогда

Личеров:  4  [  0 KB/s  ]   Подробная статистика пиров
 
   
 
 
 

[Цитировать]

Witold Lutosławski - Centenary Edition. (Gold Collection 8CDs)
Жанр: Classical
Год издания диска: 2012
Издатель (лейбл): Polskie Nagrania
Номер по каталогу: PNCD BOX 0009 A/H
Аудиокодек: FLAC
Тип рипа: image+.cue
Битрейт аудио: lossless
Продолжительность: 8:38;13
Источник: собственный рип
Наличие сканов в содержимом раздачи: да (только обложки)
Треклист и исполнители:
CD1 [1:12;52]
[1] Lacrimosa
[2-5] I Symfonia / Symphony No. 1
[6-8] Koncert na orkiestrę / Concerto for Orchestra
[9] Musique funebre
Stefania Woytowicz - soprano [CD1] (1)
The Silesian Philharmonic Choir [CD1] (1)
The Polish Radio National Symphony Orchestra [CD1] (1)
Warsaw Philharmonic Symphony Orchestra [CD1] (2-9)
Witold Lutoslawski - conductor [CD1] (1-5)
Witold Rowicki - conductor [CD1] (6-9)

CD2 [1:04;52]
[1-4] Jeux vénitiens
[5-7] Trois poèmes d'Henri Michaux
[8-9] II Symfonia / Symphony No. 2
Warsaw Philharmonic Symphony Orchestra [CD2] (1-4,8-9)
The Polish Radio Choir [CD2] (5-7)
The Polish Radio National Symphony Orchestra [CD2] (5-7)
Witold Lutoslawski - conductor [CD2] (5-7,8-9)
Witold Rowicki - conductor [CD2] (1-4)
Jan Krenz - conductor [CD2] (5-7)

CD3 [1:03;17]
[1] Postludium I / Postludium No. 1
[2] Paroles tissées
[3] Livre pour orchestre
[4] Koncert na wiolonczelę i orkiestrę / Concerto for Cello and Orchestra
Louis Devos - tenor [CD3] (2)
Roman Jabtoriski - cello [CD3] (4)
Warsaw Philharmonic Chamber Ensemble [CD3] (2,3)
The Polish Radio National Symphony Orchestra [CD3] (1,4)
Witold Lutoslawski - conductor [CD3] (2,4)
Jan Krenz - conductor [CD3] (1,3)

CD4 [1:06;38]
[1-2] Preludia i fuga / Preludes and a Fugue
[3] Mi - parti
[4] Novelette
Warsaw Philharmonic Chamber Ensemble [CD4] (1-2)
The Polish Radio National Symphony Orchestra [CD4] (3)
Witold Lutoslawski - conductor [CD4] (1-3)
Junge Deutsche Philharmonie [CD4] (4)
Heinz Holliger - conductor [CD4] (4)

CD5 [1:09;17]
[1] III Symfonia / Symphony No. 3
[2] Łańcuch I / Chain 1
[3-6] Łańcuch II* / Chain 2
[7] Łańcuch III / Chain 3
Krzysztof Jakowicz - violin [CD5] (3-6)
Warsaw Philharmonic Symphony Orchestra [CD5] (1,3-6)
Junge Deutsche Philharmonie [CD5] (2)
The Polish Radio National Symphony Orchestra [CD5] (7)
Witold Lutoslawski - conductor [CD5] (1,7)
Heinz Holliger - conductor [CD5] (2)
Kazimierz Kord - conductor [CD5] (3-6)

CD6 [1:13;42]
[1] Dwie etiudy / Two Studies
[2] Wariacje na temat Paganiniego
[3-7] Pięć pieśni do słów Kazimiery Iłłakowiczówny / Five Songs to poems by Kazimiera Iłłakowiczówna
[8] Kwartet smyczkowy / String Quartet*
[9] Epitafium / Epitaph*
[10] Grave
[11] Partita

Halina Lukomska - soprano [CD6] (3-7)
Marek Drewnowski - piano [CD6] (1)
Jacek Lukaszczyk - piano [CD6] (2)
Maciej Lukaszczyk - piano [CD6] (2)
LaSalle String Quartet: [CD6] (8)
Walter Levin - 1st violin
Henry Meyer - 2nd violin
Peter Kamnitzer - viola
Jack Kirstein - cello
Heinz Holliger - oboe [CD6] (9)
Szabolcs Esztenyi - piano [CD6] (9,10)
Roman Jablonski - cello [CD6] (10)
Konstanty Andrzej Kulka - violin [CD6] (11)
Eugeniusz Knapik - piano [CD6] (11)
Warsaw Philharmonic Symphony Orchestra [CD6] (3-7)
Andrzej Markowski - conductor [CD6] (3-7)

CD7 [1:06;45]
[1-4] Koncert na fortepian i orkiestrę / Concerto for Piano and Orchestra
[5-13] Chantefleurs et Chantefables*
[14] IV Symfonia /Symphony No. 4*
Solveig Kringlebotn - soprano [CD7] (5-13)
Ewa Pobtocka - piano [CD7] (1-4)
The Polish Radio National Symphony Orchestra [CD7] (1-4)
Sinfonia Varsovia [CD7] (5-13)
Warsaw Philharmonic Symphony Orchestra [CD7] (1-4,14)
Witold Lutoslawski - conductor [CD7] (1-14)

CD8 [41;03]
[1] Parita
[2] Interludium*
[3-6] Łańcuch II / Chain 2
Krzysztof Jakowicz - violin [CD8] (1,3-6)
Krystyna Borucinska - piano [CD8] (1)
Sinfonia Varsovia [CD8] (1,2)
The Polish Radio National Symphony Orchestra [CD8] (3-6)
Wojciech Michniewski - conductor [CD8] (1)
Witold Lutoslawski - conductor [CD8] (2,3-6)

* pierwsze wykonanie w Polsce (* first performance in Poland)

LOG EAC

CD1

Exact Audio Copy V1.0 beta 3 from 29. August 2011
EAC extraction logfile from 12. January 2014, 11:04
- / Witold Lutoslawski Gold Collection - CD1
Used drive : ATAPI iHAS122 C Adapter: 0 ID: 2
Read mode : Secure
Utilize accurate stream : Yes
Defeat audio cache : Yes
Make use of C2 pointers : No
Read offset correction : 6
Overread into Lead-In and Lead-Out : No
Fill up missing offset samples with silence : Yes
Delete leading and trailing silent blocks : No
Null samples used in CRC calculations : Yes
Used interface : Installed external ASPI interface
Used output format : User Defined Encoder
Selected bitrate : 192 kBit/s
Quality : High
Add ID3 tag : No
Command line compressor : C:\Program Files\Exact Audio Copy\Flac\flac.exe
Additional command line options : -V -8 -T "Date=%year%" -T "Genre=%genre%" %source%
TOC of the extracted CD
Track | Start | Length | Start sector | End sector
---------------------------------------------------------
1 | 0:00.00 | 3:29.05 | 0 | 15679
2 | 3:29.05 | 4:59.50 | 15680 | 38154
3 | 8:28.55 | 9:20.68 | 38155 | 80222
4 | 17:49.48 | 4:51.33 | 80223 | 102080
5 | 22:41.06 | 5:44.34 | 102081 | 127914
6 | 28:25.40 | 7:50.44 | 127915 | 163208
7 | 36:16.09 | 5:51.19 | 163209 | 189552
8 | 42:07.28 | 16:40.55 | 189553 | 264607
9 | 58:48.08 | 14:01.67 | 264608 | 327749
Range status and errors
Selected range
Filename C:\Program Files\Exact Audio Copy\Flac\Witold Lutoslawski Gold Collection - CD1.wav
Peak level 98.4 %
Extraction speed 9.5 X
Range quality 100.0 %
Test CRC 23835B66
Copy CRC 23835B66
Copy OK
No errors occurred
AccurateRip summary
Track 1 not present in database
Track 2 not present in database
Track 3 not present in database
Track 4 not present in database
Track 5 not present in database
Track 6 not present in database
Track 7 not present in database
Track 8 not present in database
Track 9 not present in database
None of the tracks are present in the AccurateRip database
End of status report
==== Log checksum 5546E04953FD5A2E9829E504FC9AEBB1EA6F40385FF69271441590BC2284CD28 ====

CD2

Exact Audio Copy V1.0 beta 3 from 29. August 2011
EAC extraction logfile from 12. January 2014, 11:44
- / Witold Lutoslawski Gold Collection - CD2
Used drive : ATAPI iHAS122 C Adapter: 0 ID: 2
Read mode : Secure
Utilize accurate stream : Yes
Defeat audio cache : Yes
Make use of C2 pointers : No
Read offset correction : 6
Overread into Lead-In and Lead-Out : No
Fill up missing offset samples with silence : Yes
Delete leading and trailing silent blocks : No
Null samples used in CRC calculations : Yes
Used interface : Installed external ASPI interface
Used output format : User Defined Encoder
Selected bitrate : 192 kBit/s
Quality : High
Add ID3 tag : No
Command line compressor : C:\Program Files\Exact Audio Copy\Flac\flac.exe
Additional command line options : -V -8 -T "Date=%year%" -T "Genre=%genre%" %source%
TOC of the extracted CD
Track | Start | Length | Start sector | End sector
---------------------------------------------------------
1 | 0:00.00 | 3:19.08 | 0 | 14932
2 | 3:19.08 | 1:44.11 | 14933 | 22743
3 | 5:03.19 | 3:03.48 | 22744 | 36516
4 | 8:06.67 | 4:32.57 | 36517 | 56973
5 | 12:39.49 | 7:10.39 | 56974 | 89262
6 | 19:50.13 | 6:02.64 | 89263 | 116476
7 | 25:53.02 | 7:22.56 | 116477 | 149682
8 | 33:15.58 | 14:49.64 | 149683 | 216421
9 | 48:05.47 | 16:44.42 | 216422 | 291763
Range status and errors
Selected range
Filename C:\Program Files\Exact Audio Copy\Flac\Witold Lutoslawski Gold Collection - CD2.wav
Peak level 97.6 %
Extraction speed 4.1 X
Range quality 99.9 %
Test CRC 0C2EE9CC
Copy CRC 0C2EE9CC
Copy OK
No errors occurred
AccurateRip summary
Track 1 not present in database
Track 2 not present in database
Track 3 not present in database
Track 4 not present in database
Track 5 not present in database
Track 6 not present in database
Track 7 not present in database
Track 8 not present in database
Track 9 not present in database
None of the tracks are present in the AccurateRip database
End of status report
==== Log checksum B22C26A49C5B89DB71C1DEB346941107272AA3DAD04C9C1E0F1AD0A355B5A4CE ====

CD3

Exact Audio Copy V1.0 beta 3 from 29. August 2011
EAC extraction logfile from 12. January 2014, 12:12
- / Witold Lutoslawski Gold Collection - CD3
Used drive : ATAPI iHAS122 C Adapter: 0 ID: 2
Read mode : Secure
Utilize accurate stream : Yes
Defeat audio cache : Yes
Make use of C2 pointers : No
Read offset correction : 6
Overread into Lead-In and Lead-Out : No
Fill up missing offset samples with silence : Yes
Delete leading and trailing silent blocks : No
Null samples used in CRC calculations : Yes
Used interface : Installed external ASPI interface
Used output format : User Defined Encoder
Selected bitrate : 192 kBit/s
Quality : High
Add ID3 tag : No
Command line compressor : C:\Program Files\Exact Audio Copy\Flac\flac.exe
Additional command line options : -V -8 -T "Date=%year%" -T "Genre=%genre%" %source%
TOC of the extracted CD
Track | Start | Length | Start sector | End sector
---------------------------------------------------------
1 | 0:00.00 | 3:54.60 | 0 | 17609
2 | 3:54.60 | 16:00.71 | 17610 | 89680
3 | 19:55.56 | 21:03.53 | 89681 | 184458
4 | 40:59.34 | 22:15.69 | 184459 | 284652
Range status and errors
Selected range
Filename C:\Program Files\Exact Audio Copy\Flac\Witold Lutoslawski Gold Collection - CD3.wav
Peak level 97.8 %
Extraction speed 5.8 X
Range quality 100.0 %
Test CRC 1281EC8B
Copy CRC 1281EC8B
Copy OK
No errors occurred
AccurateRip summary
Track 1 not present in database
Track 2 not present in database
Track 3 not present in database
Track 4 not present in database
None of the tracks are present in the AccurateRip database
End of status report
==== Log checksum A6D0DE599ACAE1858C1510DAE05841B7C0F902F11925ECB3EC32824362C18CF4 ====

CD4

Exact Audio Copy V1.0 beta 3 from 29. August 2011
EAC extraction logfile from 12. January 2014, 12:33
- / Witold Lutoslawski Gold Collection - CD4
Used drive : ATAPI iHAS122 C Adapter: 0 ID: 2
Read mode : Secure
Utilize accurate stream : Yes
Defeat audio cache : Yes
Make use of C2 pointers : No
Read offset correction : 6
Overread into Lead-In and Lead-Out : No
Fill up missing offset samples with silence : Yes
Delete leading and trailing silent blocks : No
Null samples used in CRC calculations : Yes
Used interface : Installed external ASPI interface
Used output format : User Defined Encoder
Selected bitrate : 192 kBit/s
Quality : High
Add ID3 tag : No
Command line compressor : C:\Program Files\Exact Audio Copy\Flac\flac.exe
Additional command line options : -V -8 -T "Date=%year%" -T "Genre=%genre%" %source%
TOC of the extracted CD
Track | Start | Length | Start sector | End sector
---------------------------------------------------------
1 | 0:00.00 | 18:00.33 | 0 | 81032
2 | 18:00.33 | 18:01.47 | 81033 | 162154
3 | 36:02.05 | 14:31.39 | 162155 | 227518
4 | 50:33.44 | 16:02.35 | 227519 | 299703
Range status and errors
Selected range
Filename C:\Program Files\Exact Audio Copy\Flac\Witold Lutoslawski Gold Collection - CD4.wav
Peak level 98.4 %
Extraction speed 7.4 X
Range quality 99.9 %
Test CRC 7809831B
Copy CRC 7809831B
Copy OK
No errors occurred
AccurateRip summary
Track 1 not present in database
Track 2 not present in database
Track 3 not present in database
Track 4 not present in database
None of the tracks are present in the AccurateRip database
End of status report
==== Log checksum 168BB70CD7CC12B8DA523CA76B54899AB33791C14E22D615EA934AD35AA2CA2B ====

CD5

Exact Audio Copy V1.0 beta 3 from 29. August 2011
EAC extraction logfile from 12. January 2014, 13:07
- / Witold Lutoslawski Gold Collection - CD5
Used drive : ATAPI iHAS122 C Adapter: 0 ID: 2
Read mode : Secure
Utilize accurate stream : Yes
Defeat audio cache : Yes
Make use of C2 pointers : No
Read offset correction : 6
Overread into Lead-In and Lead-Out : No
Fill up missing offset samples with silence : Yes
Delete leading and trailing silent blocks : No
Null samples used in CRC calculations : Yes
Used interface : Installed external ASPI interface
Used output format : User Defined Encoder
Selected bitrate : 192 kBit/s
Quality : High
Add ID3 tag : No
Command line compressor : C:\Program Files\Exact Audio Copy\Flac\flac.exe
Additional command line options : -V -8 -T "Date=%year%" -T "Genre=%genre%" %source%
TOC of the extracted CD
Track | Start | Length | Start sector | End sector
---------------------------------------------------------
1 | 0:00.00 | 29:23.46 | 0 | 132270
2 | 29:23.46 | 9:30.19 | 132271 | 175039
3 | 38:53.65 | 4:06.73 | 175040 | 193562
4 | 43:00.63 | 4:37.51 | 193563 | 214388
5 | 47:38.39 | 5:55.31 | 214389 | 241044
6 | 53:33.70 | 4:11.15 | 241045 | 259884
7 | 57:45.10 | 11:30.53 | 259885 | 311687
Range status and errors
Selected range
Filename C:\Program Files\Exact Audio Copy\Flac\Witold Lutoslawski Gold Collection - CD5.wav
Peak level 97.9 %
Extraction speed 8.8 X
Range quality 100.0 %
Test CRC 9C27890C
Copy CRC 9C27890C
Copy OK
No errors occurred
AccurateRip summary
Track 1 not present in database
Track 2 not present in database
Track 3 not present in database
Track 4 not present in database
Track 5 not present in database
Track 6 not present in database
Track 7 not present in database
None of the tracks are present in the AccurateRip database
End of status report
==== Log checksum FD1D48DD5EA511905CBC28186B6AAE7602742CB116F06A077DC18028AE066F75 ====

CD6

Exact Audio Copy V1.0 beta 3 from 29. August 2011
EAC extraction logfile from 12. January 2014, 13:40
- / Witold Lutoslawski Gold Collection - CD6
Used drive : ATAPI iHAS122 C Adapter: 0 ID: 2
Read mode : Secure
Utilize accurate stream : Yes
Defeat audio cache : Yes
Make use of C2 pointers : No
Read offset correction : 6
Overread into Lead-In and Lead-Out : No
Fill up missing offset samples with silence : Yes
Delete leading and trailing silent blocks : No
Null samples used in CRC calculations : Yes
Used interface : Installed external ASPI interface
Used output format : User Defined Encoder
Selected bitrate : 192 kBit/s
Quality : High
Add ID3 tag : No
Command line compressor : C:\Program Files\Exact Audio Copy\Flac\flac.exe
Additional command line options : -V -8 -T "Date=%year%" -T "Genre=%genre%" %source%
TOC of the extracted CD
Track | Start | Length | Start sector | End sector
---------------------------------------------------------
1 | 0:00.00 | 4:25.06 | 0 | 19880
2 | 4:25.06 | 6:14.09 | 19881 | 47939
3 | 10:39.15 | 3:47.68 | 47940 | 65032
4 | 14:27.08 | 1:15.50 | 65033 | 70707
5 | 15:42.58 | 3:09.00 | 70708 | 84882
6 | 18:51.58 | 1:24.30 | 84883 | 91212
7 | 20:16.13 | 2:11.31 | 91213 | 101068
8 | 22:27.44 | 25:23.57 | 101069 | 215350
9 | 47:51.26 | 5:09.70 | 215351 | 238595
10 | 53:01.21 | 5:36.23 | 238596 | 263818
11 | 58:37.44 | 15:02.57 | 263819 | 331525
Range status and errors
Selected range
Filename C:\Program Files\Exact Audio Copy\Flac\Witold Lutoslawski Gold Collection - CD6.wav
Peak level 97.7 %
Extraction speed 6.2 X
Range quality 100.0 %
Test CRC 25A56AC8
Copy CRC 25A56AC8
Copy OK
No errors occurred
AccurateRip summary
Track 1 not present in database
Track 2 not present in database
Track 3 not present in database
Track 4 not present in database
Track 5 not present in database
Track 6 not present in database
Track 7 not present in database
Track 8 not present in database
Track 9 not present in database
Track 10 not present in database
Track 11 not present in database
None of the tracks are present in the AccurateRip database
End of status report
==== Log checksum EEB774001536527A1B2AB35A253A7194722A7CBA9741446386EC0C7121D8DDCA ====

CD7

Exact Audio Copy V1.0 beta 3 from 29. August 2011
EAC extraction logfile from 12. January 2014, 14:18
- / Witold Lutoslawski Gold Collection - CD7
Used drive : ATAPI iHAS122 C Adapter: 0 ID: 2
Read mode : Secure
Utilize accurate stream : Yes
Defeat audio cache : Yes
Make use of C2 pointers : No
Read offset correction : 6
Overread into Lead-In and Lead-Out : No
Fill up missing offset samples with silence : Yes
Delete leading and trailing silent blocks : No
Null samples used in CRC calculations : Yes
Used interface : Installed external ASPI interface
Used output format : User Defined Encoder
Selected bitrate : 192 kBit/s
Quality : High
Add ID3 tag : No
Command line compressor : C:\Program Files\Exact Audio Copy\Flac\flac.exe
Additional command line options : -V -8 -T "Date=%year%" -T "Genre=%genre%" %source%
TOC of the extracted CD
Track | Start | Length | Start sector | End sector
---------------------------------------------------------
1 | 0:00.00 | 5:21.29 | 0 | 24103
2 | 5:21.29 | 4:54.42 | 24104 | 46195
3 | 10:15.71 | 6:39.52 | 46196 | 76172
4 | 16:55.48 | 7:57.21 | 76173 | 111968
5 | 24:52.69 | 2:22.30 | 111969 | 122648
6 | 27:15.24 | 1:37.59 | 122649 | 129982
7 | 28:53.08 | 2:29.51 | 129983 | 141208
8 | 31:22.59 | 1:39.05 | 141209 | 148638
9 | 33:01.64 | 1:55.23 | 148639 | 157286
10 | 34:57.12 | 2:31.31 | 157287 | 168642
11 | 37:28.43 | 2:38.15 | 168643 | 180507
12 | 40:06.58 | 2:27.69 | 180508 | 191601
13 | 42:34.52 | 1:57.04 | 191602 | 200380
14 | 44:31.56 | 22:11.04 | 200381 | 300209
Range status and errors
Selected range
Filename C:\Program Files\Exact Audio Copy\Flac\Witold Lutoslawski Gold Collection - CD7.wav
Peak level 97.9 %
Extraction speed 4.3 X
Range quality 99.9 %
Test CRC 4508AC25
Copy CRC 4508AC25
Copy OK
No errors occurred
AccurateRip summary
Track 1 not present in database
Track 2 not present in database
Track 3 not present in database
Track 4 not present in database
Track 5 not present in database
Track 6 not present in database
Track 7 not present in database
Track 8 not present in database
Track 9 not present in database
Track 10 not present in database
Track 11 not present in database
Track 12 not present in database
Track 13 not present in database
Track 14 not present in database
None of the tracks are present in the AccurateRip database
End of status report
==== Log checksum F6F5DC13F4939491BCE09910322EF36F24756A21B7189B838B5E507A52E524B1 ====

CD8

Exact Audio Copy V1.0 beta 3 from 29. August 2011
EAC extraction logfile from 12. January 2014, 14:33
- / Witold Lutoslawski Gold Collection - CD8
Used drive : ATAPI iHAS122 C Adapter: 0 ID: 2
Read mode : Secure
Utilize accurate stream : Yes
Defeat audio cache : Yes
Make use of C2 pointers : No
Read offset correction : 6
Overread into Lead-In and Lead-Out : No
Fill up missing offset samples with silence : Yes
Delete leading and trailing silent blocks : No
Null samples used in CRC calculations : Yes
Used interface : Installed external ASPI interface
Used output format : User Defined Encoder
Selected bitrate : 192 kBit/s
Quality : High
Add ID3 tag : No
Command line compressor : C:\Program Files\Exact Audio Copy\Flac\flac.exe
Additional command line options : -V -8 -T "Date=%year%" -T "Genre=%genre%" %source%
TOC of the extracted CD
Track | Start | Length | Start sector | End sector
---------------------------------------------------------
1 | 0:00.00 | 16:00.40 | 0 | 72039
2 | 16:00.40 | 6:48.13 | 72040 | 102652
3 | 22:48.53 | 3:35.55 | 102653 | 118832
4 | 26:24.33 | 4:55.00 | 118833 | 140957
5 | 31:19.33 | 5:24.18 | 140958 | 165275
6 | 36:43.51 | 4:21.58 | 165276 | 184908
Range status and errors
Selected range
Filename C:\Program Files\Exact Audio Copy\Flac\Witold Lutoslawski Gold Collection - CD8.wav
Peak level 97.7 %
Extraction speed 8.1 X
Range quality 99.9 %
Test CRC 871E2A45
Copy CRC 871E2A45
Copy OK
No errors occurred
AccurateRip summary
Track 1 not present in database
Track 2 not present in database
Track 3 not present in database
Track 4 not present in database
Track 5 not present in database
Track 6 not present in database
None of the tracks are present in the AccurateRip database
End of status report
==== Log checksum 0A494C933198DDE54CAC48E9136005042607AE7A3CE716D5D5A013F2325BF86C ====

Содержание индексной карты (.CUE)

CD1

REM GENRE Classical
REM DATE 2001
REM DISCID 60111209
REM COMMENT "ExactAudioCopy v1.0b3"
PERFORMER ""
TITLE "Witold Lutoslawski Gold Collection - CD1"
FILE "Witold Lutoslawski Gold Collection - CD1.flac" WAVE
TRACK 01 AUDIO
TITLE "Lacrimosa"
PERFORMER ""
INDEX 01 00:00:00
TRACK 02 AUDIO
TITLE "Symphony No. 1- I. Allegro giusto"
PERFORMER ""
INDEX 01 03:29:05
TRACK 03 AUDIO
TITLE "II. Poco adagio"
PERFORMER ""
INDEX 01 08:28:55
TRACK 04 AUDIO
TITLE "III. Allegretto misterioso"
PERFORMER ""
INDEX 01 17:49:48
TRACK 05 AUDIO
TITLE "IV. Allegro vivace"
PERFORMER ""
INDEX 01 22:41:06
TRACK 06 AUDIO
TITLE "Concerto for Orchestra- I. Intrada"
PERFORMER ""
INDEX 01 28:25:40
TRACK 07 AUDIO
TITLE "II. Capriccio notturno e Arioso"
PERFORMER ""
INDEX 01 36:16:09
TRACK 08 AUDIO
TITLE "III. Passacaglia, Toccata e Corale"
PERFORMER ""
INDEX 01 42:07:28
TRACK 09 AUDIO
TITLE "Musique funebre"
PERFORMER ""
INDEX 01 58:48:08

CD2

REM GENRE Classical
REM DATE 2001
REM DISCID 7F0F3209
REM COMMENT "ExactAudioCopy v1.0b3"
PERFORMER ""
TITLE "Witold Lutoslawski Gold Collection - CD2"
FILE "Witold Lutoslawski Gold Collection - CD2.flac" WAVE
TRACK 01 AUDIO
TITLE "Jeux venitiens I."
PERFORMER ""
INDEX 01 00:00:00
TRACK 02 AUDIO
TITLE "Jeux venitiens II."
PERFORMER ""
INDEX 01 03:19:08
TRACK 03 AUDIO
TITLE "Jeux venitiens III."
PERFORMER ""
INDEX 01 05:03:19
TRACK 04 AUDIO
TITLE "Jeux venitiens IV."
PERFORMER ""
INDEX 01 08:06:67
TRACK 05 AUDIO
TITLE "Trois poemes d'Henri Michaux- I. Pensees"
PERFORMER ""
INDEX 01 12:39:49
TRACK 06 AUDIO
TITLE "II. Le grand combat"
PERFORMER ""
INDEX 01 19:50:13
TRACK 07 AUDIO
TITLE "III. Repos dans le Malheur"
PERFORMER ""
INDEX 01 25:53:02
TRACK 08 AUDIO
TITLE "Symphony No. 2- I. Hesitant"
PERFORMER ""
INDEX 01 33:15:58
TRACK 09 AUDIO
TITLE "II. Direct"
PERFORMER ""
INDEX 01 48:05:47

CD3

REM GENRE Classical
REM DATE 2001
REM DISCID 2C0ED304
REM COMMENT "ExactAudioCopy v1.0b3"
PERFORMER ""
TITLE "Witold Lutoslawski Gold Collection - CD3"
FILE "Witold Lutoslawski Gold Collection - CD3.flac" WAVE
TRACK 01 AUDIO
TITLE "Postludium No. 1"
PERFORMER ""
INDEX 01 00:00:00
TRACK 02 AUDIO
TITLE "Paroles tissees"
PERFORMER ""
INDEX 01 03:54:60
TRACK 03 AUDIO
TITLE "Livre Pour Orchestre"
PERFORMER ""
INDEX 01 19:55:56
TRACK 04 AUDIO
TITLE "Concerto For Cello and Orchestra"
PERFORMER ""
INDEX 01 40:59:34

CD4

REM GENRE Classical
REM DATE 2001
REM DISCID 250F9C04
REM COMMENT "ExactAudioCopy v1.0b3"
PERFORMER ""
TITLE "Witold Lutoslawski Gold Collection - CD4"
FILE "Witold Lutoslawski Gold Collection - CD4.flac" WAVE
TRACK 01 AUDIO
TITLE "Preludes No. 1-7"
PERFORMER ""
INDEX 01 00:00:00
TRACK 02 AUDIO
TITLE "Fugue"
PERFORMER ""
INDEX 01 18:00:33
TRACK 03 AUDIO
TITLE "Mi-parti"
PERFORMER ""
INDEX 01 36:02:05
TRACK 04 AUDIO
TITLE "Novelette"
PERFORMER ""
INDEX 01 50:33:44

CD5

REM GENRE Classical
REM DATE 2001
REM DISCID 62103B07
REM COMMENT "ExactAudioCopy v1.0b3"
PERFORMER ""
TITLE "Witold Lutoslawski Gold Collection - CD5"
FILE "Witold Lutoslawski Gold Collection - CD5.flac" WAVE
TRACK 01 AUDIO
TITLE "Symphony No. 3"
PERFORMER ""
INDEX 01 00:00:00
TRACK 02 AUDIO
TITLE "Chain 1"
PERFORMER ""
INDEX 01 29:23:46
TRACK 03 AUDIO
TITLE "Chain 2- I. Ad libitum"
PERFORMER ""
INDEX 01 38:53:65
TRACK 04 AUDIO
TITLE "II. A battuta"
PERFORMER ""
INDEX 01 43:00:63
TRACK 05 AUDIO
TITLE "III. Ad libitum"
PERFORMER ""
INDEX 01 47:38:39
TRACK 06 AUDIO
TITLE "IV. A battuta - ad libitum - a battuta"
PERFORMER ""
INDEX 01 53:33:70
TRACK 07 AUDIO
TITLE "Chain 3"
PERFORMER ""
INDEX 01 57:45:10

CD6

REM DATE 2001
REM DISCID 9E11440B
REM COMMENT "ExactAudioCopy v1.0b3"
PERFORMER ""
TITLE "Witold Lutoslawski Gold Collection - CD6"
FILE "Witold Lutoslawski Gold Collection - CD6.flac" WAVE
TRACK 01 AUDIO
TITLE "Two Studies"
PERFORMER ""
INDEX 01 00:00:00
TRACK 02 AUDIO
TITLE "Variations on a Theme by Paganini"
PERFORMER ""
INDEX 01 04:25:06
TRACK 03 AUDIO
TITLE "Five Songs to poems by Kazimiera Illakowiczowna- I. The Sea"
PERFORMER ""
INDEX 01 10:39:15
TRACK 04 AUDIO
TITLE "II. The Wind"
PERFORMER ""
INDEX 01 14:27:08
TRACK 05 AUDIO
TITLE "III. Winter"
PERFORMER ""
INDEX 01 15:42:58
TRACK 06 AUDIO
TITLE "IV. Knights"
PERFORMER ""
INDEX 01 18:51:58
TRACK 07 AUDIO
TITLE "V. Orthodox Church Bells"
PERFORMER ""
INDEX 01 20:16:13
TRACK 08 AUDIO
TITLE "String Quartet"
PERFORMER ""
INDEX 01 22:27:44
TRACK 09 AUDIO
TITLE "Epitaph"
PERFORMER ""
INDEX 01 47:51:26
TRACK 10 AUDIO
TITLE "Grave"
PERFORMER ""
INDEX 01 53:01:21
TRACK 11 AUDIO
TITLE "Partita"
PERFORMER ""
INDEX 01 58:37:44

CD7

REM GENRE Classical
REM DATE 2001
REM DISCID CD0FA20E
REM COMMENT "ExactAudioCopy v1.0b3"
PERFORMER ""
TITLE "Witold Lutoslawski Gold Collection - CD7"
FILE "Witold Lutoslawski Gold Collection - CD7.flac" WAVE
TRACK 01 AUDIO
TITLE "Concerto for Piano and Orchestra I."
PERFORMER ""
INDEX 01 00:00:00
TRACK 02 AUDIO
TITLE "Concerto for Piano and Orchestra II."
PERFORMER ""
INDEX 01 05:21:29
TRACK 03 AUDIO
TITLE "Concerto for Piano and Orchestra III."
PERFORMER ""
INDEX 01 10:15:71
TRACK 04 AUDIO
TITLE "Concerto for Piano and Orchestra IV."
PERFORMER ""
INDEX 01 16:55:48
TRACK 05 AUDIO
TITLE "Chantefleurs et Chantefables- I. La Belle-de-nuit"
PERFORMER ""
INDEX 01 24:52:69
TRACK 06 AUDIO
TITLE "II. La Sauterelle"
PERFORMER ""
INDEX 01 27:15:24
TRACK 07 AUDIO
TITLE "III. La Veronique"
PERFORMER ""
INDEX 01 28:53:08
TRACK 08 AUDIO
TITLE "IV. L'Eglantine, l'aubepine et la glycine"
PERFORMER ""
INDEX 01 31:22:59
TRACK 09 AUDIO
TITLE "V. La Tortue"
PERFORMER ""
INDEX 01 33:01:64
TRACK 10 AUDIO
TITLE "VI. La Rose"
PERFORMER ""
INDEX 01 34:57:12
TRACK 11 AUDIO
TITLE "VII. L'Alligator"
PERFORMER ""
INDEX 01 37:28:43
TRACK 12 AUDIO
TITLE "VIII. L'Angelique"
PERFORMER ""
INDEX 01 40:06:58
TRACK 13 AUDIO
TITLE "IX. Le Papillon"
PERFORMER ""
INDEX 01 42:34:52
TRACK 14 AUDIO
TITLE "Symphony No. 4"
PERFORMER ""
INDEX 01 44:31:56

CD8

REM GENRE Classical
REM DATE 2001
REM DISCID 4D09A106
REM COMMENT "ExactAudioCopy v1.0b3"
PERFORMER ""
TITLE "Witold Lutoslawski Gold Collection - CD8"
FILE "Witold Lutoslawski Gold Collection - CD8.flac" WAVE
TRACK 01 AUDIO
TITLE "Partita"
PERFORMER ""
INDEX 01 00:00:00
TRACK 02 AUDIO
TITLE "Interludium"
PERFORMER ""
INDEX 01 16:00:40
TRACK 03 AUDIO
TITLE "Chain 2- I. Ad libitum"
PERFORMER ""
INDEX 01 22:48:53
TRACK 04 AUDIO
TITLE "II. A battuta"
PERFORMER ""
INDEX 01 26:24:33
TRACK 05 AUDIO
TITLE "III. Ad libitum"
PERFORMER ""
INDEX 01 31:19:33
TRACK 06 AUDIO
TITLE "IV. A battuta - ad libitum - a battuta"
PERFORMER ""
INDEX 01 36:43:51
Доп. информация:
ЛЮТОСЛАВСКИЙ, Витольд (Witold Lutoslawski, 1913-1994) родился в семье помещиков, сын политического деятеля Юзефа Лютославского (1881-1918), отец был арестован и убит большевиками в московской тюрьме. Сочинял музыку с девятилетнего возраста (Прелюдия для фортепиано, 1921), учился игре на скрипке и фортепиано. Закончил Варшавскую консерваторию в 1937 году, параллельно изучал математику — студент Варшавского Университета (1931-1933). В Варшавской консерватории Лютославский учился у известного российского и польского композитора, профессора Витольда Осиповича Малишевского (1873-1939), ученика Н. А. Римского-Корсакова и основателя Одесской консерватории (1913). Именно талантливый педагог Малишевский заложил основы композиторского мастерства Лютославского (другим известным учеником В. О. Малишевского был Н. Н. Вилинский). Лютославский высоко ценил музыкальные произведения другого выдающегося композитора ХХ века — Игоря Стравинского. Как композитор также складывался и под влиянием Кароля Шимановского, увлекался мазовецким фольклором.
[teatrix.ru].t9730.torrent 
Торрент: Зарегистрирован [ 2015-10-23 17:11 ] · 9EA21EABC850D5709D17B399426C80697676260A

Скачать .torrent

Скачать

13 KB

Статус: проверено
Скачан: 0 раз
Размер: 2.09 GB
terms.php



Быстрый ответ

Имя:

      
Для отправки сообщений необходимо включить JavaScript
Показать сообщения:    

Текущее время: 09-Дек 20:31

Часовой пояс: UTC + 3


Вы можете начинать темы
Вы можете отвечать на сообщения
Вы не можете редактировать свои сообщения
Вы не можете удалять свои сообщения
Вы не можете голосовать в опросах
Вы не можете прикреплять файлы к сообщениям
Вы можете скачивать файлы